osu file format v14

[General]
AudioFilename: danmachi.mp3
AudioLeadIn: 1500
PreviewTime: 51367
Countdown: 0
SampleSet: Soft
StackLeniency: 0.3
Mode: 0
LetterboxInBreaks: 0
WidescreenStoryboard: 0

[Editor]
DistanceSpacing: 0.76
BeatDivisor: 4
GridSize: 4
TimelineZoom: 1

[Metadata]
Title:RIGHT LIGHT RISE
TitleUnicode:RIGHT LIGHT RISE
Artist:Wakeshima Kanon
ArtistUnicode:分島花音
Creator:guineaQ
Version:Insane
Source:ダンジョンに出会いを求めるのは間違っているだろうか
Tags:Dungeon ni Deai wo Motomeru no wa Machigatteiru Darou ka Is It Wrong to Try Pick Up Girls in a DanMachi ダンまち ed ending Lanturn tv size
BeatmapID:684221
BeatmapSetID:305531

[Difficulty]
HPDrainRate:6
CircleSize:4
OverallDifficulty:7
ApproachRate:8
SliderMultiplier:1.6
SliderTickRate:1

[Events]
//Background and Video events
0,0,"danmachi.jpg",0,0
Video,-27,"DungeonED.avi"
//Break Periods
//Storyboard Layer 0 (Background)
//Storyboard Layer 1 (Fail)
//Storyboard Layer 2 (Pass)
//Storyboard Layer 3 (Foreground)
//Storyboard Sound Samples

[TimingPoints]
1020,461.538461538462,4,2,1,60,1,0
6558,-200,4,2,1,60,0,0
7481,447.761194029851,4,2,1,60,1,0
8376,447.761194029851,4,2,1,40,1,0
8376,-111.111111111111,4,2,1,30,0,0
22704,-105.263157894737,4,2,1,40,0,0
33450,-100,4,2,2,50,0,0
49346,-100,4,2,2,40,0,0
50465,-100,4,2,2,50,0,0
51361,-90.9090909090909,4,2,2,70,0,1
80017,-100,4,2,2,55,0,1
86958,-100,4,2,2,40,0,0
88973,-100,4,2,2,10,0,0

[Colours]
Combo1 : 255,203,21
Combo2 : 15,135,255
Combo3 : 255,164,11
Combo4 : 90,190,243

[HitObjects]
170,131,1020,6,0,P|140:169|131:212,1,80,4|0,0:0|0:0,0:0:0:0:
248,219,1481,2,0,L|338:209,1,80
348,226,1827,1,0,0:0:0:0:
364,239,1943,1,0,0:0:0:0:
465,191,2173,1,0,0:0:0:0:
299,126,2404,2,0,L|243:131,1,40
173,49,2635,2,0,L|212:45,1,40
347,64,2866,6,0,P|377:118|369:157,1,80,4|0,0:0|0:0,0:0:0:0:
365,161,3212,1,0,0:0:0:0:
355,187,3327,2,0,L|346:282,1,80
335,294,3673,1,0,0:0:0:0:
318,319,3788,1,0,0:0:0:0:
296,338,3904,1,0,0:0:0:0:
269,352,4019,1,0,0:0:0:0:
441,305,4250,2,0,P|447:247|428:202,1,80
427,204,4596,1,0,0:0:0:0:
406,184,4712,6,0,L|352:177,3,40,2|0|0|0,0:1|0:0|0:0|0:0,0:0:0:0:
286,206,5173,2,0,L|232:199,1,40,2|0,0:1|0:0,0:0:0:0:
140,284,5404,2,0,L|179:289,1,40
153,158,5635,6,0,L|117:182,1,40,2|0,0:1|0:0,0:0:0:0:
252,229,5866,2,0,L|285:206,1,40
326,101,6096,2,0,P|269:89|232:61,1,80,2|0,0:1|0:0,0:0:0:0:
225,60,6443,1,0,0:0:0:0:
211,38,6558,6,0,L|207:166,1,120,2|0,0:1|0:0,0:0:0:0:
294,221,7481,1,8,0:0:0:0:
165,174,7704,1,0,0:0:0:0:
227,294,7928,1,0,0:0:0:0:
261,314,8039,1,0,0:0:0:0:
300,319,8151,1,0,0:0:0:0:
377,203,8376,6,0,P|342:151|250:147,1,143.999995605469,4|0,0:0|0:0,0:0:0:0:
179,219,9047,1,0,0:0:0:0:
294,221,9271,2,0,P|348:166|336:90,1,143.999995605469
269,18,9943,1,0,0:0:0:0:
265,140,10167,6,0,L|193:143,1,71.9999978027344
31,143,10614,2,0,L|8:86,1,35.9999989013672
113,50,10838,2,0,L|111:96,1,35.9999989013672
45,180,11062,2,0,P|31:224|39:269,1,71.9999978027344
140,232,11510,1,0,0:0:0:0:
236,282,11734,1,0,0:0:0:0:
236,282,11846,1,0,0:0:0:0:
236,282,11958,6,0,P|280:268|323:274,1,71.9999978027344
421,301,12405,2,0,P|389:259|388:214,1,71.9999978027344
481,121,12853,2,0,L|471:255,1,107.999996704102
421,301,13301,1,0,0:0:0:0:
388,201,13525,1,0,0:0:0:0:
322,102,13749,6,0,L|228:92,1,71.9999978027344
230,93,14084,1,0,0:0:0:0:
204,90,14196,2,0,P|241:141|234:235,1,143.999995605469
191,325,14868,1,2,0:0:0:0:
283,243,15092,1,2,0:0:0:0:
142,177,15316,1,0,0:0:0:0:
211,293,15540,6,0,L|375:282,1,143.999995605469
455,316,16211,1,0,0:0:0:0:
447,174,16435,2,0,P|365:187|309:121,1,143.999995605469
354,30,17107,1,0,0:0:0:0:
394,107,17331,6,0,B|344:115|297:94|237:104,1,143.999995605469,0|2,0:0|0:0,0:0:0:0:
225,113,17890,1,0,0:0:0:0:
205,130,18002,1,0,0:0:0:0:
190,152,18114,1,0,0:0:0:0:
181,178,18226,1,0,0:0:0:0:
275,193,18450,1,2,0:0:0:0:
330,73,18674,1,2,0:0:0:0:
205,130,18898,1,2,0:0:0:0:
202,260,19122,6,0,P|211:306|200:346,1,71.9999978027344
129,187,19570,1,0,0:0:0:0:
107,304,19793,2,0,P|64:320|23:324,2,71.9999978027344
123,296,20353,1,0,0:0:0:0:
138,287,20465,1,0,0:0:0:0:
148,169,20689,1,0,0:0:0:0:
69,79,20913,6,0,P|53:151|78:239,1,143.999995605469,2|4,0:0|0:0,0:0:0:0:
168,289,21584,2,0,L|267:287,1,71.9999978027344,0|2,0:0|0:0,0:0:0:0:
256,280,21920,1,2,0:0:0:0:
276,274,22032,1,2,0:0:0:0:
293,271,22144,1,2,0:0:0:0:
315,270,22256,1,2,0:0:0:0:
434,301,22480,1,2,0:0:0:0:
347,199,22704,6,0,P|339:138|373:49,1,151.999995941162,6|0,0:0|0:0,0:0:0:0:
453,9,23376,1,0,0:0:0:0:
340,74,23599,2,0,L|247:77,1,75.9999979705811
138,37,24047,1,0,0:0:0:0:
193,136,24271,1,0,0:0:0:0:
196,151,24383,1,0,0:0:0:0:
199,166,24495,5,2,0:0:0:0:
89,250,24719,1,0,0:0:0:0:
229,147,24943,1,0,0:0:0:0:
81,84,25167,2,0,L|40:81,2,37.9999989852906
189,36,25614,1,2,0:0:0:0:
256,160,25838,1,8,0:0:0:0:
116,188,26062,1,0,0:0:0:0:
265,76,26286,5,0,0:0:0:0:
265,76,26510,2,0,P|323:78|366:71,1,75.9999979705811
465,40,26958,2,0,L|510:22,1,37.9999989852906
465,40,27181,2,0,P|460:105|468:147,1,75.9999979705811
462,131,27517,1,0,0:0:0:0:
463,149,27629,1,0,0:0:0:0:
500,284,27853,1,2,0:0:0:0:
380,203,28077,6,0,L|281:197,1,75.9999979705811
177,249,28525,2,0,B|142:181|142:181|160:93,2,151.999995941162,2|2|8,0:0|0:0|0:0,0:0:0:0:
249,344,29644,1,0,0:0:0:0:
338,231,29868,5,0,0:0:0:0:
198,275,30092,1,0,0:0:0:0:
183,125,30316,1,0,0:0:0:0:
309,212,30540,2,0,L|360:212,1,37.9999989852906
300,137,30764,2,0,P|245:169|261:270,1,151.999995941162
331,324,31435,1,0,0:0:0:0:
440,282,31659,5,0,0:0:0:0:
309,212,31883,1,0,0:0:0:0:
431,135,32107,1,0,0:0:0:0:
275,234,32331,5,0,0:0:0:0:
468,200,32555,1,0,0:0:0:0:
279,38,32778,5,0,0:0:0:0:
371,217,33002,1,2,0:1:0:0:
370,254,33114,1,2,0:1:0:0:
355,289,33225,1,2,0:1:0:0:
328,315,33337,1,2,0:1:0:0:
293,329,33450,5,6,0:0:0:0:
184,260,33674,2,0,P|179:212|201:164,1,80
289,82,34122,2,0,L|368:78,1,80
210,153,34570,1,0,0:0:0:0:
100,21,34793,1,8,0:0:0:0:
193,55,35017,1,0,0:0:0:0:
77,152,35241,5,0,0:0:0:0:
210,153,35465,1,0,0:0:0:0:
96,55,35689,1,0,0:0:0:0:
61,238,35913,1,0,0:0:0:0:
324,194,36137,2,0,P|330:143|304:99,1,80,8|0,0:0|0:0,0:0:0:0:
155,126,36584,1,0,0:0:0:0:
151,165,36695,1,0,0:0:0:0:
147,205,36807,1,0,0:0:0:0:
82,344,37032,6,0,P|39:358|-13:351,2,80,6|0|0,0:0|0:0|0:0,0:0:0:0:
147,205,37704,1,8,0:0:0:0:
27,262,37928,1,0,0:0:0:0:
171,307,38152,1,0,0:0:0:0:
236,136,38376,1,8,0:0:0:0:
241,96,38487,1,0,0:0:0:0:
246,56,38599,1,0,0:0:0:0:
394,45,38823,5,0,0:0:0:0:
230,196,39047,1,8,0:0:0:0:
246,56,39271,1,0,0:0:0:0:
355,135,39495,1,0,0:0:0:0:
125,115,39719,2,0,P|74:121|32:115,2,80,8|0|0,0:0|0:0|0:0,0:0:0:0:
265,76,40390,1,8,0:0:0:0:
265,76,40502,1,0,0:0:0:0:
265,76,40614,5,6,0:0:0:0:
165,20,40838,1,0,0:0:0:0:
142,193,41062,1,0,0:0:0:0:
358,129,41286,1,8,0:0:0:0:
214,170,41510,1,0,0:0:0:0:
314,236,41734,1,0,0:0:0:0:
314,236,41846,1,0,0:0:0:0:
314,236,41958,1,8,0:0:0:0:
263,332,42181,1,0,0:0:0:0:
214,170,42405,5,0,0:0:0:0:
347,312,42629,1,8,0:0:0:0:
178,236,42853,2,0,P|140:193|145:142,1,80,4|0,0:0|0:0,0:0:0:0:
149,140,43189,1,8,0:0:0:0:
166,112,43301,2,0,P|182:72|171:24,1,80,2|0,0:0|0:0,0:0:0:0:
67,85,43749,1,8,0:0:0:0:
62,124,43860,1,0,0:0:0:0:
78,160,43972,1,0,0:0:0:0:
206,249,44196,6,0,L|336:240,1,120,6|2,0:0|0:0,0:0:0:0:
389,199,44644,1,8,0:0:0:0:
326,315,44868,2,0,P|286:304|271:193,1,160,2|2,0:0|0:0,0:0:0:0:
362,121,45540,1,8,0:0:0:0:
325,240,45764,6,0,B|209:226|209:226|172:195,1,160,2|2,0:0|0:0,0:0:0:0:
71,84,46435,2,0,L|40:55,3,40,8|0|0|0,0:0|0:0|0:0|0:0,0:0:0:0:
126,32,46883,2,0,P|145:68|121:142,1,120,2|8,0:0|0:0,0:0:0:0:
115,146,47331,1,0,0:0:0:0:
108,153,47443,1,0,0:0:0:0:
100,160,47555,1,0,0:0:0:0:
5,235,47778,6,0,B|58:240|93:284|93:284|126:290|160:281,1,160,6|0,0:0|0:0,0:0:0:0:
259,269,48450,1,2,0:0:0:0:
345,158,48674,1,8,0:0:0:0:
326,317,48898,1,8,0:0:0:0:
199,217,49122,1,8,0:0:0:0:
375,240,49346,5,0,0:0:0:0:
272,62,49793,1,0,0:0:0:0:
272,62,50017,1,0,0:0:0:0:
168,231,50241,6,0,L|114:235,1,40,2|0,0:0|0:0,0:0:0:0:
43,145,50465,2,0,L|56:90,1,40,2|0,0:0|0:0,0:0:0:0:
192,160,50689,1,2,0:0:0:0:
146,320,50913,1,8,0:0:0:0:
44,236,51137,1,8,0:0:0:0:
137,111,51361,6,0,P|201:88|262:178,1,176.000005371094,6|8,0:0|0:0,0:0:0:0:
292,282,52032,1,0,0:0:0:0:
192,160,52256,1,0,0:0:0:0:
388,199,52480,1,0,0:0:0:0:
269,307,52704,2,0,P|222:311|174:305,1,88.000002685547,8|0,0:0|0:0,0:0:0:0:
153,301,53040,1,0,0:0:0:0:
126,292,53152,6,0,B|97:248|117:207|138:158|102:110,1,176.000005371094,2|8,0:0|0:0,0:0:0:0:
7,171,53823,1,0,0:0:0:0:
19,174,53935,1,0,0:0:0:0:
31,176,54047,1,2,0:0:0:0:
143,95,54271,1,0,0:0:0:0:
210,243,54495,1,8,0:0:0:0:
41,178,54719,1,0,0:0:0:0:
171,75,54943,6,0,L|211:41,1,44.0000013427735,2|0,0:0|0:0,0:0:0:0:
340,53,55167,2,0,L|304:84,1,44.0000013427735
237,179,55390,2,0,P|224:237|246:279,2,88.000002685547,8|0|2,0:0|0:0|0:0,0:0:0:0:
142,111,56062,1,0,0:0:0:0:
303,224,56286,1,8,0:0:0:0:
199,282,56510,1,0,0:0:0:0:
286,112,56734,5,2,0:0:0:0:
425,209,56958,1,0,0:0:0:0:
287,307,57181,2,0,P|285:262|304:222,1,88.000002685547,8|0,0:0|0:0,0:0:0:0:
492,264,57629,2,0,P|446:294|367:272,1,132.00000402832,2|0,0:0|0:0,0:0:0:0:
302,223,58077,2,0,L|200:217,1,88.000002685547,8|0,0:0|0:0,0:0:0:0:
193,232,58413,1,0,0:0:0:0:
171,250,58525,6,0,P|190:185|96:120,1,176.000005371094,6|8,0:0|0:0,0:0:0:0:
36,232,59196,2,0,P|84:224|122:173,1,88.000002685547,0|2,0:0|0:0,0:0:0:0:
208,74,59644,1,0,0:0:0:0:
45,155,59868,1,8,0:0:0:0:
171,250,60092,1,0,0:0:0:0:
266,167,60316,6,0,L|369:163,1,88.000002685547,2|0,0:0|0:0,0:0:0:0:
482,234,60764,1,8,0:0:0:0:
415,110,60987,1,0,0:0:0:0:
250,265,61211,1,2,0:0:0:0:
250,265,61659,2,0,P|200:276|146:257,1,88.000002685547,8|0,0:0|0:0,0:0:0:0:
100,112,62107,5,6,0:0:0:0:
203,194,62331,1,0,0:0:0:0:
268,67,62555,1,8,0:0:0:0:
135,136,62778,1,0,0:0:0:0:
278,252,63002,2,0,B|326:278|371:252|371:246|415:222|477:251,1,176.000005371094,2|8,0:0|0:0,0:0:0:0:
318,182,63674,1,0,0:0:0:0:
480,160,63898,5,2,0:0:0:0:
418,320,64122,1,0,0:0:0:0:
392,126,64346,2,0,P|350:94|309:89,1,88.000002685547,8|0,0:0|0:0,0:0:0:0:
292,93,64681,1,0,0:0:0:0:
274,104,64793,1,2,0:0:0:0:
240,244,65017,1,0,0:0:0:0:
96,299,65241,1,8,0:0:0:0:
84,280,65352,1,0,0:0:0:0:
75,260,65464,1,0,0:0:0:0:
70,238,65576,1,0,0:0:0:0:
69,216,65689,6,0,L|74:144,2,44.0000013427735,2|0|0,0:0|0:0|0:0,0:0:0:0:
140,104,66137,2,0,P|186:92|240:98,1,88.000002685547,12|0,0:0|0:0,0:0:0:0:
360,135,66584,1,2,0:0:0:0:
387,273,66808,1,0,0:0:0:0:
275,182,67032,1,8,0:0:0:0:
319,41,67256,1,0,0:0:0:0:
340,39,67367,1,0,0:0:0:0:
362,38,67480,6,0,P|432:73|446:185,1,176.000005371094,6|8,0:0|0:0,0:0:0:0:
387,273,68152,1,0,0:0:0:0:
384,294,68263,1,0,0:0:0:0:
381,316,68375,1,2,0:0:0:0:
367,182,68599,1,0,0:0:0:0:
253,260,68823,1,8,0:0:0:0:
145,182,69047,1,0,0:0:0:0:
308,128,69271,6,0,L|349:167,1,44.0000013427735,2|0,0:0|0:0,0:0:0:0:
200,233,69495,2,0,L|168:202,1,44.0000013427735
95,97,69719,2,0,P|86:39|105:0,2,88.000002685547,8|0|2,0:0|0:0|0:0,0:0:0:0:
168,202,70390,1,0,0:0:0:0:
165,57,70614,1,8,0:0:0:0:
293,124,70838,1,0,0:0:0:0:
124,130,71062,5,2,0:0:0:0:
134,281,71286,1,0,0:0:0:0:
323,260,71510,2,0,P|288:217|253:201,1,88.000002685547,8|0,0:0|0:0,0:0:0:0:
103,162,71958,1,2,0:0:0:0:
81,162,72069,1,0,0:0:0:0:
59,163,72181,1,0,0:0:0:0:
202,110,72405,1,8,0:0:0:0:
226,255,72629,1,0,0:0:0:0:
103,162,72853,6,0,P|93:81|173:10,1,176.000005371094,6|8,0:0|0:0,0:0:0:0:
256,125,73525,2,0,P|292:149|357:146,1,88.000002685547,0|2,0:0|0:0,0:0:0:0:
474,83,73973,1,0,0:0:0:0:
322,66,74196,1,8,0:0:0:0:
429,165,74420,1,0,0:0:0:0:
287,207,74644,6,0,L|189:213,1,88.000002685547,2|0,0:0|0:0,0:0:0:0:
67,172,75092,1,8,0:0:0:0:
98,305,75316,1,0,0:0:0:0:
148,156,75540,1,2,0:0:0:0:
148,156,75987,2,0,P|149:86|131:60,1,88.000002685547,8|0,0:0|0:0,0:0:0:0:
44,246,76435,5,6,0:0:0:0:
176,294,76659,1,0,0:0:0:0:
81,118,76883,1,8,0:0:0:0:
44,246,77107,1,0,0:0:0:0:
164,186,77331,1,2,0:0:0:0:
213,305,77555,1,0,0:0:0:0:
60,236,77778,2,0,L|58:172,1,44.0000013427735,8|0,0:0|0:0,0:0:0:0:
176,101,78002,2,0,L|177:144,1,44.0000013427735,2|0,0:0|0:0,0:0:0:0:
164,186,78226,5,2,0:0:0:0:
164,186,78898,1,0,0:0:0:0:
185,200,79009,1,0,0:0:0:0:
207,213,79122,2,0,B|275:213|275:213|348:174,2,132.00000402832,2|2|0,0:0|0:0|0:0,0:0:0:0:
105,138,80017,6,0,P|59:122|12:125,1,80,6|0,0:0|0:0,0:0:0:0:
44,245,80465,1,8,0:0:0:0:
183,198,80689,2,0,P|200:159|196:107,2,80,0|2|0,0:0|0:0|0:0,0:0:0:0:
44,245,81361,2,0,L|35:342,1,80,8|0,0:0|0:0,0:0:0:0:
143,279,81808,6,0,P|178:289|228:274,1,80,2|0,0:0|0:0,0:0:0:0:
329,226,82256,1,8,0:0:0:0:
183,198,82480,1,0,0:0:0:0:
329,226,82704,1,2,0:0:0:0:
341,202,82815,1,0,0:0:0:0:
350,177,82927,1,0,0:0:0:0:
354,151,83039,1,0,0:0:0:0:
354,124,83151,1,8,0:0:0:0:
349,98,83263,1,0,0:0:0:0:
340,73,83375,1,0,0:0:0:0:
216,58,83599,6,0,L|124:58,1,80,6|0,0:0|0:0,0:0:0:0:
117,74,83935,1,0,0:0:0:0:
100,88,84047,1,8,0:0:0:0:
41,164,84271,2,0,P|110:184|194:111,1,160,2|2,0:0|0:0,0:0:0:0:
256,45,84943,1,8,0:0:0:0:
330,140,85167,6,0,P|394:182|470:163,1,160,6|2,0:0|0:0,0:0:0:0:
256,192,85838,1,8,0:0:0:0:
412,88,86062,2,0,P|408:29|324:62,1,160,6|2,0:0|0:0,0:0:0:0:
256,192,86734,1,8,0:0:0:0:
184,42,86958,1,6,0:0:0:0:
256,192,87070,12,0,88973,0:0:0:0:
