osu file format v14

[General]
AudioFilename: danmachi.mp3
AudioLeadIn: 1500
PreviewTime: 51367
Countdown: 0
SampleSet: Soft
StackLeniency: 0.3
Mode: 0
LetterboxInBreaks: 0
WidescreenStoryboard: 0

[Editor]
DistanceSpacing: 1.3
BeatDivisor: 4
GridSize: 4
TimelineZoom: 1

[Metadata]
Title:RIGHT LIGHT RISE
TitleUnicode:RIGHT LIGHT RISE
Artist:Wakeshima Kanon
ArtistUnicode:分島花音
Creator:guineaQ
Version:Hard
Source:ダンジョンに出会いを求めるのは間違っているだろうか
Tags:Dungeon ni Deai wo Motomeru no wa Machigatteiru Darou ka Is It Wrong to Try Pick Up Girls in a DanMachi ダンまち ed ending Lanturn tv size
BeatmapID:684534
BeatmapSetID:305531

[Difficulty]
HPDrainRate:5
CircleSize:4
OverallDifficulty:5.5
ApproachRate:7
SliderMultiplier:1.4
SliderTickRate:1

[Events]
//Background and Video events
0,0,"danmachi.jpg",0,0
Video,-27,"DungeonED.avi"
//Break Periods
//Storyboard Layer 0 (Background)
//Storyboard Layer 1 (Fail)
//Storyboard Layer 2 (Pass)
//Storyboard Layer 3 (Foreground)
//Storyboard Sound Samples

[TimingPoints]
1020,461.538461538462,4,2,1,60,1,0
7481,447.761194029851,4,2,1,60,1,0
8376,447.761194029851,4,2,1,40,1,0
8376,-111.111111111111,4,2,1,40,0,0
22704,-105.263157894737,4,2,1,40,0,0
33450,-100,4,2,2,50,0,0
49346,-100,4,2,2,40,0,0
50465,-100,4,2,2,50,0,0
51361,-90.9090909090909,4,2,2,70,0,1
80017,-100,4,2,2,55,0,1
86958,-100,4,2,2,40,0,0
88973,-100,4,2,2,10,0,0

[Colours]
Combo1 : 255,203,21
Combo2 : 15,135,255
Combo3 : 255,164,11
Combo4 : 90,190,243

[HitObjects]
171,94,1020,6,0,L|179:171,1,70,4|0,0:0|0:0,0:0:0:0:
253,201,1481,2,0,P|265:243|250:293,1,70,0|0,0:0|0:0,0:0:0:0:
179,248,1943,2,0,L|98:252,2,70,0|0|0,0:0|0:0|0:0,0:0:0:0:
254,286,2635,1,0,0:0:0:0:
328,325,2866,6,0,B|413:310|413:310|436:248,1,140,4|0,0:0|0:0,0:0:0:0:
413,177,3558,1,0,0:0:0:0:
439,89,3789,2,0,P|502:158|494:217,1,140
413,177,4481,1,0,0:0:0:0:
336,141,4712,6,0,L|280:144,3,35,2|0|0|0,0:1|0:0|0:0|0:0,0:0:0:0:
261,128,5173,2,0,B|175:135|175:135|123:172,1,140,2|2,0:1|0:1,0:0:0:0:
62,215,5866,1,0,0:0:0:0:
31,292,6096,2,0,P|59:301|116:277,1,70,2|0,0:1|0:0,0:0:0:0:
166,241,6558,6,0,B|221:238|259:281|259:281|303:186|291:104,1,280,2|8,0:1|0:0,0:0:0:0:
290,23,7704,1,0,0:0:0:0:
290,23,7928,2,0,L|241:6,2,35,0|0|0,0:0|0:0|0:0,0:0:0:0:
364,57,8376,6,0,L|374:205,1,125.999996154785,4|0,0:0|0:0,0:0:0:0:
332,254,9047,1,0,0:0:0:0:
261,213,9271,2,0,P|316:175|389:194,1,125.999996154785,0|0,0:0|0:0,0:0:0:0:
442,224,9943,1,0,0:0:0:0:
332,254,10167,6,0,L|316:324,1,62.9999980773926,0|0,0:0|0:0,0:0:0:0:
230,362,10614,2,0,L|215:300,1,62.9999980773926,0|0,0:0|0:0,0:0:0:0:
173,230,11062,2,0,P|139:221|103:222,1,62.9999980773926,0|0,0:0|0:0,0:0:0:0:
42,265,11510,1,0,0:0:0:0:
128,315,11734,1,0,0:0:0:0:
206,337,11958,6,0,P|242:341|286:335,2,62.9999980773926
128,315,12629,1,0,0:0:0:0:
209,303,12853,2,0,P|249:255|237:182,1,125.999996154785,0|0,0:0|0:0,0:0:0:0:
217,116,13525,1,0,0:0:0:0:
180,42,13749,6,0,P|223:33|255:42,1,62.9999980773926,0|0,0:0|0:0,0:0:0:0:
217,116,14196,2,0,P|166:124|102:67,1,125.999996154785,0|0,0:0|0:0,0:0:0:0:
51,205,14868,1,2,0:0:0:0:
51,205,15092,2,0,L|-19:209,1,62.9999980773926,2|0,0:0|0:0,0:0:0:0:
69,129,15540,6,0,P|115:163|116:248,1,125.999996154785,0|0,0:0|0:0,0:0:0:0:
133,309,16211,1,0,0:0:0:0:
213,298,16435,2,0,P|161:232|109:231,1,125.999996154785,0|0,0:0|0:0,0:0:0:0:
44,246,17107,1,0,0:0:0:0:
133,309,17331,6,0,P|192:331|247:370,1,125.999996154785,0|2,0:0|0:0,0:0:0:0:
324,353,18002,1,0,0:0:0:0:
274,289,18226,2,0,P|274:245|291:216,2,62.9999980773926,0|2|2,0:0|0:0|0:0,0:0:0:0:
353,269,18898,1,2,0:0:0:0:
393,197,19122,6,0,L|399:121,1,62.9999980773926,0|0,0:0|0:0,0:0:0:0:
376,54,19570,2,0,P|411:46|462:45,1,62.9999980773926,0|0,0:0|0:0,0:0:0:0:
397,134,20017,2,0,P|353:129|298:107,1,94.499997116089,0|0,0:0|0:0,0:0:0:0:
268,94,20465,2,0,L|183:94,1,62.9999980773926,0|0,0:0|0:0,0:0:0:0:
124,79,20913,5,2,0:0:0:0:
189,229,21361,2,0,L|191:304,1,62.9999980773926,4|0,0:0|0:0,0:0:0:0:
257,339,21808,2,0,L|299:349,3,31.4999990386963,2|2|2|2,0:0|0:0|0:0|0:0,0:0:0:0:
323,326,22256,2,0,L|372:323,3,31.4999990386963,2|0|2|0,0:0|0:0|0:0|0:0,0:0:0:0:
397,333,22704,6,0,P|468:310|497:249,1,132.999996448517,6|0,0:0|0:0,0:0:0:0:
410,245,23376,1,0,0:0:0:0:
410,245,23599,2,0,L|332:247,1,66.4999982242585,0|0,0:0|0:0,0:0:0:0:
271,197,24047,1,0,0:0:0:0:
263,283,24271,1,0,0:0:0:0:
200,342,24495,6,0,P|170:356|111:343,2,66.4999982242585,2|0|0,0:0|0:0|0:0,0:0:0:0:
237,263,25167,1,0,0:0:0:0:
151,275,25390,2,0,P|128:239|125:200,1,66.4999982242585,0|2,0:0|0:0,0:0:0:0:
114,129,25838,1,8,0:0:0:0:
114,129,26062,1,0,0:0:0:0:
128,43,26286,6,0,L|54:31,2,66.4999982242585,0|0|0,0:0|0:0|0:0,0:0:0:0:
198,94,26958,2,0,L|279:78,1,66.4999982242585,0|0,0:0|0:0,0:0:0:0:
337,36,27405,2,0,P|349:80|339:115,1,66.4999982242585,0|0,0:0|0:0,0:0:0:0:
319,182,27853,1,2,0:0:0:0:
393,226,28077,6,0,P|405:196|401:150,1,66.4999982242585,0|0,0:0|0:0,0:0:0:0:
345,99,28525,1,2,0:0:0:0:
285,261,28973,1,2,0:0:0:0:
452,219,29420,1,8,0:0:0:0:
452,219,29644,1,0,0:0:0:0:
478,136,29868,6,0,P|487:90|479:52,2,66.4999982242585,0|0|0,0:0|0:0|0:0,0:0:0:0:
452,219,30540,1,0,0:0:0:0:
381,269,30764,2,0,L|305:277,1,66.4999982242585
233,306,31211,2,0,L|223:224,1,66.4999982242585
196,158,31659,6,0,L|103:151,2,66.4999982242585,0|0|0,0:0|0:0|0:0,0:0:0:0:
279,180,32331,1,0,0:0:0:0:
321,104,32555,1,0,0:0:0:0:
238,79,32778,1,0,0:0:0:0:
196,158,33002,2,0,L|174:197,3,33.2499991121292,2|2|2|2,0:1|0:1|0:1|0:1,0:0:0:0:
138,208,33450,6,0,L|151:287,1,70,6|0,0:0|0:0,0:0:0:0:
220,335,33898,1,0,0:0:0:0:
277,265,34122,2,0,P|281:222|314:183,1,70,0|0,0:0|0:0,0:0:0:0:
368,253,34570,1,0,0:0:0:0:
377,343,34793,1,8,0:0:0:0:
277,265,35017,1,0,0:0:0:0:
368,253,35241,5,0,0:0:0:0:
453,222,35465,1,0,0:0:0:0:
453,222,35689,2,0,P|482:197|503:145,1,70,0|0,0:0|0:0,0:0:0:0:
390,124,36137,2,0,L|319:103,1,70,8|0,0:0|0:0,0:0:0:0:
237,72,36584,2,0,L|198:72,3,35,0|0|0|0,0:0|0:0|0:0|0:0,0:0:0:0:
162,95,37032,6,0,P|178:142|167:183,1,70,6|0,0:0|0:0,0:0:0:0:
120,234,37480,1,0,0:0:0:0:
37,195,37704,2,0,P|71:155|108:144,1,70,8|0,0:0|0:0,0:0:0:0:
175,161,38152,1,0,0:0:0:0:
263,183,38376,2,0,L|359:183,1,70,8|0,0:0|0:0,0:0:0:0:
406,129,38823,5,0,0:0:0:0:
435,208,39047,2,0,L|442:280,1,70,8|0,0:0|0:0,0:0:0:0:
382,347,39495,1,0,0:0:0:0:
311,289,39719,2,0,P|274:272|225:281,1,70,8|0,0:0|0:0,0:0:0:0:
158,301,40167,1,0,0:0:0:0:
256,364,40390,1,8,0:0:0:0:
245,273,40614,6,0,L|242:199,1,70,6|0,0:0|0:0,0:0:0:0:
231,112,41062,1,0,0:0:0:0:
313,149,41286,1,8,0:0:0:0:
369,77,41510,2,0,P|344:62|289:62,1,70,0|0,0:0|0:0,0:0:0:0:
231,112,41958,2,0,L|150:112,1,70,8|0,0:0|0:0,0:0:0:0:
82,65,42405,5,0,0:0:0:0:
102,182,42629,1,8,0:0:0:0:
221,196,42853,2,0,P|265:189|299:151,1,70,4|0,0:0|0:0,0:0:0:0:
310,136,43189,1,8,0:0:0:0:
328,94,43301,2,0,L|410:94,1,70,2|0,0:0|0:0,0:0:0:0:
479,135,43749,2,0,L|516:135,2,35,8|0|0,0:0|0:0|0:0,0:0:0:0:
402,183,44196,6,0,P|385:231|407:287,1,105,6|2,0:0|0:0,0:0:0:0:
434,312,44644,1,8,0:0:0:0:
479,233,44868,2,0,L|324:233,1,140,2|2,0:0|0:0,0:0:0:0:
256,272,45540,1,8,0:0:0:0:
173,233,45764,6,0,L|33:233,1,140,2|2,0:0|0:0,0:0:0:0:
33,233,46435,1,8,0:0:0:0:
151,94,46883,2,0,P|182:68|265:69,1,105,2|8,0:0|0:0,0:0:0:0:
287,78,47331,2,0,L|324:47,2,35,0|0|0,0:0|0:0|0:0,0:0:0:0:
222,142,47778,6,0,B|205:183|220:213|227:214|239:248|221:293,1,140,6|0,0:0|0:0,0:0:0:0:
157,340,48450,1,2,0:0:0:0:
139,250,48674,5,8,0:0:0:0:
247,288,48898,1,8,0:0:0:0:
157,340,49122,1,8,0:0:0:0:
135,235,49346,1,0,0:0:0:0:
135,235,50241,1,2,0:0:0:0:
135,235,50353,1,0,0:0:0:0:
135,235,50465,6,0,L|92:262,2,35,2|0|2,0:0|0:0|0:0,0:0:0:0:
181,156,50913,1,8,0:0:0:0:
239,230,51137,1,8,0:0:0:0:
239,230,51361,6,0,P|283:227|331:202,1,77.0000023498536,6|0,0:0|0:0,0:0:0:0:
398,162,51808,2,0,L|345:83,1,77.0000023498536,8|0,0:0|0:0,0:0:0:0:
313,214,52256,1,0,0:0:0:0:
401,261,52480,2,0,L|495:249,2,77.0000023498536,0|8|0,0:0|0:0|0:0,0:0:0:0:
391,275,53040,1,0,0:0:0:0:
380,290,53152,6,0,P|315:315|231:273,1,154.000004699707,2|8,0:0|0:0,0:0:0:0:
201,192,53823,1,0,0:0:0:0:
201,192,53935,1,0,0:0:0:0:
201,192,54047,2,0,L|96:218,1,77.0000023498536,2|0,0:0|0:0,0:0:0:0:
27,229,54495,2,0,P|26:189|41:153,1,77.0000023498536,8|0,0:0|0:0,0:0:0:0:
126,210,54943,6,0,L|135:260,3,38.5000011749268,2|0|0|0,0:0|0:0|0:0|0:0,0:0:0:0:
144,296,55390,1,8,0:0:0:0:
222,233,55614,2,0,P|250:195|255:140,1,77.0000023498536,0|2,0:0|0:0,0:0:0:0:
221,72,56062,1,0,0:0:0:0:
121,84,56286,2,0,P|144:137|175:161,1,77.0000023498536,8|0,0:0|0:0,0:0:0:0:
256,166,56734,5,2,0:0:0:0:
347,124,56958,2,0,L|453:117,2,77.0000023498536,0|8|0,0:0|0:0|0:0,0:0:0:0:
256,166,57629,2,0,P|200:195|174:258,1,115.50000352478,2|0,0:0|0:0,0:0:0:0:
176,240,58077,1,8,0:0:0:0:
273,263,58301,1,0,0:0:0:0:
273,263,58413,1,0,0:0:0:0:
273,263,58525,6,0,L|276:347,1,77.0000023498536,6|0,0:0|0:0,0:0:0:0:
367,299,58973,1,8,0:0:0:0:
455,253,59196,2,0,P|419:214|367:203,1,77.0000023498536,0|2,0:0|0:0,0:0:0:0:
301,173,59644,1,0,0:0:0:0:
260,281,59868,2,0,L|163:272,1,77.0000023498536,8|0,0:0|0:0,0:0:0:0:
84,291,60316,5,2,0:0:0:0:
80,190,60540,1,0,0:0:0:0:
183,273,60764,2,0,P|182:320|162:355,1,77.0000023498536,8|0,0:0|0:0,0:0:0:0:
84,291,61211,2,0,P|34:239|95:190,1,154.000004699707,2|8,0:0|0:0,0:0:0:0:
179,174,61883,1,0,0:0:0:0:
57,169,62107,6,0,P|36:119|49:75,1,77.0000023498536,6|0,0:0|0:0,0:0:0:0:
163,39,62555,1,8,0:0:0:0:
120,113,62778,1,0,0:0:0:0:
170,26,63002,2,0,B|211:14|249:26|249:35|290:50|333:25,1,154.000004699707,2|8,0:0|0:0,0:0:0:0:
417,3,63674,1,0,0:0:0:0:
333,57,63898,5,2,0:0:0:0:
423,99,64122,1,0,0:0:0:0:
308,78,64346,2,0,P|271:124|264:182,1,115.50000352478,8|0,0:0|0:0,0:0:0:0:
263,178,64793,1,2,0:0:0:0:
370,165,65017,1,0,0:0:0:0:
332,262,65241,2,0,L|285:275,3,38.5000011749268,8|0|0|0,0:0|0:0|0:0|0:0,0:0:0:0:
269,316,65689,6,0,P|226:303|183:311,1,77.0000023498536,2|0,0:0|0:0,0:0:0:0:
109,360,66137,2,0,P|92:301|111:262,1,77.0000023498536,12|0,0:0|0:0,0:0:0:0:
203,233,66584,1,2,0:0:0:0:
96,167,66808,1,0,0:0:0:0:
95,287,67032,1,8,0:0:0:0:
203,233,67256,1,0,0:0:0:0:
203,233,67368,1,0,0:0:0:0:
203,233,67480,6,0,B|218:156|200:109|200:109|243:85,1,154.000004699707,6|8,0:0|0:0,0:0:0:0:
315,50,68152,1,0,0:0:0:0:
315,50,68264,1,0,0:0:0:0:
315,50,68376,2,0,P|336:79|402:95,1,77.0000023498536,2|0,0:0|0:0,0:0:0:0:
433,173,68823,2,0,P|441:216|428:261,1,77.0000023498536,8|0,0:0|0:0,0:0:0:0:
341,210,69271,6,0,L|283:216,3,38.5000011749268,2|0|0|0,0:0|0:0|0:0|0:0,0:0:0:0:
252,220,69719,1,8,0:0:0:0:
163,172,69943,2,0,P|148:130|160:77,1,77.0000023498536,0|2,0:0|0:0,0:0:0:0:
248,120,70390,1,0,0:0:0:0:
179,192,70614,2,0,L|90:202,1,77.0000023498536,8|0,0:0|0:0,0:0:0:0:
9,239,71062,5,2,0:0:0:0:
21,139,71286,2,0,L|9:49,2,77.0000023498536,0|8|0,0:0|0:0|0:0,0:0:0:0:
9,239,71958,2,0,L|18:289,2,38.5000011749268,2|0|0,0:0|0:0|0:0,0:0:0:0:
21,139,72405,2,0,P|66:153|100:205,1,77.0000023498536,8|0,0:0|0:0,0:0:0:0:
149,251,72853,6,0,P|189:286|291:282,1,154.000004699707,6|8,0:0|0:0,0:0:0:0:
234,198,73525,2,0,P|245:151|278:118,1,77.0000023498536,0|2,0:0|0:0,0:0:0:0:
334,199,73973,2,0,P|368:231|375:289,2,77.0000023498536,0|8|0,0:0|0:0|0:0,0:0:0:0:
234,198,74644,5,2,0:0:0:0:
210,325,74868,1,0,0:0:0:0:
296,274,75092,1,8,0:0:0:0:
234,198,75316,1,0,0:0:0:0:
218,297,75540,2,0,P|270:350|358:324,1,154.000004699707,2|8,0:0|0:0,0:0:0:0:
425,280,76211,1,0,0:0:0:0:
296,274,76435,5,6,0:0:0:0:
367,204,76659,2,0,P|383:153|370:103,2,77.0000023498536,0|8|0,0:0|0:0|0:0,0:0:0:0:
296,274,77331,2,0,P|223:271|169:241,1,115.50000352478,2|0,0:0|0:0,0:0:0:0:
141,228,77778,2,0,L|79:228,4,38.5000011749268,8|0|2|0|2,0:0|0:0|0:0|0:0|0:0,0:0:0:0:
193,162,79122,6,0,B|212:105|212:105|191:40,2,115.50000352478,2|2|0,0:0|0:0|0:0,0:0:0:0:
141,271,80017,6,0,P|206:253|288:271,1,140,6|8,0:0|0:0,0:0:0:0:
364,290,80689,2,0,P|361:324|370:361,2,70,0|2|0,0:0|0:0|0:0,0:0:0:0:
342,201,81361,2,0,P|359:157|353:113,1,70,8|0,0:0|0:0,0:0:0:0:
315,54,81808,6,0,P|252:85|280:152,1,140,2|8,0:0|0:0,0:0:0:0:
358,134,82480,1,0,0:0:0:0:
435,86,82704,2,0,P|442:44|433:7,2,70,2|0|8,0:0|0:0|0:0,0:0:0:0:
385,162,83376,1,0,0:0:0:0:
326,231,83599,6,0,L|180:234,1,140,6|8,0:0|0:0,0:0:0:0:
121,299,84271,2,0,P|94:234|127:164,1,140,2|2,0:0|0:0,0:0:0:0:
186,233,84943,1,8,0:0:0:0:
256,290,85167,6,0,P|327:298|390:359,1,140,6|2,0:0|0:0,0:0:0:0:
378,339,85838,1,8,0:0:0:0:
421,258,86062,2,0,B|409:174|409:174|355:147,1,140,6|2,0:0|0:0,0:0:0:0:
270,170,86734,1,8,0:0:0:0:
294,82,86958,1,6,0:0:0:0:
256,192,87070,12,0,88973,0:0:0:0:
