osu file format v13

[General]
AudioFilename: WAG ZOOZOO.mp3
AudioLeadIn: 2000
PreviewTime: 35242
Countdown: 0
SampleSet: Soft
StackLeniency: 0.7
Mode: 0
LetterboxInBreaks: 0
WidescreenStoryboard: 0

[Editor]
DistanceSpacing: 1
BeatDivisor: 2
GridSize: 8
TimelineZoom: 1.2

[Metadata]
Title:WUG ZOOZOO
TitleUnicode:ワグ・ズーズー
Artist:Wake Up, Girls!
ArtistUnicode:Wake Up, Girls!
Creator:wcx19911123
Version:Insane
Source:Wake Up, Girls! ZOO!
Tags:TV Size Fycho
BeatmapID:502230
BeatmapSetID:213659

[Difficulty]
HPDrainRate:7
CircleSize:4
OverallDifficulty:8
ApproachRate:9
SliderMultiplier:1.4
SliderTickRate:1

[Events]
//Background and Video events
0,0,"bg.jpg",0,0
Video,220,"video.avi"
//Break Periods
//Storyboard Layer 0 (Background)
//Storyboard Layer 1 (Fail)
//Storyboard Layer 2 (Pass)
//Storyboard Layer 3 (Foreground)
//Storyboard Sound Samples
//Background Colour Transformations
3,100,163,162,255

[TimingPoints]
196,276.497695852535,4,2,1,70,1,0
2546,-100,4,2,1,60,0,0
2960,-133.333333333333,4,2,1,50,0,0
3513,-100,4,2,1,70,0,0
6831,-100,4,2,1,60,0,0
15679,-100,4,2,1,70,0,0
24251,-100,4,2,1,50,0,0
24527,-125,4,2,1,60,0,0
28951,-111.111111111111,4,2,1,70,0,0
31025,-111.111111111111,4,2,1,40,0,0
31163,-111.111111111111,4,2,1,70,0,0
34758,-111.111111111111,4,2,1,50,0,0
35034,-111.111111111111,4,2,1,60,0,0
35311,-111.111111111111,4,2,1,70,0,0
35587,-87.4890638670166,4,2,1,80,0,1
44297,-87.4890638670166,4,2,1,40,0,1
44435,-87.4890638670166,4,2,1,80,0,1
48721,-87.4890638670166,4,2,1,40,0,1
48859,-87.4890638670166,4,2,1,80,0,1
55495,-87.4890638670166,4,2,1,80,0,0

[Colours]
Combo1 : 19,202,19
Combo2 : 255,83,9
Combo3 : 104,197,232
Combo4 : 238,208,70

[HitObjects]
64,240,196,6,0,P|120:224|216:240,1,140,2|0,0:0|0:0,0:0:0:0:
288,304,610,1,0,0:0:0:0:
96,208,748,2,0,P|168:192|232:208,1,140,2|0,0:0|0:0,0:0:0:0:
312,288,1163,1,0,0:0:0:0:
456,184,1301,6,0,P|376:184|304:232,1,140,2|0,0:0|0:0,0:0:0:0:
256,304,1716,1,0,0:0:0:0:
424,128,1854,2,0,P|352:128|288:160,1,140,2|0,0:0|0:0,0:0:0:0:
216,240,2269,1,0,0:0:0:0:
168,72,2407,5,2,0:0:0:0:
264,168,2546,1,0,0:0:0:0:
128,240,2684,2,0,P|104:288|104:312,1,70
312,352,2960,2,0,B|328:304|296:272|296:272|288:232|320:208,1,157.500006008148
432,88,3513,6,0,P|376:96|336:96,1,70,4|0,0:0|0:0,0:0:0:0:
264,72,3790,1,8,0:0:0:0:
336,200,3928,1,0,0:0:0:0:
216,240,4066,2,0,P|192:288|192:312,1,70,2|0,0:1|0:0,0:0:0:0:
64,96,4343,2,0,P|96:136|104:176,1,70,8|0,0:0|0:0,0:0:0:0:
80,296,4619,5,2,0:1:0:0:
80,296,4758,1,0,0:0:0:0:
216,336,4896,2,0,P|272:336|304:320,1,70,8|0,0:0|0:0,0:0:0:0:
416,232,5172,2,0,L|424:280,1,35,8|0,0:0|0:0,0:0:0:0:
312,176,5311,2,0,B|336:104|376:144|408:72,1,140,8|4,0:0|0:0,0:0:0:0:
256,192,5725,12,2,6555,0:1:0:0:
112,176,6831,5,0,0:0:0:0:
232,224,6970,1,0,0:0:0:0:
152,256,7108,1,2,0:0:0:0:
192,144,7246,2,0,P|232:128|328:128,1,140,2|0,0:1|0:0,0:0:0:0:
472,224,7661,1,8,0:0:0:0:
400,280,7799,1,0,0:0:0:0:
280,88,7937,5,0,0:0:0:0:
296,176,8076,2,0,P|336:224|368:232,1,70,0|2,0:0|0:0,0:0:0:0:
200,40,8352,2,0,P|152:40|64:80,1,140,2|0,0:1|0:0,0:0:0:0:
0,240,8767,1,8,0:0:0:0:
248,352,9043,5,0,0:0:0:0:
240,248,9182,1,0,0:0:0:0:
320,328,9320,1,2,0:0:0:0:
168,272,9458,2,0,P|144:232|128:128,1,140,2|0,0:1|0:0,0:0:0:0:
376,24,9873,2,0,P|384:72|376:104,1,70,8|0,0:0|0:0,0:0:0:0:
288,232,10149,5,2,0:1:0:0:
248,128,10288,1,0,0:0:0:0:
160,48,10426,2,0,P|120:32|64:40,1,70,8|0,0:0|0:0,0:0:0:0:
144,232,10702,1,2,0:1:0:0:
232,168,10841,1,2,0:0:0:0:
344,128,10979,2,0,P|392:128|424:144,1,70,8|0,0:0|0:0,0:0:0:0:
184,168,11255,5,2,0:1:0:0:
288,232,11394,1,0,0:0:0:0:
248,128,11532,1,2,0:0:0:0:
224,272,11670,2,0,P|176:328|112:360,1,140,2|0,0:1|0:0,0:0:0:0:
16,368,12085,1,8,0:0:0:0:
0,264,12223,1,0,0:0:0:0:
160,72,12361,5,2,0:1:0:0:
136,168,12500,2,0,P|104:208|72:224,1,70,0|2,0:0|0:0,0:0:0:0:
232,368,12776,2,0,P|200:312|200:232,1,140,2|0,0:1|0:0,0:0:0:0:
248,128,13191,1,8,0:0:0:0:
392,232,13329,6,0,L|312:216,1,70,2|0,0:1|0:0,0:0:0:0:
152,320,13606,2,0,L|72:304,1,70,2|2,0:1|0:0,0:0:0:0:
232,368,13882,1,0,0:0:0:0:
272,176,14020,1,2,0:1:0:0:
312,256,14159,1,2,0:0:0:0:
352,336,14297,1,8,0:0:0:0:
160,248,14435,6,0,L|240:240,1,70
328,64,14712,2,0,B|472:48,1,140,4|0,0:0|0:0,0:0:0:0:
352,336,15126,1,8,0:0:0:0:
96,128,15679,5,4,0:0:0:0:
280,160,15818,2,0,P|224:176|200:200,1,70,2|8,0:0|0:0,0:0:0:0:
88,320,16094,2,0,P|136:304|160:304,1,70,2|0,0:1|0:0,0:0:0:0:
320,344,16371,1,2,0:0:0:0:
392,232,16509,2,0,P|392:184|384:152,1,70,8|0,0:0|0:0,0:0:0:0:
184,32,16785,5,2,0:1:0:0:
328,88,16924,2,0,P|280:88|240:72,1,70,2|8,0:0|0:0,0:0:0:0:
48,160,17200,2,0,P|88:152|128:160,1,70,2|0,0:1|0:0,0:0:0:0:
264,272,17477,1,2,0:0:0:0:
192,192,17615,1,8,0:0:0:0:
192,320,17753,1,0,0:0:0:0:
320,344,17891,5,2,0:1:0:0:
408,256,18030,2,0,P|424:216|424:176,1,70,2|8,0:0|0:0,0:0:0:0:
200,32,18306,2,0,P|192:72|200:112,1,70,2|0,0:1|0:0,0:0:0:0:
264,232,18583,1,2,0:0:0:0:
392,120,18721,2,0,P|440:112|472:120,1,70,8|0,0:0|0:0,0:0:0:0:
504,336,18997,6,0,P|448:360|408:360,1,70,2|2,0:1|0:0,0:0:0:0:
320,344,19274,1,8,0:0:0:0:
216,288,19412,1,0,0:0:0:0:
48,304,19550,2,0,P|96:296|136:264,1,70,2|2,0:1|0:0,0:0:0:0:
192,192,19827,1,8,0:0:0:0:
208,80,19965,1,0,0:0:0:0:
376,168,20103,6,0,P|336:160|304:160,1,70,2|2,0:1|0:0,0:0:0:0:
160,192,20380,1,8,0:0:0:0:
416,244,20518,2,0,B|457:217|459:174|459:174|480:184|480:224,1,140,2|2,0:1|0:0,0:0:0:0:
456,360,20933,1,8,0:0:0:0:
336,264,21071,1,0,0:0:0:0:
192,224,21209,6,0,P|144:240|112:264,1,70,2|2,0:1|0:0,0:0:0:0:
56,336,21486,1,8,0:0:0:0:
176,96,21624,2,0,B|168:128|184:152|184:152|228:148|256:188,1,140,2|2,0:1|0:0,0:0:0:0:
272,352,22039,1,8,0:0:0:0:
272,352,22177,1,0,0:0:0:0:
168,288,22315,5,2,0:1:0:0:
288,144,22454,1,2,0:0:0:0:
464,208,22592,1,8,0:0:0:0:
448,216,22868,5,2,0:1:0:0:
208,200,23007,1,8,0:0:0:0:
192,184,23283,6,0,P|224:232|232:280,1,105,4|0,0:0|0:0,0:0:0:0:
216,352,23560,1,8,0:0:0:0:
272,224,23698,1,2,0:0:0:0:
298,200,23767,1,0,0:0:0:0:
328,182,23836,1,0,0:0:0:0:
361,173,23905,1,0,0:0:0:0:
395,172,23974,1,8,0:0:0:0:
64,40,24251,1,4,0:3:0:0:
96,224,24527,6,0,P|120:256|184:288,1,112,4|2,0:0|0:0,0:0:0:0:
288,352,24942,2,0,P|304:296|352:256,1,112,2|0,0:1|0:0,0:0:0:0:
448,224,25357,1,8,0:0:0:0:
304,40,25633,5,2,0:1:0:0:
184,184,25910,2,0,P|152:200|120:208,1,56,2|2,0:0|0:1,0:0:0:0:
32,192,26186,1,0,0:0:0:0:
96,112,26325,2,0,P|128:96|160:88,1,56,2|8,0:0|0:0,0:0:0:0:
432,192,26739,6,0,P|416:256|376:296,1,112,2|2,0:1|0:0,0:0:0:0:
288,344,27154,2,0,P|272:288|224:248,1,112,2|0,0:1|0:0,0:0:0:0:
128,224,27569,1,8,0:0:0:0:
200,160,27707,2,0,P|216:128|224:96,1,56,0|2,0:0|0:1,0:0:0:0:
232,16,27984,5,0,0:0:0:0:
248,152,28122,2,0,P|256:168|296:208,1,56,2|2,0:0|0:1,0:0:0:0:
384,272,28398,1,2,0:0:0:0:
296,288,28537,1,8,0:0:0:0:
368,184,28675,1,2,0:1:0:0:
200,368,28951,6,0,P|144:360|72:296,1,125.999996154785,4|2,0:0|0:0,0:0:0:0:
40,232,29366,1,2,0:1:0:0:
144,56,29504,2,0,P|152:88|136:200,1,125.999996154785,0|8,0:0|0:0,0:0:0:0:
104,264,29919,1,0,0:0:0:0:
200,112,30057,6,0,P|248:80|336:64,1,125.999996154785,2|2,0:1|0:0,0:0:0:0:
416,80,30472,1,2,0:1:0:0:
344,248,30610,2,0,P|336:208|336:168,1,62.9999980773926,0|2,0:0|0:0,0:0:0:0:
344,80,30887,1,8,0:0:0:0:
448,200,31025,5,8,0:0:0:0:
448,200,31094,1,8,0:0:0:0:
448,200,31163,2,0,P|440:256|432:280,1,62.9999980773926,4|2,0:0|0:0,0:0:0:0:
256,368,31440,2,0,P|248:312|240:288,1,62.9999980773926,8|0,0:0|0:0,0:0:0:0:
144,152,31716,1,2,0:1:0:0:
208,224,31854,1,2,0:1:0:0:
48,288,31993,1,8,0:0:0:0:
64,200,32131,1,2,0:0:0:0:
128,328,32269,6,0,P|160:336|192:336,1,62.9999980773926,2|0,0:1|0:0,0:0:0:0:
384,248,32546,2,0,P|344:240|320:224,1,62.9999980773926,8|2,0:0|0:0,0:0:0:0:
176,144,32822,1,2,0:1:0:0:
264,168,32960,1,2,0:1:0:0:
392,56,33099,1,8,0:0:0:0:
304,80,33237,1,2,0:0:0:0:
136,272,33375,6,0,L|120:232,1,31.4999990386963,8|0,0:0|0:0,0:0:0:0:
360,176,33652,2,0,L|368:144,1,31.4999990386963,8|0,0:0|0:0,0:0:0:0:
144,296,33928,5,2,0:1:0:0:
356,200,34066,1,8,0:0:0:0:
88,56,34481,1,4,0:0:0:0:
184,152,34758,2,0,L|192:112,3,31.4999990386963,2|0|0|0,0:0|0:0|0:0|0:0,0:0:0:0:
88,248,35034,2,0,L|64:216,3,31.4999990386963,0|0|0|0,0:0|0:0|0:0|0:0,0:0:0:0:
208,320,35311,2,0,L|192:368,3,31.4999990386963,0|0|0|0,0:0|0:0|0:0|0:0,0:0:0:0:
240,224,35587,5,4,0:0:0:0:
368,136,35725,1,2,0:0:0:0:
240,48,35864,2,0,P|192:40|144:48,1,80.0099970638421,8|0,0:0|0:0,0:0:0:0:
272,256,36140,1,2,0:1:0:0:
296,104,36278,1,2,0:0:0:0:
144,80,36417,2,0,P|96:96|64:128,1,80.0099970638421,8|0,0:0|0:0,0:0:0:0:
16,288,36693,5,2,0:1:0:0:
144,208,36831,1,2,0:0:0:0:
232,344,36970,2,0,P|264:360|312:368,1,80.0099970638421,8|2,0:0|0:1,0:0:0:0:
496,304,37246,1,0,0:0:0:0:
272,256,37384,2,0,P|232:224|216:200,1,80.0099970638421,2|8,0:0|0:0,0:0:0:0:
168,80,37661,1,0,0:0:0:0:
360,256,37799,6,0,B|352:316|304:336|304:336|320:360|356:356,1,160.019994127684,2|8,0:1|0:0,0:0:0:0:
456,192,38214,1,2,0:0:0:0:
296,160,38352,1,2,0:1:0:0:
160,248,38490,2,0,P|136:304|136:336,1,80.0099970638421,0|8,0:0|0:0,0:0:0:0:
24,160,38767,1,2,0:0:0:0:
184,256,38905,6,0,P|224:264|272:256,1,80.0099970638421,2|0,0:1|0:0,0:0:0:0:
392,160,39182,1,8,0:0:0:0:
216,32,39320,2,0,P|224:80|216:120,1,80.0099970638421,2|0,0:1|0:0,0:0:0:0:
136,240,39596,1,2,0:0:0:0:
296,160,39735,2,0,P|344:152|384:160,1,80.0099970638421,8|0,0:0|0:0,0:0:0:0:
512,256,40011,5,2,0:1:0:0:
384,360,40149,1,2,0:0:0:0:
304,216,40288,2,0,P|272:192|216:184,1,80.0099970638421,8|0,0:0|0:0,0:0:0:0:
32,256,40564,1,2,0:1:0:0:
152,136,40702,1,2,0:0:0:0:
200,304,40841,2,0,P|224:336|256:360,1,80.0099970638421,8|0,0:0|0:0,0:0:0:0:
448,368,41117,5,2,0:1:0:0:
328,256,41255,2,0,P|312:216|312:176,1,80.0099970638421,2|8,0:0|0:0,0:0:0:0:
376,32,41532,1,2,0:1:0:0:
408,200,41670,1,0,0:0:0:0:
248,96,41808,2,0,P|208:88|160:88,1,80.0099970638421,2|8,0:0|0:0,0:0:0:0:
32,256,42085,5,0,0:0:0:0:
32,256,42154,1,0,0:0:0:0:
32,256,42223,2,0,P|72:224|112:208,1,80.0099970638421,2|2,0:1|0:0,0:0:0:0:
320,336,42500,2,0,P|272:352|232:352,1,80.0099970638421,8|0,0:0|0:0,0:0:0:0:
112,304,42776,1,2,0:1:0:0:
320,256,42914,2,0,P|352:232|376:192,1,80.0099970638421,2|8,0:0|0:0,0:0:0:0:
392,48,43191,1,0,0:0:0:0:
160,104,43329,6,0,P|232:96|328:120,1,160.019994127684,2|8,0:1|0:0,0:0:0:0:
224,344,43744,2,0,P|328:344|384:328,1,160.019994127684,2|2,0:1|0:0,0:0:0:0:
504,248,44159,1,8,0:0:0:0:
368,176,44297,5,8,0:0:0:0:
368,176,44366,1,8,0:0:0:0:
368,176,44435,2,0,P|320:192|280:192,1,80.0099970638421,4|0,0:0|0:0,0:0:0:0:
168,168,44712,1,8,0:0:0:0:
96,72,44850,1,2,0:0:0:0:
280,168,44988,2,0,P|296:208|296:272,1,80.0099970638421,2|0,0:1|0:0,0:0:0:0:
288,368,45265,1,8,0:0:0:0:
176,304,45403,1,2,0:0:0:0:
328,272,45541,5,2,0:1:0:0:
384,144,45679,2,0,P|416:112|456:96,1,80.0099970638421,0|8,0:0|0:0,0:0:0:0:
304,304,45956,2,0,B|260:320|228:288|228:288|189:306|152:280,1,160.019994127684,2|2,0:1|0:0,0:0:0:0:
32,192,46371,1,8,0:0:0:0:
196,224,46509,1,0,0:0:0:0:
80,352,46647,6,0,P|88:304|112:256,1,80.0099970638421,2|2,0:1|0:0,0:0:0:0:
168,168,46924,1,8,0:0:0:0:
280,112,47062,1,0,0:0:0:0:
112,56,47200,2,0,P|136:88|176:112,1,80.0099970638421,2|2,0:1|0:0,0:0:0:0:
296,128,47477,1,8,0:0:0:0:
392,48,47615,1,0,0:0:0:0:
320,216,47753,5,2,0:1:0:0:
152,208,47891,2,0,P|112:232|80:264,1,80.0099970638421,2|8,0:0|0:0,0:0:0:0:
312,320,48168,2,0,B|344:264|320:216|320:216|344:212|360:184,1,160.019994127684,2|0,0:1|0:0,0:0:0:0:
392,48,48583,1,8,0:0:0:0:
435,208,48721,5,8,0:0:0:0:
435,208,48790,1,8,0:0:0:0:
435,208,48859,2,0,P|395:264|288:316,1,160.019994127684,4|8,0:0|0:0,0:0:0:0:
168,320,49274,1,2,0:0:0:0:
416,160,49412,2,0,P|384:208|296:264,1,160.019994127684,2|8,0:1|0:0,0:0:0:0:
152,296,49827,1,2,0:0:0:0:
80,88,49965,6,0,P|128:104|192:192,1,160.019994127684,2|8,0:1|0:0,0:0:0:0:
192,336,50380,1,2,0:0:0:0:
144,56,50518,2,0,P|192:96|232:184,1,160.019994127684,2|8,0:1|0:0,0:0:0:0:
216,344,50933,1,2,0:0:0:0:
304,112,51071,5,2,0:1:0:0:
64,256,51348,1,8,0:0:0:0:
360,200,51624,2,0,P|408:232|432:272,1,80.0099970638421,2|0,0:0|0:0,0:0:0:0:
464,360,51901,1,8,0:0:0:0:
264,224,52039,6,0,P|264:168|340:104,1,160.019994127684,2|2,0:1|0:0,0:0:0:0:
472,120,52454,1,8,0:0:0:0:
200,304,52730,1,2,0:1:0:0:
48,136,53007,1,10,0:0:0:0:
48,136,53076,1,0,0:0:0:0:
48,136,53145,1,0,0:0:0:0:
48,136,53214,1,0,0:0:0:0:
48,136,53283,6,0,P|80:184|88:208,1,80.0099970638421,4|2,0:0|0:0,0:0:0:0:
96,304,53560,1,8,0:0:0:0:
96,304,53698,1,2,0:1:0:0:
96,112,53836,2,0,P|120:144|136:192,1,80.0099970638421,8|2,0:0|0:0,0:0:0:0:
136,304,54113,1,8,0:0:0:0:
136,304,54251,1,2,0:1:0:0:
224,168,54389,6,0,P|264:152|312:152,1,80.0099970638421,8|2,0:0|0:0,0:0:0:0:
416,184,54666,1,8,0:0:0:0:
416,184,54804,1,2,0:1:0:0:
216,112,54942,2,0,P|264:96|304:96,1,80.0099970638421,8|2,0:0|0:0,0:0:0:0:
416,136,55219,1,8,0:0:0:0:
416,136,55357,1,2,0:1:0:0:
256,16,55495,5,4,0:0:0:0:
80,208,55772,1,0,0:0:0:0:
328,352,56048,1,4,0:0:0:0:
240,304,56186,2,0,B|208:252|256:240|232:188,1,120.014995595763
176,132,56463,1,4,0:0:0:0:
