osu file format v12

[General]
AudioFilename: OP.mp3
AudioLeadIn: 1500
PreviewTime: 50695
Countdown: 0
SampleSet: Soft
StackLeniency: 0.7
Mode: 0
LetterboxInBreaks: 0
WidescreenStoryboard: 0

[Editor]
Bookmarks: 13195,25827,38458,51090,63721,76353
DistanceSpacing: 0.7
BeatDivisor: 4
GridSize: 4

[Metadata]
Title:Tachiagare! (TV Size)
TitleUnicode:タチアガレ! (TV Size)
Artist:Wake Up, Girls!
ArtistUnicode:Wake Up, Girls!
Creator:popner
Version:Insane
Source:Wake Up, Girls!
Tags:opening satoru kousaki Azure Awaken Fycho
BeatmapID:357755
BeatmapSetID:143916

[Difficulty]
HPDrainRate:7
CircleSize:4
OverallDifficulty:7
ApproachRate:8
SliderMultiplier:1.76
SliderTickRate:1

[Events]
//Background and Video events
0,0,"wake.jpg",0,0
Video,-300,"PV.avi"
//Break Periods
//Storyboard Layer 0 (Background)
//Storyboard Layer 1 (Fail)
//Storyboard Layer 2 (Pass)
//Storyboard Layer 3 (Foreground)
//Storyboard Sound Samples
//Background Colour Transformations
3,100,163,162,255

[TimingPoints]
564,394.736842105263,4,2,1,80,1,0
10235,-100,4,2,1,60,0,0
10629,-100,4,2,1,80,0,0
10827,-100,4,2,1,60,0,0
11221,-100,4,2,1,80,0,0
13195,-100,4,2,1,60,0,0
19313,-100,4,2,1,50,0,0
19511,-100,4,2,1,60,0,0
25136,-100,4,2,1,70,0,0
25235,-100,4,2,1,80,0,0
25333,-100,4,2,1,90,0,0
25432,-100,4,2,1,100,0,0
25827,-100,4,2,1,70,0,0
31945,-100,4,2,1,60,0,0
32142,-100,4,2,1,70,0,0
38063,-133.333333333333,4,2,1,70,0,0
50300,-133.333333333333,4,2,1,80,0,0
50399,-133.333333333333,4,2,1,90,0,0
50498,-133.333333333333,4,2,1,100,0,0
50695,-133.333333333333,4,2,1,70,0,0
51090,-100,4,2,1,80,0,1
63623,-100,4,2,1,80,0,0
63721,-100,4,2,1,80,0,1
76156,-100,4,2,1,70,0,1
76353,-100,4,2,1,80,0,0
77932,-200,4,2,1,80,0,0
79511,-100,4,2,1,80,0,0
86024,-100,4,2,1,60,0,0
86419,-100,4,2,1,80,0,0
86616,-100,4,2,1,60,0,0
87011,-100,4,2,1,80,0,0
87110,-100,4,2,1,40,0,0
88195,-100,4,2,1,20,0,0
88590,-100,4,2,1,10,0,0

[Colours]
Combo1 : 23,191,255
Combo2 : 234,255,0
Combo3 : 255,50,0
Combo4 : 127,255,0

[HitObjects]
432,224,564,2,0,L|408:312,1,88
328,240,958,1,0,3:0:0:0:
280,336,1156,2,0,P|192:352|128:296,1,176
208,168,1748,2,0,L|216:256,1,88,0|0,3:0|0:0,0:0:0:0:
144,96,2142,5,2,0:0:0:0:
304,184,2340,1,2,0:0:0:0:
120,200,2537,1,0,3:0:0:0:
256,80,2735,1,0,3:0:0:0:
216,256,2932,2,0,L|221:314,3,58.6666666666667,8|8|8|8,0:0|0:0|0:0|0:0,0:0:0:0:
440,72,3721,5,4,0:0:0:0:
400,232,3919,1,2,0:0:0:0:
400,232,4017,1,0,0:0:0:0:
400,232,4116,1,10,0:0:0:0:
288,120,4313,2,2,L|464:160,1,176,2|2,0:0|0:0,0:0:0:0:
459,159,4807,1,0,0:0:0:0:
459,159,4906,1,10,0:0:0:0:
304,216,5103,6,0,P|264:232|208:232,1,88
120,112,5498,2,0,P|168:120|200:144,1,88,0|8,0:0|0:0,0:0:0:0:
222,335,5892,2,0,P|145:297|120:216,1,176
288,120,6485,1,8,0:0:0:0:
216,344,6682,6,0,P|139:305|113:224,1,176
280,128,7274,1,8,0:0:0:0:
400,304,7471,2,0,L|312:312,1,88
390,132,7866,5,0,0:0:0:0:
496,256,8063,1,8,0:0:0:0:
336,216,8261,1,2,0:0:0:0:
336,216,8360,1,0,0:0:0:0:
336,216,8458,1,2,0:0:0:0:
496,64,8656,2,0,L|488:152,1,88,0|8,0:0|0:0,0:0:0:0:
240,180,9050,6,0,P|308:124|395:135,1,176
336,216,9642,1,8,0:0:0:0:
240,180,9840,1,0,0:0:0:0:
240,276,10037,5,12,0:0:0:0:
148,152,10235,1,8,0:0:0:0:
240,180,10432,1,8,0:0:0:0:
92,228,10629,1,12,0:0:0:0:
240,276,10827,1,8,0:0:0:0:
148,308,11024,1,8,0:0:0:0:
240,180,11221,1,12,0:0:0:0:
256,192,11320,12,2,12800,0:0:0:0:
400,140,13195,6,0,P|328:88|248:104,1,176,4|8,0:0|0:0,0:0:0:0:
312,180,13787,1,0,0:0:0:0:
212,200,13985,2,0,L|184:292,1,88
280,276,14379,2,0,L|272:368,1,88,8|0,0:0|0:0,0:0:0:0:
416,200,14774,6,0,P|384:116|308:88,1,176,0|8,0:0|0:0,0:0:0:0:
212,200,15366,2,0,P|140:276|64:256,1,176
120,184,15958,1,8,0:0:0:0:
280,276,16156,1,0,0:0:0:0:
180,112,16353,6,0,L|196:24,1,88
296,44,16748,1,8,0:0:0:0:
312,180,16945,2,0,P|388:220|472:192,1,176
474,95,17537,2,0,P|430:101|396:128,1,88,8|0,0:0|0:0,0:0:0:0:
323,292,17932,6,0,P|267:356|182:354,1,176,0|8,0:0|0:0,0:0:0:0:
112,168,18524,2,0,P|200:192|232:264,1,176
80,348,19116,1,8,0:0:0:0:
136,264,19313,1,8,0:0:0:0:
182,354,19511,1,8,0:0:0:0:
444,316,19906,5,8,0:0:0:0:
368,176,20103,2,0,L|344:356,1,176
456,224,20695,2,0,P|468:176|460:136,1,88,8|0,0:0|0:0,0:0:0:0:
212,156,21090,6,0,P|285:199|368:176,1,176,0|8,0:0|0:0,0:0:0:0:
216,52,21682,2,0,P|136:88|104:172,1,176
172,248,22274,1,8,0:0:0:0:
300,108,22471,5,2,0:0:0:0:
332,124,22570,1,0,0:0:0:0:
352,156,22669,2,0,L|344:244,1,88,2|0,0:0|0:0,0:0:0:0:
256,192,23063,2,0,L|248:280,1,88,8|2,0:0|0:0,0:0:0:0:
268,312,23360,1,0,0:0:0:0:
300,328,23458,1,2,0:0:0:0:
440,280,23656,1,0,0:0:0:0:
256,192,23853,1,8,0:0:0:0:
444,120,24050,1,0,0:0:0:0:
316,80,24248,1,8,0:0:0:0:
316,80,24840,5,0,0:0:0:0:
272,168,25037,1,2,0:0:0:0:
272,168,25136,1,0,0:0:0:0:
272,168,25235,1,2,0:0:0:0:
272,168,25333,1,0,0:0:0:0:
272,168,25432,2,0,L|232:252,1,88,0|0,3:0|3:0,0:0:0:0:
192,84,25827,6,0,P|128:132|36:116,1,176,4|8,0:0|0:0,0:0:0:0:
100,48,26419,1,2,0:0:0:0:
100,48,26517,1,0,0:0:0:0:
100,48,26616,2,0,L|120:136,1,88,2|0,0:0|0:0,0:0:0:0:
72,296,27011,2,0,L|52:210,1,88,8|0,0:0|0:0,0:0:0:0:
160,340,27406,6,0,L|248:320,1,88,0|2,0:0|0:0,0:0:0:0:
245,320,27702,1,0,0:0:0:0:
245,320,27800,1,10,0:0:0:0:
308,188,27998,2,0,P|236:228|152:200,1,176
100,48,28590,1,8,0:0:0:0:
216,92,28787,1,2,0:0:0:0:
220,112,28886,1,0,0:0:0:0:
224,132,28985,1,2,0:0:0:0:
440,28,29182,1,0,0:0:0:0:
336,100,29379,1,8,0:0:0:0:
456,112,29577,6,0,L|468:200,1,88
496,340,29971,1,0,0:0:0:0:
352,348,30169,2,0,L|360:260,1,88,8|0,0:0|0:0,0:0:0:0:
236,240,30563,5,0,0:0:0:0:
400,172,30761,1,2,0:0:0:0:
420,184,30860,1,0,0:0:0:0:
440,196,30958,1,10,0:0:0:0:
304,168,31156,2,0,P|216:148|144:196,1,176
208,328,31748,1,8,0:0:0:0:
88,296,31945,1,8,0:0:0:0:
147,191,32142,1,8,0:0:0:0:
116,56,32340,5,2,0:0:0:0:
112,76,32438,1,0,0:0:0:0:
108,96,32537,1,10,0:0:0:0:
248,176,32735,1,0,0:0:0:0:
116,260,32932,2,0,P|96:304|100:348,1,88
292,344,33327,2,0,P|312:300|308:256,1,88,8|0,0:0|0:0,0:0:0:0:
212,284,33721,5,0,0:0:0:0:
216,300,33919,1,2,0:0:0:0:
248,176,34116,1,8,0:0:0:0:
240,200,34313,1,2,0:0:0:0:
132,116,34511,1,0,0:0:0:0:
152,148,34709,1,2,0:0:0:0:
280,44,34906,1,8,0:0:0:0:
256,80,35103,1,2,0:0:0:0:
416,88,35300,5,2,0:0:0:0:
420,112,35399,1,0,0:0:0:0:
424,136,35498,1,2,0:0:0:0:
448,248,35695,1,8,0:0:0:0:
324,160,35892,1,2,0:0:0:0:
328,184,35991,1,0,0:0:0:0:
332,212,36090,2,0,L|348:304,1,88,2|0,0:0|0:0,0:0:0:0:
240,340,36485,1,8,0:0:0:0:
160,260,36682,1,0,0:0:0:0:
208,160,36879,5,2,0:0:0:0:
204,136,36978,1,0,0:0:0:0:
200,112,37077,1,2,0:0:0:0:
272,48,37274,1,8,0:0:0:0:
96,72,37471,1,2,0:0:0:0:
100,96,37570,1,0,0:0:0:0:
104,120,37669,1,2,0:0:0:0:
108,144,37767,1,0,0:0:0:0:
112,168,37866,1,2,0:0:0:0:
276,236,38063,5,8,0:0:0:0:
212,352,38260,1,0,0:0:0:0:
112,260,38458,1,12,0:0:0:0:
276,236,38656,1,8,0:0:0:0:
252,132,39050,6,0,L|384:150,1,132.000005035401,8|0,0:0|0:0,0:0:0:0:
389,44,39642,2,0,L|324:48,1,66.0000025177003
168,56,40037,2,0,L|100:52,2,66.0000025177003,0|8|0,0:0|0:0|0:0,0:0:0:0:
24,164,40629,2,0,L|155:152,1,132.000005035401,8|0,0:0|0:0,0:0:0:0:
252,132,41221,5,0,0:0:0:0:
176,248,41419,1,0,0:0:0:0:
300,296,41616,1,8,0:0:0:0:
252,132,41813,1,8,0:0:0:0:
348,144,42208,5,0,0:0:0:0:
348,144,42406,2,0,L|336:216,1,66.0000025177003,8|0,0:0|0:0,0:0:0:0:
432,320,42800,2,0,L|424:248,1,66.0000025177003
244,248,43195,2,0,L|236:316,2,66.0000025177003,0|8|0,0:0|0:0|0:0,0:0:0:0:
136,124,43787,2,0,L|144:256,1,132.000005035401,8|0,0:0|0:0,0:0:0:0:
16,136,44379,5,0,0:0:0:0:
136,124,44577,1,0,0:0:0:0:
256,112,44774,1,12,0:0:0:0:
149,212,44971,1,8,0:0:0:0:
64,64,45169,1,8,0:0:0:0:
84,220,45366,6,0,L|152:212,1,66.0000025177003
160,52,45761,2,0,L|296:40,1,132.000005035401,8|0,0:0|0:0,0:0:0:0:
324,212,46353,5,12,0:0:0:0:
440,140,46550,1,8,0:0:0:0:
372,40,46747,1,8,0:0:0:0:
256,112,46945,1,8,0:0:0:0:
473,229,47340,5,8,0:0:0:0:
440,140,47537,2,0,L|364:136,1,66.0000025177003,8|0,0:0|0:0,0:0:0:0:
348,240,47932,6,0,P|416:252|476:228,1,132.000005035401,4|0,0:0|0:0,0:0:0:0:
280,160,48524,2,0,P|248:216|256:288,1,132.000005035401,0|2,0:0|0:0,0:0:0:0:
253,281,49017,1,0,0:0:0:0:
253,281,49116,1,2,0:0:0:0:
348,240,49313,1,0,0:0:0:0:
188,204,49511,5,4,0:0:0:0:
336,340,49708,1,0,0:0:0:0:
172,348,49905,1,4,0:0:0:0:
280,160,50102,1,0,0:0:0:0:
436,300,50300,5,2,0:0:0:0:
452,268,50399,1,0,0:0:0:0:
452,232,50498,1,2,0:0:0:0:
444,196,50596,1,0,0:0:0:0:
424,168,50695,1,2,0:0:0:0:
280,160,50892,1,0,0:0:0:0:
131,115,51090,6,0,P|88:189|112:272,1,176,4|8,0:0|0:0,0:0:0:0:
172,348,51682,1,2,0:0:0:0:
172,348,51781,1,0,0:0:0:0:
172,348,51879,1,2,0:0:0:0:
188,204,52077,1,0,0:0:0:0:
330,247,52274,2,0,P|296:273|253:281,1,88,8|0,0:0|0:0,0:0:0:0:
392,328,52669,6,0,P|436:328|476:348,1,88,0|2,0:0|0:0,0:0:0:0:
474,347,52965,1,0,0:0:0:0:
474,347,53063,1,10,0:0:0:0:
304,368,53261,1,0,0:0:0:0:
432,236,53458,1,0,0:0:0:0:
301,113,53656,1,2,0:0:0:0:
301,113,53754,1,0,0:0:0:0:
301,113,53853,2,0,P|269:141|255:183,1,88,10|0,0:0|0:0,0:0:0:0:
160,328,54248,6,0,P|72:340|12:280,1,176,0|8,0:0|0:0,0:0:0:0:
123,162,54840,1,2,0:0:0:0:
123,162,54938,1,0,0:0:0:0:
123,162,55037,2,0,L|104:248,1,88,2|0,0:0|0:0,0:0:0:0:
32,120,55432,1,4,0:0:0:0:
360,56,55827,5,4,0:0:0:0:
275,101,56024,1,2,0:0:0:0:
275,101,56123,1,0,0:0:0:0:
275,101,56221,1,10,0:0:0:0:
420,136,56419,1,2,0:0:0:0:
434,161,56517,1,0,0:0:0:0:
441,189,56616,1,12,0:0:0:0:
440,219,56715,1,0,0:0:0:0:
431,247,56813,1,2,0:0:0:0:
415,271,56912,1,0,0:0:0:0:
393,290,57011,2,0,L|304:280,1,88,10|0,0:0|0:0,0:0:0:0:
188,64,57406,6,0,P|136:128|156:216,1,176,4|8,0:0|0:0,0:0:0:0:
344,196,57998,1,2,0:0:0:0:
344,196,58096,1,0,0:0:0:0:
344,196,58195,1,2,0:0:0:0:
228,152,58392,1,0,0:0:0:0:
344,100,58590,2,0,P|392:112|424:144,1,88,8|0,0:0|0:0,0:0:0:0:
332,288,58985,5,0,0:0:0:0:
228,152,59182,1,2,0:0:0:0:
228,152,59281,1,0,0:0:0:0:
228,152,59379,2,0,L|252:68,1,88,10|0,0:0|0:0,0:0:0:0:
128,180,59774,1,0,0:0:0:0:
248,348,59971,1,2,0:0:0:0:
248,348,60070,1,0,0:0:0:0:
248,348,60169,2,0,L|160:364,1,88,10|0,0:0|0:0,0:0:0:0:
44,244,60563,6,0,P|122:279|204:252,1,176,0|8,0:0|0:0,0:0:0:0:
312,116,61156,1,0,0:0:0:0:
140,94,61353,2,0,P|126:136|127:179,1,88
300,216,61748,1,8,0:0:0:0:
400,72,61945,5,2,0:0:0:0:
400,72,62044,1,0,0:0:0:0:
400,72,62142,1,10,0:0:0:0:
468,240,62340,1,8,0:0:0:0:
312,116,62537,1,8,0:0:0:0:
480,140,62735,1,8,0:0:0:0:
312,116,62932,5,2,0:0:0:0:
280,116,63031,1,0,0:0:0:0:
252,128,63129,1,2,0:0:0:0:
228,144,63228,1,0,0:0:0:0:
208,168,63327,1,10,0:0:0:0:
320,256,63524,1,0,0:0:0:0:
196,304,63721,6,0,P|112:308|48:248,1,176,4|8,0:0|0:0,0:0:0:0:
120,80,64313,1,2,0:0:0:0:
120,80,64412,1,0,0:0:0:0:
120,80,64511,2,0,L|108:172,1,88,2|0,0:0|0:0,0:0:0:0:
280,244,64906,2,0,L|291:156,1,88,8|0,0:0|0:0,0:0:0:0:
192,208,65300,5,0,0:0:0:0:
368,280,65498,1,2,0:0:0:0:
368,280,65596,1,0,0:0:0:0:
368,280,65695,2,0,P|416:272|448:248,1,88,10|0,0:0|0:0,0:0:0:0:
291,156,66090,1,0,0:0:0:0:
288,344,66287,1,2,0:0:0:0:
288,344,66385,1,0,0:0:0:0:
288,344,66484,2,0,P|240:336|208:312,1,88,10|0,0:0|0:0,0:0:0:0:
424,74,66879,6,0,L|446:249,1,176,0|8,0:0|0:0,0:0:0:0:
140,152,67669,1,0,0:0:0:0:
32,288,67866,1,0,0:0:0:0:
209,313,68063,1,8,0:0:0:0:
140,152,68261,2,0,L|117:326,1,176,4|0,0:0|0:0,0:0:0:0:
232,192,68853,6,0,P|271:210|318:210,1,88,8|0,0:0|0:0,0:0:0:0:
353,57,69248,2,0,P|316:82|293:122,1,88
387,150,69642,1,8,0:0:0:0:
248,32,69840,1,8,0:0:0:0:
140,152,70037,6,0,P|144:236|216:296,1,176,4|8,0:0|0:0,0:0:0:0:
324,296,70629,1,2,0:0:0:0:
324,296,70728,1,0,0:0:0:0:
324,296,70827,2,0,L|412:284,1,88,2|0,0:0|0:0,0:0:0:0:
268,200,71221,1,8,0:0:0:0:
264,364,71419,1,0,0:0:0:0:
268,200,71616,6,0,L|180:188,1,88,0|2,0:0|0:0,0:0:0:0:
180,188,71912,1,0,0:0:0:0:
180,188,72011,1,10,0:0:0:0:
344,88,72208,1,2,0:0:0:0:
344,88,72307,1,0,0:0:0:0:
344,88,72406,2,0,L|444:104,1,88,2|0,0:0|0:0,0:0:0:0:
364,184,72800,1,8,0:0:0:0:
248,104,72998,5,2,0:0:0:0:
248,104,73096,1,0,0:0:0:0:
248,104,73195,2,0,P|160:92|88:136,1,176,6|8,0:0|0:0,0:0:0:0:
80,160,73688,2,0,L|72:208,2,44
88,224,73985,2,0,L|80:272,4,44,8|0|0|0|12,0:0|0:0|0:0|0:0|0:0,0:0:0:0:
364,304,74774,6,0,P|289:348|204:335,1,176,12|8,0:0|0:0,0:0:0:0:
246,174,75366,1,2,0:0:0:0:
246,174,75465,1,0,0:0:0:0:
246,174,75563,2,0,P|267:211|271:255,1,88,2|0,0:0|0:0,0:0:0:0:
176,244,75958,1,8,0:0:0:0:
212,88,76156,1,8,0:0:0:0:
348,172,76353,6,0,P|436:192|504:140,1,176,4|0,0:0|0:0,0:0:0:0:
416,104,76945,1,0,0:0:0:0:
256,128,77142,1,8,0:0:0:0:
272,264,77340,1,2,0:0:0:0:
272,264,77438,1,0,0:0:0:0:
272,264,77537,2,0,L|280:356,1,88,2|0,0:0|0:0,0:0:0:0:
134,272,77932,6,0,P|123:186|160:108,1,176,4|0,0:0|0:0,0:0:0:0:
256,128,78919,1,0,0:0:0:0:
352,108,79116,1,8,0:0:0:0:
352,108,79511,6,0,P|389:186|379:273,1,176,4|8,0:0|0:0,0:0:0:0:
228,212,80103,2,0,L|256:128,1,88
284,292,80498,2,0,P|245:310|195:307,1,88,0|8,0:0|0:0,0:0:0:0:
70,197,80892,6,0,P|152:172|228:211,1,176
112,280,81485,1,8,0:0:0:0:
284,292,81682,2,0,P|368:292|436:236,1,176,0|2,0:0|0:0,0:0:0:0:
436,235,82175,1,0,0:0:0:0:
436,235,82274,1,10,0:0:0:0:
380,76,82471,6,0,L|372:168,1,88
484,132,82866,1,0,0:0:0:0:
380,76,83063,1,8,0:0:0:0:
268,120,83261,2,0,P|192:72|108:104,1,176
100,252,83853,1,8,0:0:0:0:
184,172,84050,5,2,0:0:0:0:
184,172,84149,1,0,0:0:0:0:
184,172,84248,2,0,L|196:260,1,88,2|0,0:0|0:0,0:0:0:0:
384,260,84642,1,8,0:0:0:0:
300,128,84840,2,0,L|288:303,1,176
392,132,85432,2,0,P|384:88|356:52,1,88,8|0,0:0|0:0,0:0:0:0:
88,88,85827,5,12,0:0:0:0:
184,172,86024,1,8,0:0:0:0:
300,128,86221,1,8,0:0:0:0:
168,44,86419,1,12,0:0:0:0:
184,172,86616,1,8,0:0:0:0:
299,216,86813,1,8,0:0:0:0:
260,48,87011,1,12,0:0:0:0:
256,192,87110,12,0,88985,0:0:0:0:
