osu file format v12

[General]
AudioFilename: Wake Up Girls OP Opening Full - 7 Girls War.mp3
AudioLeadIn: 0
PreviewTime: 128894
Countdown: 0
SampleSet: Normal
StackLeniency: 0.7
Mode: 0
LetterboxInBreaks: 1
WidescreenStoryboard: 1

[Editor]
DistanceSpacing: 0.5
BeatDivisor: 4
GridSize: 4
TimelineZoom: 1

[Metadata]
Title:7 Girls War
TitleUnicode:7 Girls War
Artist:Wake Up Girls!
ArtistUnicode:Wake Up Girls!
Creator:thai0109
Version:Insane
Source:Wake Up Girls
Tags:
BeatmapID:418584
BeatmapSetID:173217

[Difficulty]
HPDrainRate:6
CircleSize:4
OverallDifficulty:7
ApproachRate:9
SliderMultiplier:1.8
SliderTickRate:2

[Events]
//Background and Video events
0,0,"Cover.jpg",0,0
//Break Periods
2,27760,29627
2,89094,98960
2,110427,112294
2,169094,178960
2,201094,210960
//Storyboard Layer 0 (Background)
//Storyboard Layer 1 (Fail)
//Storyboard Layer 2 (Pass)
//Storyboard Layer 3 (Foreground)
//Storyboard Sound Samples
//Background Colour Transformations
3,100,163,162,255

[TimingPoints]
2227.34511746521,333.333333333333,4,1,0,50,1,0
6227,-100,4,2,0,50,0,0
16894,-100,4,2,1,60,0,0
30227,-133.333333333333,4,2,0,50,0,0
35060,-100,4,1,1,50,0,0
40894,-100,4,3,1,50,0,0
46227,-100,4,1,0,50,0,1
51560,-100,4,2,0,50,0,1
51894,-100,4,1,0,50,0,1
55560,-100,4,2,0,50,0,1
55894,-100,4,2,0,50,0,1
56894,-100,4,1,0,50,0,1
66560,-100,4,2,0,50,0,1
67227,-100,4,1,0,50,0,1
86227,-100,4,1,0,60,0,0
99560,-100,4,2,1,60,0,0
112894,-133.333333333333,4,2,1,60,0,0
118227,-100,4,1,1,60,0,0
123560,-100,4,3,0,60,0,0
126894,-100,4,2,0,50,0,0
128894,-100,4,1,0,50,0,1
168894,-100,4,1,0,50,0,0
179560,-100,4,2,1,65,0,0
184894,-100,4,2,0,75,0,0
187560,-100,4,2,0,60,0,0
211560,-100,4,2,1,40,0,0
216727,-100,4,2,0,60,0,0
217227,-100,4,2,0,75,0,0
222227,-100,4,1,0,60,0,0
230227,-100,4,1,1,50,0,1
243560,-100,4,1,0,40,0,1
246227,-100,4,1,0,55,0,1
258560,-100,4,2,0,55,0,1
259560,-100,4,1,0,50,0,1
267560,-100,4,1,0,50,0,0

[HitObjects]
128,136,894,5,0,0:0:0:0:
148,260,1060,1,0,0:0:0:0:
256,208,1227,2,0,P|276:152|280:96,1,90,8|0,0:0|0:0,0:0:0:0:
412,120,1560,2,0,P|396:192|404:248,1,90
376,300,1894,1,8,0:0:0:0:
332,200,2060,2,0,P|304:144|184:116,1,180
132,180,2560,1,8,0:0:0:0:
160,272,2727,2,0,P|224:304|340:296,1,180
330,299,3227,1,8,0:0:0:0:
408,124,3560,5,0,0:0:0:0:
408,140,3644,1,0,0:0:0:0:
408,152,3727,1,0,0:0:0:0:
312,168,3894,6,0,P|252:192|192:192,1,90,8|0,0:0|0:0,0:0:0:0:
256,84,4227,2,0,P|184:64|140:60,1,90
92,132,4560,1,8,0:0:0:0:
120,244,4727,2,0,P|180:280|312:296,1,180
332,224,5227,6,0,P|352:172|344:124,1,90,8|0,0:0|0:0,0:0:0:0:
232,64,5560,2,0,P|252:136|288:156,1,90
412,100,5894,2,0,P|356:56|296:52,1,90,8|0,0:0|0:0,0:0:0:0:
288,152,6227,5,0,0:0:0:0:
288,152,6394,1,0,0:0:0:0:
196,152,6560,2,0,P|128:132|76:152,1,90,8|0,0:0|0:0,0:0:0:0:
164,260,6894,2,0,P|224:288|284:276,1,90
344,252,7227,1,8,0:0:0:0:
272,284,7394,6,0,P|256:224|288:108,1,180
396,148,7894,2,0,L|460:228,1,90,8|0,0:0|0:0,0:0:0:0:
360,284,8227,2,0,L|300:196,1,90
272,136,8560,1,8,0:0:0:0:
192,84,8727,2,0,P|112:112|68:204,1,180
160,244,9227,5,8,0:0:0:0:
248,232,9394,1,0,0:0:0:0:
312,180,9560,2,0,P|328:128|320:80,1,90
248,232,9894,2,0,P|276:288|280:340,1,90,8|0,0:0|0:0,0:0:0:0:
392,280,10227,5,0,0:0:0:0:
392,184,10394,1,0,0:0:0:0:
480,236,10560,1,8,0:0:0:0:
352,64,10894,5,0,0:0:0:0:
368,160,11060,1,0,0:0:0:0:
264,128,11227,1,8,0:0:0:0:
220,248,11560,6,0,P|160:188|128:112,1,135
156,104,11894,2,0,P|208:112|268:96,1,90,8|0,0:0|0:0,0:0:0:0:
244,105,12227,1,0,0:0:0:0:
384,64,12394,1,0,0:0:0:0:
352,192,12560,1,8,0:0:0:0:
288,264,12727,6,0,P|256:304|216:320,1,90
221,318,13060,1,0,0:0:0:0:
156,212,13227,1,8,0:0:0:0:
104,316,13394,1,0,0:0:0:0:
40,160,13560,6,0,L|68:260,1,90
224,164,13894,2,0,L|164:256,1,90,8|0,0:0|0:0,0:0:0:0:
296,256,14227,6,0,P|384:256|472:184,1,180,0|8,0:0|0:0,0:0:0:0:
432,112,14727,1,0,0:0:0:0:
340,148,14894,2,0,P|368:216|472:292,1,180,0|8,0:0|0:0,0:0:0:0:
448,283,15394,5,0,0:0:0:0:
384,120,15560,1,0,0:0:0:0:
320,288,15727,1,0,0:0:0:0:
480,192,15894,1,8,0:0:0:0:
276,188,16060,1,0,0:0:0:0:
448,283,16227,6,0,L|392:196,1,90
264,184,16560,2,0,L|328:292,1,90,8|0,0:0|0:0,0:0:0:0:
184,272,16894,6,0,P|136:232|128:192,1,90
204,64,17227,2,0,P|168:112|160:148,1,90,8|0,0:0|0:0,0:0:0:0:
244,152,17560,1,0,0:0:0:0:
328,168,17727,1,0,0:0:0:0:
404,128,17894,1,8,0:0:0:0:
452,216,18060,6,0,L|440:316,1,90
352,300,18394,1,0,0:0:0:0:
252,228,18560,2,0,L|268:320,1,90,8|0,0:0|0:0,0:0:0:0:
328,168,18894,2,0,L|412:120,1,90
328,64,19227,1,8,0:0:0:0:
216,80,19394,2,0,B|172:152|144:88|88:168|88:200,1,180
172,276,19894,6,0,L|244:208,1,90,8|0,0:0|0:0,0:0:0:0:
260,184,20227,1,0,0:0:0:0:
356,232,20394,1,0,0:0:0:0:
356,232,20477,1,0,0:0:0:0:
356,232,20560,1,8,0:0:0:0:
344,128,20727,2,0,L|280:56,1,90
420,56,21060,2,0,L|484:144,1,90,0|8,0:0|0:0,0:0:0:0:
472,128,21394,1,0,0:0:0:0:
392,152,21560,5,0,0:0:0:0:
304,304,21727,1,0,0:0:0:0:
440,280,21894,1,8,0:0:0:0:
280,188,22060,1,0,0:0:0:0:
212,252,22227,6,0,P|160:224|132:196,1,90
216,108,22560,2,0,P|260:132|288:160,1,90,8|0,0:0|0:0,0:0:0:0:
392,216,22894,2,0,P|408:152|408:108,1,90
272,44,23227,2,0,P|332:76|356:96,1,90,8|0,0:0|0:0,0:0:0:0:
348,89,23560,1,0,0:0:0:0:
260,168,23727,5,0,0:0:0:0:
260,168,23810,1,0,0:0:0:0:
260,168,23894,2,0,P|188:152|144:136,1,90,8|0,0:0|0:0,0:0:0:0:
280,272,24227,2,0,P|160:256|152:256,1,90
144,180,24560,1,8,0:0:0:0:
232,96,24727,1,0,0:0:0:0:
248,236,24894,6,0,P|328:280|432:288,1,180,0|8,0:0|0:0,0:0:0:0:
328,96,25394,1,0,0:0:0:0:
192,288,25560,6,0,P|256:328|372:340,1,180,0|8,0:0|0:0,0:0:0:0:
408,144,26060,5,0,0:0:0:0:
300,188,26227,2,0,P|268:152|264:96,1,90
392,268,26560,2,0,P|432:312|448:368,1,90,8|0,0:0|0:0,0:0:0:0:
324,320,26894,5,8,0:0:0:0:
232,212,27060,1,0,0:0:0:0:
412,208,27227,1,8,0:0:0:0:
324,320,27394,1,0,0:0:0:0:
232,212,27560,1,4,0:0:0:0:
168,172,30227,6,0,L|244:128,1,67.5000025749208
312,124,30560,1,0,0:0:0:0:
400,104,30727,1,0,0:0:0:0:
408,228,30894,2,0,L|376:160,1,67.5000025749208,8|0,0:0|0:0,0:0:0:0:
379,166,31227,1,0,0:0:0:0:
300,216,31394,6,0,P|260:248|168:272,1,135.000005149842
180,271,31894,1,0,0:0:0:0:
128,200,32060,1,0,0:0:0:0:
168,104,32227,2,0,L|236:136,1,67.5000025749208,8|0,0:0|0:0,0:0:0:0:
180,271,32560,2,0,L|112:232,1,67.5000025749208
248,184,32894,6,0,P|312:136|376:128,1,135.000005149842
392,208,33394,1,0,0:0:0:0:
348,288,33560,2,0,L|260:320,1,67.5000025749208,8|0,0:0|0:0,0:0:0:0:
244,180,33894,2,0,L|328:148,1,67.5000025749208
307,155,34227,1,0,0:0:0:0:
300,80,34394,6,0,L|244:28,1,67.5000025749208
184,180,34727,2,0,L|112:232,1,67.5000025749208,0|8,0:0|0:0,0:0:0:0:
272,244,35060,5,0,0:0:0:0:
272,244,35144,1,0,0:0:0:0:
272,244,35227,1,0,0:0:0:0:
368,224,35394,1,0,0:0:0:0:
368,132,35560,6,0,P|320:96|264:80,1,90,8|0,0:0|0:0,0:0:0:0:
256,208,35894,2,0,P|220:180|196:136,1,90
198,142,36227,5,8,0:0:0:0:
284,40,36394,1,0,0:0:0:0:
348,144,36560,1,0,0:0:0:0:
198,142,36727,1,0,0:0:0:0:
284,40,36894,6,0,B|220:80|220:80|196:124,1,90,8|0,0:0|0:0,0:0:0:0:
284,40,37227,2,0,B|344:88|344:88|360:116,1,90
280,288,37560,2,0,B|228:244|328:240|324:176|268:128,1,180,8|0,0:0|0:0,0:0:0:0:
160,212,38060,5,0,0:0:0:0:
160,212,38144,1,0,0:0:0:0:
160,212,38227,2,0,P|120:172|96:136,1,90,8|0,0:0|0:0,0:0:0:0:
264,104,38560,2,0,P|296:144|308:180,1,90
72,232,38894,6,0,P|52:188|48:144,1,90,8|0,0:0|0:0,0:0:0:0:
336,96,39227,2,0,P|368:152|376:196,1,90
240,276,39560,6,0,B|200:212|288:184|212:120|212:88,1,180,8|0,0:0|0:0,0:0:0:0:
215,103,40060,1,0,0:0:0:0:
328,180,40227,1,8,0:0:0:0:
136,212,40394,1,0,0:0:0:0:
215,103,40560,6,0,P|128:128|112:152,1,90
132,123,40810,1,0,0:0:0:0:
132,123,40894,1,8,0:0:0:0:
212,192,41060,5,0,0:0:0:0:
160,280,41227,1,8,0:0:0:0:
276,272,41394,1,0,0:0:0:0:
372,184,41560,5,8,0:0:0:0:
308,108,41727,1,0,0:0:0:0:
424,104,41894,1,8,0:0:0:0:
372,184,42060,5,0,0:0:0:0:
436,268,42227,1,8,0:0:0:0:
316,276,42394,1,0,0:0:0:0:
372,184,42560,5,8,0:0:0:0:
152,188,42727,1,0,0:0:0:0:
152,188,42810,1,0,0:0:0:0:
152,188,42894,1,8,0:0:0:0:
208,80,43060,6,0,L|340:80,1,90,0|8,0:0|0:0,0:0:0:0:
132,240,43394,2,0,L|132:140,1,90,0|8,0:0|0:0,0:0:0:0:
308,304,43727,2,0,L|204:304,1,90,0|8,0:0|0:0,0:0:0:0:
400,144,44060,2,0,L|400:244,1,90,0|8,0:0|0:0,0:0:0:0:
356,192,44394,5,0,0:0:0:0:
256,96,44560,1,8,0:0:0:0:
160,196,44727,1,0,0:0:0:0:
256,288,44894,1,8,0:0:0:0:
256,192,45227,5,4,0:0:0:0:
256,192,45560,1,4,0:0:0:0:
212,140,45894,5,0,0:0:0:0:
212,140,45977,1,0,0:0:0:0:
212,140,46060,1,0,0:0:0:0:
212,140,46144,1,0,0:0:0:0:
212,140,46227,2,0,B|144:176|124:200|124:200|136:284,1,180,8|8,0:0|0:0,0:0:0:0:
272,288,46727,2,8,P|304:252|324:208,1,90,8|0,0:0|0:0,0:0:0:0:
424,288,47060,2,0,P|432:232|416:176,1,90,8|0,0:0|0:0,0:0:0:0:
336,100,47394,6,0,P|288:76|164:92,1,180,8|0,0:0|0:0,0:0:0:0:
148,244,47894,2,0,P|128:200|128:152,1,90,8|0,0:0|0:0,0:0:0:0:
296,176,48227,2,0,P|304:236|288:272,1,90,8|0,0:0|0:0,0:0:0:0:
404,196,48560,1,0,0:0:0:0:
404,196,48727,1,0,0:0:0:0:
404,196,48810,1,0,0:0:0:0:
404,196,48894,6,0,P|412:148|372:80,1,90,2|0,0:0|0:0,0:0:0:0:
240,112,49227,2,0,P|240:172|256:216,1,90
332,240,49560,1,8,0:0:0:0:
268,312,49727,1,0,0:0:0:0:
200,256,49894,1,8,0:0:0:0:
80,272,50060,5,0,0:0:0:0:
80,272,50144,1,0,0:0:0:0:
80,272,50227,2,0,P|64:200|116:96,1,180,8|0,0:0|0:0,0:0:0:0:
200,76,50727,1,0,0:0:0:0:
260,152,50894,1,8,0:0:0:0:
344,68,51060,2,0,L|384:156,1,90,0|8,0:0|0:0,0:0:0:0:
381,149,51394,1,0,0:0:0:0:
392,268,51560,6,0,P|320:240|272:120,1,180
188,96,52060,1,0,0:0:0:0:
72,184,52227,1,8,0:0:0:0:
188,96,52394,1,0,0:0:0:0:
152,256,52560,1,8,0:0:0:0:
252,264,52727,6,0,B|312:208|256:168|276:128|296:84,1,180
376,112,53227,1,0,0:0:0:0:
436,176,53394,1,0,0:0:0:0:
348,196,53560,2,0,B|296:208|240:124|200:112|160:176,1,180,8|0,0:0|0:0,0:0:0:0:
100,280,54060,1,0,0:0:0:0:
100,280,54144,1,0,0:0:0:0:
100,280,54227,6,0,B|180:304|240:236|292:296,1,180,8|0,0:0|0:0,0:0:0:0:
332,192,54727,1,0,0:0:0:0:
332,192,54810,1,0,0:0:0:0:
332,192,54894,2,0,L|252:128,1,90,8|0,0:0|0:0,0:0:0:0:
80,180,55227,2,0,L|164:116,1,90,8|0,0:0|0:0,0:0:0:0:
248,88,55560,5,0,0:0:0:0:
248,100,55644,1,0,0:0:0:0:
248,112,55727,1,8,0:0:0:0:
384,140,55894,5,0,0:0:0:0:
384,148,55977,1,0,0:0:0:0:
384,156,56060,1,8,0:0:0:0:
288,196,56227,5,0,0:0:0:0:
288,208,56310,1,0,0:0:0:0:
288,220,56394,1,0,0:0:0:0:
288,232,56477,1,0,0:0:0:0:
288,244,56560,1,8,0:0:0:0:
288,256,56644,1,0,0:0:0:0:
288,268,56727,1,0,0:0:0:0:
288,280,56810,1,0,0:0:0:0:
288,296,56894,6,0,P|228:288|132:216,1,180,0|8,0:0|0:0,0:0:0:0:
104,128,57394,1,0,0:0:0:0:
192,96,57560,2,0,P|244:72|292:72,1,90,8|0,0:0|0:0,0:0:0:0:
384,164,57894,2,0,P|336:180|280:176,1,90,8|0,0:0|0:0,0:0:0:0:
212,192,58227,5,8,0:0:0:0:
116,224,58394,1,0,0:0:0:0:
96,200,58477,1,0,0:0:0:0:
84,172,58560,2,0,P|100:124|136:88,1,90,8|0,0:0|0:0,0:0:0:0:
268,216,58894,2,0,P|296:180|304:128,1,90,8|0,0:0|0:0,0:0:0:0:
304,137,59227,1,0,0:0:0:0:
444,136,59394,1,0,0:0:0:0:
304,137,59560,6,0,P|216:120|136:56,1,180,8|0,0:0|0:0,0:0:0:0:
208,208,60060,1,0,0:0:0:0:
108,296,60227,2,0,P|188:292|292:340,1,180,8|0,0:0|0:0,0:0:0:0:
278,329,60727,1,0,0:0:0:0:
256,192,60894,12,0,61560,0:0:0:0:
128,176,61894,6,0,P|192:120|288:92,1,180
356,152,62394,1,0,0:0:0:0:
436,292,62560,1,8,0:0:0:0:
268,304,62727,1,0,0:0:0:0:
356,148,62894,6,0,P|284:104|252:88,1,90
152,244,63227,2,0,P|180:292|224:320,1,90,8|0,0:0|0:0,0:0:0:0:
252,188,63560,1,0,0:0:0:0:
252,188,63894,1,8,0:0:0:0:
252,188,64227,1,0,0:0:0:0:
252,188,64560,1,8,0:0:0:0:
168,116,64727,5,0,0:0:0:0:
168,116,64810,1,0,0:0:0:0:
168,116,64894,2,0,P|104:128|64:160,1,90
80,172,65144,1,0,0:0:0:0:
84,204,65227,2,0,P|132:220|184:216,1,90,8|0,0:0|0:0,0:0:0:0:
140,328,65560,2,0,P|196:308|244:312,1,90
225,308,65894,1,8,0:0:0:0:
332,332,66060,2,0,P|312:272|352:152,1,180
428,64,66560,5,0,0:0:0:0:
428,76,66644,1,0,0:0:0:0:
428,88,66727,1,0,0:0:0:0:
288,120,66894,5,0,0:0:0:0:
288,132,66977,1,0,0:0:0:0:
288,144,67060,1,0,0:0:0:0:
132,164,67227,6,0,L|184:192,1,45
144,316,67394,2,0,L|176:272,1,45
296,276,67560,6,0,P|324:228|332:88,1,180,0|8,0:0|0:0,0:0:0:0:
236,120,68060,2,0,P|176:144|132:132,1,90,8|0,0:0|0:0,0:0:0:0:
144,288,68394,2,0,P|208:268|256:292,1,90,8|0,0:0|0:0,0:0:0:0:
332,160,68727,2,0,B|340:224|388:200|304:264|360:344,1,180,8|0,0:0|0:0,0:0:0:0:
456,232,69227,6,0,L|424:328,1,90,8|0,0:0|0:0,0:0:0:0:
296,180,69560,2,0,L|316:276,1,90,8|0,0:0|0:0,0:0:0:0:
380,100,69894,5,0,0:0:0:0:
380,100,70060,1,0,0:0:0:0:
352,84,70144,1,0,0:0:0:0:
320,72,70227,2,0,B|240:92|236:120|224:128|200:52|132:104,1,180,8|0,0:0|0:0,0:0:0:0:
144,260,70727,2,0,B|208:280|228:284|256:256|288:244|328:264,1,180,8|0,0:0|0:0,0:0:0:0:
319,260,71227,1,0,0:0:0:0:
440,164,71394,1,0,0:0:0:0:
319,260,71560,6,0,B|332:192|256:204|316:124|232:120,1,180,8|0,0:0|0:0,0:0:0:0:
68,112,72060,2,0,B|28:180|96:188|32:244|136:276,1,180,8|0,0:0|0:0,0:0:0:0:
114,267,72560,1,8,0:0:0:0:
216,184,72727,1,0,0:0:0:0:
304,296,72894,1,4,0:0:0:0:
444,184,73227,6,0,P|368:192|344:176,1,90,8|0,0:0|0:0,0:0:0:0:
148,208,73560,2,0,P|216:240|256:232,1,90,8|0,0:0|0:0,0:0:0:0:
228,239,73894,1,0,0:0:0:0:
228,136,74060,2,0,P|276:108|408:120,1,180
328,248,74560,2,0,P|252:304|152:304,1,180,0|8,0:0|0:0,0:0:0:0:
92,240,75060,5,0,0:0:0:0:
164,176,75227,1,8,0:0:0:0:
132,84,75394,1,0,0:0:0:0:
240,76,75560,6,0,P|300:88|344:72,1,90,8|0,0:0|0:0,0:0:0:0:
326,81,75894,1,0,0:0:0:0:
224,196,76060,2,0,P|160:208|124:192,1,90,8|0,0:0|0:0,0:0:0:0:
137,200,76394,1,0,0:0:0:0:
328,284,76560,5,0,0:0:0:0:
340,200,76727,2,0,B|276:136|368:136|312:32,1,180,8|0,0:0|0:0,0:0:0:0:
120,128,77227,6,0,L|192:68,1,90,8|0,0:0|0:0,0:0:0:0:
396,132,77560,2,0,L|316:72,1,90,8|0,0:0|0:0,0:0:0:0:
256,84,77894,5,8,0:0:0:0:
256,120,77977,1,0,0:0:0:0:
260,152,78060,1,0,0:0:0:0:
264,184,78144,1,0,0:0:0:0:
264,216,78227,2,0,P|216:216|96:280,1,180
320,320,78727,5,0,0:0:0:0:
320,320,78894,2,0,P|384:272|400:244,1,90,8|0,0:0|0:0,0:0:0:0:
344,132,79227,1,0,0:0:0:0:
256,252,79394,2,0,P|256:176|372:140,1,180,8|0,0:0|0:0,0:0:0:0:
388,216,79894,5,0,0:0:0:0:
396,48,80060,1,0,0:0:0:0:
388,216,80227,2,0,P|308:180|264:120,1,135,8|0,0:0|0:0,0:0:0:0:
248,152,80560,2,0,P|204:168|72:136,1,180,0|8,0:0|0:0,0:0:0:0:
92,244,81060,5,0,0:0:0:0:
144,92,81227,1,8,0:0:0:0:
92,244,81394,1,0,0:0:0:0:
92,244,81477,1,0,0:0:0:0:
92,244,81560,6,0,P|168:244|204:228,1,90,8|0,0:0|0:0,0:0:0:0:
224,160,81894,1,0,0:0:0:0:
260,64,82060,2,0,P|316:56|376:64,1,90,8|0,0:0|0:0,0:0:0:0:
256,192,82394,12,0,83227,0:0:0:0:
176,180,83394,5,0,0:0:0:0:
176,180,83477,1,0,0:0:0:0:
176,180,83560,2,0,P|240:156|368:156,1,180,8|0,0:0|0:0,0:0:0:0:
264,300,84060,2,0,P|216:320|88:300,1,180,0|0,0:0|0:0,0:0:0:0:
92,302,84560,5,8,0:0:0:0:
260,192,84727,1,0,0:0:0:0:
92,144,84894,1,8,0:0:0:0:
200,68,85227,5,4,0:0:0:0:
200,68,85394,1,4,0:0:0:0:
332,80,85560,5,8,0:0:0:0:
336,112,85644,1,0,0:0:0:0:
340,144,85727,1,0,0:0:0:0:
344,176,85810,1,0,0:0:0:0:
344,212,85894,2,0,L|336:268,1,45
224,272,86060,2,0,L|216:328,1,45,0|4,0:0|0:0,0:0:0:0:
256,192,86227,12,4,88894,0:0:0:0:
84,152,99560,6,0,P|144:124|200:116,1,90
228,188,99894,1,8,0:0:0:0:
320,220,100060,1,0,0:0:0:0:
368,116,100227,2,0,P|320:76|276:64,2,90,0|0|0,0:0|0:0|0:0,0:0:0:0:
320,220,100727,2,0,P|276:264|140:292,1,180
128,276,101144,1,0,0:0:0:0:
100,240,101227,2,0,P|80:184|84:116,1,90,8|0,0:0|0:0,0:0:0:0:
240,72,101560,2,0,P|196:80|160:112,1,90
256,200,101894,1,8,0:0:0:0:
256,200,102060,2,0,B|320:168|392:196|464:208,1,180
416,72,102560,5,8,0:0:0:0:
360,164,102727,1,0,0:0:0:0:
296,88,102894,1,0,0:0:0:0:
228,188,103060,1,0,0:0:0:0:
152,248,103227,5,8,0:0:0:0:
224,340,103394,1,0,0:0:0:0:
280,248,103560,1,0,0:0:0:0:
356,332,103727,1,0,0:0:0:0:
400,224,103894,6,0,L|448:148,1,90,8|0,0:0|0:0,0:0:0:0:
296,88,104227,2,0,L|244:168,1,90
246,163,104560,1,8,0:0:0:0:
124,88,104727,1,0,0:0:0:0:
246,163,104894,6,0,P|284:216|328:224,1,90
128,172,105227,2,0,P|100:216|60:232,1,90,8|0,0:0|0:0,0:0:0:0:
66,230,105560,1,0,0:0:0:0:
152,272,105727,1,0,0:0:0:0:
232,244,105894,1,8,0:0:0:0:
328,200,106060,6,0,P|344:140|400:104,1,90
362,120,106394,2,0,B|328:88|324:104|320:116|304:80|312:60|308:112|272:116|284:56|276:32|248:104|260:16|228:92|220:112|216:72,1,180,0|4,0:0|0:0,0:0:0:0:
88,196,106894,6,0,P|112:136|144:104,1,90
248,200,107227,2,0,P|232:252|192:280,1,90,8|0,0:0|0:0,0:0:0:0:
316,288,107560,6,0,P|364:264|476:308,1,180,0|8,0:0|0:0,0:0:0:0:
388,164,108060,1,0,0:0:0:0:
320,72,108227,2,0,P|256:104|148:68,1,180,0|8,0:0|0:0,0:0:0:0:
156,75,108727,1,0,0:0:0:0:
104,200,108894,6,0,L|52:284,1,90
216,204,109227,2,8,L|164:288,1,90,8|0,0:0|0:0,0:0:0:0:
336,272,109560,5,12,0:0:0:0:
300,80,109727,1,4,0:0:0:0:
216,196,109894,1,12,0:0:0:0:
408,152,110060,1,4,0:0:0:0:
332,268,110227,1,12,0:0:0:0:
260,196,112894,5,0,0:0:0:0:
260,196,113060,1,0,0:0:0:0:
328,128,113227,2,0,P|368:96|396:60,1,67.5000025749208,0|0,0:0|0:0,0:0:0:0:
432,184,113560,2,0,P|412:240|324:296,1,135.000005149842,8|0,0:0|0:0,0:0:0:0:
256,284,114060,1,0,0:0:0:0:
160,228,114227,2,0,L|192:144,1,67.5000025749208
96,96,114560,2,0,L|64:176,1,67.5000025749208
192,144,114894,2,0,P|236:92|304:116,1,135.000005149842,8|0,0:0|0:0,0:0:0:0:
296,276,115560,5,0,0:0:0:0:
296,276,115727,1,0,0:0:0:0:
296,276,115894,2,0,P|256:320|184:312,1,135.000005149842,0|8,0:0|0:0,0:0:0:0:
132,236,116394,1,0,0:0:0:0:
132,236,116560,1,0,0:0:0:0:
128,144,116727,2,0,P|220:112|276:120,2,135.000005149842
192,196,117560,5,8,0:0:0:0:
352,200,117727,1,0,0:0:0:0:
272,112,117894,1,8,0:0:0:0:
280,292,118060,1,0,0:0:0:0:
280,292,118144,1,0,0:0:0:0:
280,292,118227,6,0,P|208:300|156:292,1,90,8|0,0:0|0:0,0:0:0:0:
100,232,118560,1,0,0:0:0:0:
144,132,118727,2,0,P|208:176|312:144,1,180
302,153,119227,1,0,0:0:0:0:
432,104,119394,1,0,0:0:0:0:
404,264,119560,6,0,P|352:292|308:300,1,90,8|0,0:0|0:0,0:0:0:0:
312,104,119894,2,0,P|360:124|392:160,1,90
268,244,120227,2,0,P|236:196|236:160,1,90,8|0,0:0|0:0,0:0:0:0:
436,192,120560,2,0,P|428:260|408:284,1,90
336,232,120894,6,0,B|276:180|332:136|224:80,1,180,8|0,0:0|0:0,0:0:0:0:
136,76,121394,1,0,0:0:0:0:
92,176,121560,2,0,P|100:236|116:296,1,90,8|0,0:0|0:0,0:0:0:0:
220,248,121894,2,0,P|208:184|200:144,1,90
380,128,122227,6,0,L|300:180,1,90,8|0,0:0|0:0,0:0:0:0:
256,40,122727,1,0,0:0:0:0:
264,156,122894,6,0,L|172:196,1,90,8|0,0:0|0:0,0:0:0:0:
204,292,123227,2,0,L|292:244,1,90
376,240,123560,5,0,0:0:0:0:
244,232,123727,1,0,0:0:0:0:
248,96,123894,1,8,0:0:0:0:
384,96,124060,1,0,0:0:0:0:
448,192,124227,5,0,0:0:0:0:
368,328,124394,1,0,0:0:0:0:
304,188,124560,1,8,0:0:0:0:
448,192,124727,1,0,0:0:0:0:
384,96,124894,5,0,0:0:0:0:
256,24,125060,1,0,0:0:0:0:
120,88,125227,1,8,0:0:0:0:
96,192,125394,5,0,0:0:0:0:
96,192,125477,1,0,0:0:0:0:
96,192,125560,2,0,P|160:204|200:204,1,90
420,188,125894,2,0,P|356:208|308:208,1,90,8|0,0:0|0:0,0:0:0:0:
256,24,126227,2,0,P|232:80|244:128,1,90
256,328,126560,2,0,P|240:272|248:232,1,90,8|0,0:0|0:0,0:0:0:0:
184,176,126894,5,8,0:0:0:0:
208,156,126977,1,0,0:0:0:0:
236,144,127060,1,0,0:0:0:0:
272,144,127144,1,0,0:0:0:0:
304,152,127227,1,8,0:0:0:0:
332,168,127310,1,0,0:0:0:0:
352,192,127394,1,0,0:0:0:0:
356,224,127477,1,0,0:0:0:0:
348,256,127560,1,8,0:0:0:0:
252,296,127894,5,0,0:0:0:0:
252,296,128227,1,8,0:0:0:0:
252,296,128560,1,0,0:0:0:0:
216,288,128644,1,0,0:0:0:0:
188,272,128727,1,0,0:0:0:0:
164,252,128810,1,0,0:0:0:0:
136,232,128894,6,0,P|92:192|80:144,1,90,8|0,0:0|0:0,0:0:0:0:
136,80,129227,1,0,0:0:0:0:
228,132,129394,2,0,P|240:184|196:308,1,180,8|0,0:0|0:0,0:0:0:0:
328,248,129894,1,0,0:0:0:0:
444,300,130060,2,0,P|416:236|436:128,1,180,8|0,0:0|0:0,0:0:0:0:
352,60,130560,6,0,P|308:40|216:52,1,135
204,72,130894,2,0,P|184:128|80:212,1,180,8|0,0:0|0:0,0:0:0:0:
184,264,131394,1,0,0:0:0:0:
184,264,131477,1,0,0:0:0:0:
184,264,131560,6,0,P|248:248|368:280,1,180,8|0,0:0|0:0,0:0:0:0:
396,104,132060,2,0,P|328:120|220:88,1,180
224,90,132560,1,8,0:0:0:0:
84,136,132727,1,0,0:0:0:0:
152,232,132894,2,0,B|204:272|240:216|348:248,1,180,8|0,0:0|0:0,0:0:0:0:
412,92,133394,2,0,B|360:132|320:72|232:92,1,180,8|0,0:0|0:0,0:0:0:0:
152,84,133894,1,8,0:0:0:0:
144,188,134060,1,0,0:0:0:0:
256,192,134227,1,8,0:0:0:0:
364,240,134560,6,0,L|356:136,1,90
224,136,134894,2,0,L|220:248,1,90,8|0,0:0|0:0,0:0:0:0:
152,288,135227,1,0,0:0:0:0:
80,208,135394,2,8,P|80:144|168:48,1,180
324,136,135894,6,0,P|272:88|236:68,1,90
192,184,136227,2,8,P|240:244|272:256,1,90
372,272,136560,1,0,0:0:0:0:
372,272,136727,1,0,0:0:0:0:
372,272,136810,1,0,0:0:0:0:
372,272,136894,2,0,P|404:224|456:200,1,90,8|0,0:0|0:0,0:0:0:0:
408,116,137227,1,0,0:0:0:0:
316,64,137394,6,0,P|252:72|212:44,1,90,0|8,0:0|0:0,0:0:0:0:
328,188,137727,2,0,P|384:176|424:184,1,90
424,292,138060,2,0,B|352:340|304:260|228:312,1,180,8|0,0:0|0:0,0:0:0:0:
144,280,138560,6,0,P|136:224|152:184,1,90
240,92,138894,2,0,P|260:152|260:192,1,90,8|0,0:0|0:0,0:0:0:0:
136,172,139227,1,0,0:0:0:0:
112,152,139310,1,0,0:0:0:0:
104,120,139394,1,0,0:0:0:0:
100,88,139477,1,0,0:0:0:0:
108,52,139560,6,0,P|160:56|288:28,1,180,8|0,0:0|0:0,0:0:0:0:
340,100,140060,1,0,0:0:0:0:
328,188,140227,2,0,L|220:152,2,90
292,268,140727,2,0,P|272:196|316:84,1,180,8|0,0:0|0:0,0:0:0:0:
400,136,141227,5,0,0:0:0:0:
408,244,141394,2,0,P|380:292|336:328,1,90,0|8,0:0|0:0,0:0:0:0:
256,88,141727,2,0,P|312:116|352:168,1,90
164,224,142060,2,8,P|192:168|232:144,1,90,0|8,0:0|0:0,0:0:0:0:
296,232,142394,1,0,0:0:0:0:
296,232,142477,1,0,0:0:0:0:
296,232,142560,1,0,0:0:0:0:
308,124,142727,6,0,P|348:92|388:88,1,90,0|8,0:0|0:0,0:0:0:0:
385,87,143060,1,0,0:0:0:0:
400,248,143227,1,0,0:0:0:0:
385,87,143394,2,0,B|328:32|252:92|196:64,1,180,8|0,0:0|0:0,0:0:0:0:
120,140,143894,6,0,L|68:176,1,45
192,176,144060,2,0,L|192:232,1,45
276,144,144227,2,0,L|312:176,1,45,8|0,0:0|0:0,0:0:0:0:
336,248,144394,5,0,0:0:0:0:
320,276,144477,1,0,0:0:0:0:
288,292,144560,1,0,0:0:0:0:
256,296,144644,1,0,0:0:0:0:
224,288,144727,1,0,0:0:0:0:
196,272,144810,1,0,0:0:0:0:
168,248,144894,6,0,P|108:240|60:252,1,90,8|0,0:0|0:0,0:0:0:0:
72,80,145227,2,0,P|136:96|184:88,1,90
248,96,145560,5,8,0:0:0:0:
356,180,145894,1,0,0:0:0:0:
200,328,146227,5,8,0:0:0:0:
88,184,146560,1,0,0:0:0:0:
148,56,146894,5,8,0:0:0:0:
304,224,147227,1,0,0:0:0:0:
292,104,147394,5,0,0:0:0:0:
292,104,147477,1,0,0:0:0:0:
292,104,147560,2,0,P|352:88|408:88,1,90,8|0,0:0|0:0,0:0:0:0:
368,244,147894,2,0,P|304:264|256:256,1,90
204,172,148227,5,8,0:0:0:0:
180,296,148394,1,0,0:0:0:0:
104,200,148560,1,0,0:0:0:0:
100,96,148727,6,0,P|144:64|208:68,1,90,0|8,0:0|0:0,0:0:0:0:
228,208,149060,2,0,P|272:176|292:128,1,90
392,224,149394,2,0,P|404:160|388:112,1,90,0|8,0:0|0:0,0:0:0:0:
312,60,149727,5,0,0:0:0:0:
280,68,149810,1,0,0:0:0:0:
256,88,149894,1,0,0:0:0:0:
244,120,149977,1,0,0:0:0:0:
244,152,150060,1,0,0:0:0:0:
252,184,150144,1,0,0:0:0:0:
264,216,150227,6,0,P|228:260|100:284,1,180,8|0,0:0|0:0,0:0:0:0:
68,204,150727,1,0,0:0:0:0:
84,96,150894,2,0,L|164:144,1,90,8|0,0:0|0:0,0:0:0:0:
192,256,151227,1,0,0:0:0:0:
192,256,151394,2,0,P|264:236|376:260,1,180,8|0,0:0|0:0,0:0:0:0:
392,72,151894,2,0,P|332:108|192:80,1,180,0|8,0:0|0:0,0:0:0:0:
144,128,152394,5,0,0:0:0:0:
80,268,152560,1,0,0:0:0:0:
144,128,152727,1,0,0:0:0:0:
252,96,152894,2,0,P|348:116|428:76,1,180,8|0,0:0|0:0,0:0:0:0:
428,268,153394,2,0,P|372:252|248:272,1,180
168,240,153894,5,8,0:0:0:0:
112,168,154060,1,0,0:0:0:0:
124,68,154227,2,0,P|188:84|304:72,1,180,8|0,0:0|0:0,0:0:0:0:
344,252,154727,2,0,P|260:232|152:248,1,180,8|0,0:0|0:0,0:0:0:0:
184,144,155227,5,0,0:0:0:0:
276,132,155394,1,0,0:0:0:0:
276,132,155477,1,0,0:0:0:0:
276,132,155560,1,8,0:0:0:0:
404,244,155894,5,0,0:0:0:0:
300,248,156060,1,0,0:0:0:0:
300,260,156144,1,0,0:0:0:0:
300,272,156227,2,0,P|240:260|192:216,1,90,8|0,0:0|0:0,0:0:0:0:
128,196,156560,1,0,0:0:0:0:
272,172,156727,2,0,P|240:112|136:48,1,180,8|0,0:0|0:0,0:0:0:0:
72,124,157227,5,0,0:0:0:0:
68,232,157394,1,0,0:0:0:0:
180,176,157560,2,0,P|192:124|224:88,1,90,8|0,0:0|0:0,0:0:0:0:
316,188,157894,2,0,P|304:232|272:268,1,90
288,96,158227,2,0,B|328:72|368:136|424:88|468:88,1,180,8|0,0:0|0:0,0:0:0:0:
452,184,158727,5,0,0:0:0:0:
400,280,158894,2,0,L|316:240,1,90,8|0,0:0|0:0,0:0:0:0:
352,140,159227,2,0,L|268:88,1,90
224,148,159560,5,8,0:0:0:0:
184,232,159727,1,0,0:0:0:0:
112,304,159894,2,0,P|96:236|100:184,1,90
184,72,160227,2,0,P|152:116|136:164,1,90,8|0,0:0|0:0,0:0:0:0:
268,196,160560,5,0,0:0:0:0:
288,196,160644,1,0,0:0:0:0:
308,196,160727,1,0,0:0:0:0:
328,196,160810,1,0,0:0:0:0:
348,196,160894,6,0,B|364:148|424:120|368:72|304:92,1,180,8|0,0:0|0:0,0:0:0:0:
204,56,161394,1,0,0:0:0:0:
120,136,161560,6,0,P|88:184|76:240,1,90,8|0,0:0|0:0,0:0:0:0:
168,280,161894,1,0,0:0:0:0:
284,272,162060,2,8,B|244:188|312:136|280:92,1,180
283,96,162560,5,0,0:0:0:0:
416,180,162727,1,8,0:0:0:0:
356,252,162894,2,0,P|276:232|212:196,1,135,0|0,0:0|0:0,0:0:0:0:
188,204,163227,2,0,P|140:248|36:292,1,180,8|0,0:0|0:0,0:0:0:0:
52,160,163727,5,0,0:0:0:0:
52,160,163810,1,0,0:0:0:0:
52,160,163894,1,8,0:0:0:0:
148,88,164060,5,0,0:0:0:0:
148,88,164144,1,0,0:0:0:0:
148,88,164227,2,0,P|204:104|252:92,1,90,8|0,0:0|0:0,0:0:0:0:
332,96,164560,1,0,0:0:0:0:
336,204,164727,2,0,B|276:240|232:192|176:212|132:252,1,180,8|0,0:0|0:0,0:0:0:0:
136,144,165227,5,0,0:0:0:0:
136,156,165310,1,0,0:0:0:0:
136,168,165394,1,0,0:0:0:0:
284,184,165560,5,8,0:0:0:0:
284,196,165644,1,0,0:0:0:0:
284,208,165727,1,0,0:0:0:0:
416,164,165894,5,0,0:0:0:0:
412,144,165977,1,0,0:0:0:0:
404,128,166060,1,0,0:0:0:0:
396,112,166144,1,0,0:0:0:0:
384,96,166227,6,0,P|300:64|208:68,1,180,8|0,0:0|0:0,0:0:0:0:
140,212,166727,2,0,P|196:252|312:256,1,180,8|0,0:0|0:0,0:0:0:0:
304,258,167227,1,0,0:0:0:0:
432,264,167394,1,0,0:0:0:0:
460,140,167560,1,8,0:0:0:0:
292,108,167894,5,4,0:0:0:0:
292,108,168060,1,4,0:0:0:0:
176,140,168394,5,0,0:0:0:0:
168,172,168477,1,0,0:0:0:0:
168,204,168560,1,8,0:0:0:0:
176,236,168644,1,0,0:0:0:0:
196,260,168727,1,0,0:0:0:0:
224,272,168810,1,0,0:0:0:0:
256,264,168894,1,8,0:0:0:0:
168,160,179560,5,0,0:0:0:0:
168,160,179727,1,0,0:0:0:0:
312,72,179894,1,8,0:0:0:0:
416,208,180060,1,0,0:0:0:0:
260,304,180227,1,0,0:0:0:0:
312,72,180394,5,0,0:0:0:0:
264,304,180560,2,0,P|188:300|160:260,1,90,8|0,0:0|0:0,0:0:0:0:
108,128,180894,2,0,B|144:88|168:80|172:128|176:160|208:88|212:156|240:100|224:64|276:116,1,180,0|8,0:0|0:0,0:0:0:0:
261,102,181394,5,0,0:0:0:0:
420,156,181560,1,0,0:0:0:0:
376,40,181727,1,0,0:0:0:0:
312,212,181894,1,8,0:0:0:0:
164,168,182060,6,0,P|192:228|280:300,1,180
278,299,182477,1,0,0:0:0:0:
278,299,182560,1,8,0:0:0:0:
392,208,182727,6,0,P|372:148|332:104,1,90
176,120,183060,2,0,P|156:176|160:248,1,90,0|8,0:0|0:0,0:0:0:0:
152,208,183394,1,0,0:0:0:0:
344,128,183560,1,0,0:0:0:0:
208,40,183727,2,0,P|152:56|108:112,1,90,0|8,0:0|0:0,0:0:0:0:
72,160,184060,2,0,B|16:204|108:200|136:228|24:236|144:236|40:256|144:244|32:248|152:260|20:264|160:264|88:316,1,180
196,304,184560,5,8,0:0:0:0:
352,260,184727,1,0,0:0:0:0:
208,160,184894,6,0,P|152:156|108:180,1,90
320,64,185227,2,0,P|376:92|432:84,1,90,8|0,0:0|0:0,0:0:0:0:
402,92,185560,1,0,0:0:0:0:
268,168,185727,1,0,0:0:0:0:
420,296,185894,2,0,P|360:260|352:208,1,90,8|0,0:0|0:0,0:0:0:0:
160,236,186227,2,0,P|216:252|280:240,1,90
176,132,186560,1,8,0:0:0:0:
76,228,186727,6,0,B|144:260|136:192|156:272|168:184|168:288|184:164|192:316|212:164|224:300|228:192,1,180
227,203,187144,1,0,0:0:0:0:
227,203,187227,1,8,0:0:0:0:
296,104,187394,1,0,0:0:0:0:
344,280,187560,6,0,P|384:228|412:116,1,180,0|8,0:0|0:0,0:0:0:0:
392,80,187977,1,0,0:0:0:0:
352,48,188060,2,0,P|260:68|232:60,1,90,0|8,0:0|0:0,0:0:0:0:
128,156,188394,2,0,L|232:168,1,90,0|8,0:0|0:0,0:0:0:0:
296,104,188727,1,0,0:0:0:0:
404,304,188894,6,0,B|468:272|384:276|484:248|364:292|468:256|468:256|420:232|420:232|464:216,1,180,8|0,0:0|0:0,0:0:0:0:
344,120,189394,1,0,0:0:0:0:
344,120,189477,1,0,0:0:0:0:
344,120,189560,2,0,P|272:124|232:100,1,90,8|0,0:0|0:0,0:0:0:0:
176,268,189894,2,0,P|252:256|284:268,1,90,8|0,0:0|0:0,0:0:0:0:
264,256,190227,1,0,0:0:0:0:
256,120,190560,5,0,0:0:0:0:
140,44,190727,1,0,0:0:0:0:
376,40,190894,1,8,0:0:0:0:
256,200,191060,6,0,P|180:176|168:136,1,90
328,88,191394,2,0,P|380:104|436:212,1,180,8|0,0:0|0:0,0:0:0:0:
436,208,191810,1,0,0:0:0:0:
436,208,191894,1,2,0:0:0:0:
248,308,192060,6,0,P|316:296|364:264,1,90,0|8,0:0|0:0,0:0:0:0:
204,136,192394,2,0,P|244:180|256:212,1,90
168,272,192727,1,0,0:0:0:0:
132,168,192894,6,0,P|180:128|240:128,1,90,8|0,0:0|0:0,0:0:0:0:
372,184,193227,2,0,P|328:140|284:128,1,90
302,130,193560,5,8,0:0:0:0:
136,56,193727,1,0,0:0:0:0:
416,56,193894,1,0,0:0:0:0:
376,184,194060,5,0,0:0:0:0:
376,184,194144,1,0,0:0:0:0:
376,184,194227,2,0,P|336:232|292:236,1,90,8|0,0:0|0:0,0:0:0:0:
232,332,194560,2,0,P|192:300|132:284,1,90
155,286,194894,1,8,0:0:0:0:
92,144,195060,1,0,0:0:0:0:
155,286,195227,1,0,0:0:0:0:
256,164,195394,5,0,0:0:0:0:
256,168,195477,1,0,0:0:0:0:
256,164,195560,2,0,P|232:112|192:92,1,90,8|0,0:0|0:0,0:0:0:0:
336,88,195894,2,0,P|304:48|260:36,1,90
376,236,196227,2,0,P|324:260|272:260,1,90,8|0,0:0|0:0,0:0:0:0:
312,348,196560,2,0,P|248:348|204:316,1,90
160,244,196894,5,8,0:0:0:0:
160,244,197060,1,0,0:0:0:0:
132,228,197144,1,0,0:0:0:0:
104,204,197227,2,0,B|60:152|60:152|72:96,1,90
240,100,197560,2,0,B|268:144|268:144|256:184,1,90,8|0,0:0|0:0,0:0:0:0:
257,180,197894,1,0,0:0:0:0:
120,156,198060,1,0,0:0:0:0:
352,160,198227,6,0,P|376:228|336:328,1,180,8|0,0:0|0:0,0:0:0:0:
244,328,198727,1,0,0:0:0:0:
184,244,198894,2,8,P|112:252|52:260,1,90,8|0,0:0|0:0,0:0:0:0:
100,88,199227,2,0,L|200:80,1,90,4|0,0:0|0:0,0:0:0:0:
328,128,199560,5,0,0:0:0:0:
328,128,199644,1,0,0:0:0:0:
328,128,199727,2,0,L|208:132,1,90,0|8,0:0|0:0,0:0:0:0:
312,284,200060,2,0,P|264:240|252:212,1,90,0|8,0:0|0:0,0:0:0:0:
408,96,200394,6,0,P|428:160|408:276,1,180
411,269,200810,1,0,0:0:0:0:
411,269,200894,1,4,0:0:0:0:
256,124,211560,5,0,0:0:0:0:
184,204,211894,1,0,0:0:0:0:
260,272,212227,1,8,0:0:0:0:
328,192,212560,1,0,0:0:0:0:
348,96,212894,5,0,0:0:0:0:
344,280,213227,1,0,0:0:0:0:
168,280,213560,1,8,0:0:0:0:
168,96,213894,1,0,0:0:0:0:
260,72,214227,5,0,0:0:0:0:
136,192,214560,1,0,0:0:0:0:
252,308,214894,1,8,0:0:0:0:
368,192,215227,1,0,0:0:0:0:
256,192,215560,5,8,0:0:0:0:
256,192,216227,5,8,0:0:0:0:
256,192,216727,5,0,0:0:0:0:
256,192,216810,1,0,0:0:0:0:
256,192,216894,1,8,0:0:0:0:
348,108,217227,6,0,P|384:136|408:200,1,90,8|0,0:0|0:0,0:0:0:0:
192,284,217560,2,0,P|152:232|152:192,1,90,8|0,0:0|0:0,0:0:0:0:
248,76,217894,2,0,P|200:84|172:116,1,90,8|0,0:0|0:0,0:0:0:0:
308,288,218227,2,0,P|340:256|364:216,1,90,8|0,0:0|0:0,0:0:0:0:
352,112,218560,5,0,0:0:0:0:
352,256,218727,1,0,0:0:0:0:
168,256,218894,1,8,0:0:0:0:
160,112,219060,1,0,0:0:0:0:
260,188,219227,5,0,0:0:0:0:
260,188,219394,1,0,0:0:0:0:
160,188,219560,6,0,L|64:188,1,90,8|0,0:0|0:0,0:0:0:0:
260,108,219894,2,0,L|260:16,1,90,8|0,0:0|0:0,0:0:0:0:
344,192,220227,2,0,L|440:192,1,90,8|0,0:0|0:0,0:0:0:0:
256,268,220560,2,0,L|256:360,1,90,8|0,0:0|0:0,0:0:0:0:
68,184,220894,6,0,L|164:184,1,90,8|0,0:0|0:0,0:0:0:0:
260,24,221227,2,0,L|260:120,1,90,8|0,0:0|0:0,0:0:0:0:
440,192,221560,2,0,L|332:192,1,90,8|0,0:0|0:0,0:0:0:0:
256,360,221894,2,0,L|256:264,1,90,8|0,0:0|0:0,0:0:0:0:
148,136,222227,6,0,P|192:144|236:136,1,90
236,135,222560,1,8,0:0:0:0:
392,220,222727,2,0,P|320:232|296:224,1,90
305,227,223060,1,8,0:0:0:0:
328,88,223227,1,8,0:0:0:0:
220,216,223394,5,0,0:0:0:0:
200,240,223477,1,0,0:0:0:0:
168,252,223560,2,0,P|120:248|80:224,1,90,8|0,0:0|0:0,0:0:0:0:
84,227,223894,1,0,0:0:0:0:
128,88,224060,1,0,0:0:0:0:
84,227,224227,1,8,0:0:0:0:
184,328,224394,5,0,0:0:0:0:
196,148,224560,1,8,0:0:0:0:
316,280,224727,1,0,0:0:0:0:
348,160,224894,6,0,P|328:120|296:80,1,90
296,84,225227,1,8,0:0:0:0:
172,196,225394,2,0,P|160:248|120:284,1,90
136,274,225727,1,8,0:0:0:0:
64,200,225894,2,0,L|52:96,1,90,0|8,0:0|0:0,0:0:0:0:
172,80,226227,5,8,0:0:0:0:
192,56,226310,1,0,0:0:0:0:
228,48,226394,1,0,0:0:0:0:
260,48,226477,1,8,0:0:0:0:
292,56,226560,1,0,0:0:0:0:
328,68,226644,1,0,0:0:0:0:
356,88,226727,1,0,0:0:0:0:
368,116,226810,1,0,0:0:0:0:
376,152,226894,6,0,L|380:196,1,45,8|0,0:0|0:0,0:0:0:0:
280,224,227060,2,0,L|272:172,1,45
160,212,227227,6,0,P|88:196|60:160,1,90
148,112,227560,1,4,0:0:0:0:
120,300,227727,1,12,0:0:0:0:
272,200,228394,5,4,0:0:0:0:
272,200,228727,1,4,0:0:0:0:
288,80,229227,5,4,0:0:0:0:
288,80,229560,1,12,0:0:0:0:
408,144,229894,5,8,0:0:0:0:
412,176,229977,1,0,0:0:0:0:
400,208,230060,1,0,0:0:0:0:
380,232,230144,1,0,0:0:0:0:
352,244,230227,6,0,B|288:276|220:240|144:276,1,180,8|0,0:0|0:0,0:0:0:0:
148,64,230727,2,0,B|204:36|256:76|352:36,1,180
324,48,231227,1,8,0:0:0:0:
476,128,231394,1,0,0:0:0:0:
380,232,231560,2,0,B|320:304|248:264|192:312|188:300,1,180,8|0,0:0|0:0,0:0:0:0:
0,136,232060,2,0,B|56:104|104:144|188:92,1,180,8|0,0:0|0:0,0:0:0:0:
244,200,232560,5,0,0:0:0:0:
112,260,232727,1,0,0:0:0:0:
112,260,232810,1,0,0:0:0:0:
112,260,232894,1,8,0:0:0:0:
208,304,233060,5,4,0:0:0:0:
368,252,233560,5,4,0:0:0:0:
368,252,233727,1,4,0:0:0:0:
384,76,234060,6,0,B|312:100|268:72|220:64|152:112,1,225,0|0,0:0|0:0,0:0:0:0:
148,128,234560,2,0,P|136:176|148:232,1,90,8|0,0:0|0:0,0:0:0:0:
272,304,234894,2,0,P|272:248|244:212,1,90
288,104,235227,5,0,0:0:0:0:
416,192,235394,1,0,0:0:0:0:
416,192,235477,1,0,0:0:0:0:
416,192,235560,2,0,P|428:128|400:80,1,90,8|0,0:0|0:0,0:0:0:0:
304,256,235894,2,0,P|288:204|300:168,1,90
296,168,236227,5,8,0:0:0:0:
168,88,236394,1,0,0:0:0:0:
356,56,236560,1,0,0:0:0:0:
212,160,236727,6,0,B|164:184|128:128|24:176,1,180,8|0,0:0|0:0,0:0:0:0:
35,170,237227,5,8,0:0:0:0:
104,248,237394,1,0,0:0:0:0:
156,160,237560,1,8,0:0:0:0:
35,170,237727,5,0,0:0:0:0:
108,324,237894,1,8,0:0:0:0:
220,168,238060,1,0,0:0:0:0:
296,248,238227,6,0,B|328:172|392:160|392:80,1,180,8|0,0:0|0:0,0:0:0:0:
272,60,238727,1,0,0:0:0:0:
272,60,238810,1,0,0:0:0:0:
272,60,238894,2,8,P|192:68|160:48,1,90,8|0,0:0|0:0,0:0:0:0:
96,116,239227,1,0,0:0:0:0:
112,220,239394,2,0,B|180:272|208:200|300:244,1,180
285,237,239894,5,8,0:0:0:0:
384,148,240060,1,0,0:0:0:0:
228,120,240227,6,0,P|280:92|336:100,1,90,8|0,0:0|0:0,0:0:0:0:
476,208,240560,2,0,P|424:188|376:192,1,90
292,304,240894,2,0,B|336:252|248:232|312:168|300:124,1,180,8|0,0:0|0:0,0:0:0:0:
176,184,241394,5,0,0:0:0:0:
176,184,241477,1,0,0:0:0:0:
176,184,241560,2,0,P|128:164|68:160,1,90,8|0,0:0|0:0,0:0:0:0:
120,72,241894,1,0,0:0:0:0:
220,28,242060,2,0,P|276:64|396:56,1,180,8|0,0:0|0:0,0:0:0:0:
386,60,242560,5,0,0:0:0:0:
296,164,242727,1,0,0:0:0:0:
440,160,242894,1,8,0:0:0:0:
352,260,243060,1,0,0:0:0:0:
232,264,243227,5,0,0:0:0:0:
204,248,243310,1,0,0:0:0:0:
180,224,243394,1,0,0:0:0:0:
168,196,243477,1,0,0:0:0:0:
156,168,243560,6,0,B|160:108|68:120|48:32,1,180,8|0,0:0|0:0,0:0:0:0:
264,208,244060,1,0,0:0:0:0:
352,260,244227,2,0,B|412:240|400:320|504:348,1,180,8|0,0:0|0:0,0:0:0:0:
264,208,244727,1,0,0:0:0:0:
324,96,244894,5,8,0:0:0:0:
420,196,245227,1,4,0:0:0:0:
184,52,245560,5,8,0:0:0:0:
104,176,245894,1,8,0:0:0:0:
248,160,246227,6,0,L|188:256,1,90,8|0,0:0|0:0,0:0:0:0:
412,244,246560,2,0,L|460:156,1,90
216,124,246894,2,0,L|152:208,1,90,8|0,0:0|0:0,0:0:0:0:
336,272,247227,1,0,0:0:0:0:
336,272,247394,1,0,0:0:0:0:
336,272,247477,1,0,0:0:0:0:
336,272,247560,6,0,P|392:260|428:236,1,90,8|0,0:0|0:0,0:0:0:0:
220,124,247894,2,0,P|172:184|164:224,1,90
404,320,248227,2,0,P|456:276|472:240,1,90,8|0,0:0|0:0,0:0:0:0:
352,180,248560,5,0,0:0:0:0:
352,180,248644,1,0,0:0:0:0:
352,180,248727,1,0,0:0:0:0:
352,180,248810,1,0,0:0:0:0:
352,180,248894,2,0,P|328:120|224:40,1,180,8|0,0:0|0:0,0:0:0:0:
152,80,249394,5,0,0:0:0:0:
100,244,249727,1,0,0:0:0:0:
144,340,249894,1,0,0:0:0:0:
220,248,250060,1,0,0:0:0:0:
172,144,250227,6,0,L|112:64,1,90,8|0,0:0|0:0,0:0:0:0:
332,152,250560,2,0,L|416:80,1,90
136,244,250894,2,0,L|80:160,1,90,8|0,0:0|0:0,0:0:0:0:
384,256,251227,2,0,L|440:180,1,90
432,152,251477,1,0,0:0:0:0:
420,112,251560,6,0,P|384:76|252:48,1,180,8|0,0:0|0:0,0:0:0:0:
284,252,252060,2,0,P|232:216|172:108,1,180,8|0,0:0|0:0,0:0:0:0:
174,116,252560,1,0,0:0:0:0:
304,64,252727,1,0,0:0:0:0:
168,256,252894,6,0,P|236:184|328:168,1,180,8|0,0:0|0:0,0:0:0:0:
84,220,253394,2,0,P|128:144|124:44,1,180,8|0,0:0|0:0,0:0:0:0:
236,80,253894,5,0,0:0:0:0:
272,88,253977,1,0,0:0:0:0:
296,112,254060,1,0,0:0:0:0:
312,140,254144,1,0,0:0:0:0:
316,176,254227,6,0,P|296:228|256:248,1,90,8|0,0:0|0:0,0:0:0:0:
392,292,254560,2,0,P|412:240|456:200,1,90
416,140,254894,1,8,0:0:0:0:
392,56,255060,1,0,0:0:0:0:
300,32,255227,1,0,0:0:0:0:
180,56,255394,6,0,P|120:64|40:156,1,180,8|0,0:0|0:0,0:0:0:0:
140,256,255894,2,0,P|184:228|208:172,1,90
152,48,256227,2,0,P|136:100|168:144,1,90,8|0,0:0|0:0,0:0:0:0:
268,200,256560,2,0,P|216:184|176:196,1,90
236,72,256894,6,8,B|292:48|324:116|388:56|440:72,1,180,8|0,0:0|0:0,0:0:0:0:
252,192,257394,1,0,0:0:0:0:
192,292,257560,2,0,L|116:228,1,90,8|0,0:0|0:0,0:0:0:0:
104,136,257894,1,0,0:0:0:0:
88,304,258060,2,0,B|100:240|200:212|232:144,1,180,8|0,0:0|0:0,0:0:0:0:
336,212,258560,5,0,0:0:0:0:
336,200,258644,1,0,0:0:0:0:
336,188,258727,1,0,0:0:0:0:
448,280,258894,5,8,0:0:0:0:
448,272,258977,1,0,0:0:0:0:
448,264,259060,1,0,0:0:0:0:
216,192,259227,5,0,0:0:0:0:
216,180,259310,1,0,0:0:0:0:
216,168,259394,1,0,0:0:0:0:
216,156,259477,1,0,0:0:0:0:
216,144,259560,6,0,L|112:160,1,90,8|0,0:0|0:0,0:0:0:0:
156,300,259894,2,0,L|268:280,1,90
216,156,260227,2,0,L|96:164,1,90,8|0,0:0|0:0,0:0:0:0:
104,80,260560,1,0,0:0:0:0:
232,88,260727,2,0,P|284:124|352:232,1,180,8|0,0:0|0:0,0:0:0:0:
348,220,261144,1,0,0:0:0:0:
348,220,261227,1,0,0:0:0:0:
380,92,261394,5,0,0:0:0:0:
444,208,261560,1,8,0:0:0:0:
432,272,261894,1,0,0:0:0:0:
240,268,262060,5,0,0:0:0:0:
220,244,262144,1,0,0:0:0:0:
200,216,262227,2,0,P|164:180|152:132,1,90,8|0,0:0|0:0,0:0:0:0:
308,40,262560,2,0,P|344:80|364:124,1,90
360,112,262894,1,8,0:0:0:0:
216,116,263060,1,0,0:0:0:0:
392,208,263227,1,0,0:0:0:0:
288,200,263394,6,0,B|188:224|128:200|84:252,1,180,8|0,0:0|0:0,0:0:0:0:
256,192,263894,12,0,264560,0:0:0:0:
152,144,264727,5,0,0:0:0:0:
152,144,264810,1,0,0:0:0:0:
152,144,264894,1,8,0:0:0:0:
280,116,265060,2,0,P|336:136|380:160,1,90
296,288,265394,2,0,P|248:264|224:224,1,90,0|8,0:0|0:0,0:0:0:0:
396,68,265727,2,0,P|448:108|464:140,1,90
228,320,266060,2,0,P|188:280|176:232,1,90,0|8,0:0|0:0,0:0:0:0:
252,188,266560,5,4,0:0:0:0:
252,188,266727,1,4,0:0:0:0:
164,76,267060,5,8,0:0:0:0:
140,100,267144,1,0,0:0:0:0:
128,128,267227,1,0,0:0:0:0:
112,160,267310,2,0,L|100:208,1,45,8|0,0:0|0:0,0:0:0:0:
224,256,267477,2,0,L|232:200,1,45,0|4,0:0|0:0,0:0:0:0:
256,192,267727,12,4,268894,0:0:0:0:
