osu file format v9

[General]
AudioFilename: 1.mp3
AudioLeadIn: 3000
PreviewTime: 71809
Countdown: 0
SampleSet: Normal
StackLeniency: 0.8
Mode: 0
LetterboxInBreaks: 0

[Editor]
DistanceSpacing: 1.1
BeatDivisor: 2
GridSize: 8

[Metadata]
Title:Ashita, Boku wa Kimi ni Ai ni Yuku (TV Size)
Artist:Wakaba
Creator:S h i o n
Version:Normal
Source:Sekai Ichi Hatsukoi
Tags:boys love yaoi ending sherrie__fay tutuhaha

[Difficulty]
HPDrainRate:4
CircleSize:4
OverallDifficulty:4
ApproachRate:5
SliderMultiplier:1.2
SliderTickRate:2

[Events]
//Background and Video events
Video,0,"Sekai Ichi Hatsukoi Ending.flv"
0,0,"bg.jpg"
//Break Periods
2,13983,17057
//Storyboard Layer 0 (Background)
//Storyboard Layer 1 (Fail)
//Storyboard Layer 2 (Pass)
//Storyboard Layer 3 (Foreground)
//Storyboard Sound Samples
//Background Colour Transformations
3,100,163,162,255

[TimingPoints]
314,560.747663551402,4,1,0,50,1,0
1715,-100,4,2,0,45,0,0
2836,-100,4,1,0,40,0,0
4799,-100,4,1,0,50,0,1
13771,-100,4,1,0,50,0,0
35080,-100,4,2,0,35,0,0
35921,-100,4,1,0,50,0,0
72089,-100,4,1,0,50,0,1
90033,-100,4,1,0,50,0,0
92276,-100,4,2,0,30,0,0
92837,-100,4,2,0,25,0,0
93397,-100,4,2,0,20,0,0
93958,-100,4,2,0,10,0,0
94519,-100,4,2,0,5,0,0

[Colours]
Combo1 : 255,255,255
Combo2 : 255,185,255
Combo3 : 255,113,113
SliderBorder : 230,130,170

[HitObjects]
256,192,314,12,0,1996
272,256,2556,1,0
384,184,3117,1,0
320,72,3678,2,0,B|384:72,2,60,0|0|8
192,56,4799,6,0,B|128:120|64:120,1,120,2|8
56,168,5641,1,0
88,224,5921,2,0,B|136:256|216:272,1,120,0|8
328,288,7042,1,2
240,192,7603,1,10
304,80,8164,5,2
368,96,8444,1,0
424,128,8725,2,0,B|456:144|480:176,1,60,8|0
472,232,9285,2,0,B|408:232|360:295,1,120,2|8
240,320,10407,1,0
144,224,10968,1,10
192,104,11528,6,0,B|249:101|249:101|304:136,1,120,6|10
400,224,12650,1,6
288,288,13211,2,0,B|232:288|232:288|177:258,1,120,10|0
304,192,18257,5,0
368,168,18538,2,0,B|400:168|424:216,1,60,0|8
440,264,19099,1,0
384,296,19379,2,0,B|336:328|256:352,1,120,0|8
160,288,20500,6,0,B|112:280|80:240|120:184,1,120,0|8
240,216,21622,2,0,B|280:168|232:120|176:136,1,120,0|8
328,128,22743,5,0
232,40,23304,2,0,B|192:32|128:48|136:120,1,120,8|0
176,144,24145,1,0
216,200,24426,2,0,B|196:264|140:294,1,120,8|0
272,320,25547,1,8
336,296,25828,2,0,B|352:224|448:224|456:160,1,180,0|8
360,72,27229,6,0,B|344:144|304:192,1,120,0|8
240,296,28351,1,0
128,224,28912,1,8
160,96,29472,1,0
288,72,30033,1,8
328,128,30314,1,0
360,184,30594,2,0,B|424:216|440:280,1,120,0|8
304,296,31715,6,0,B|224:280,1,60
184,304,32276,2,0,B|128:248,1,60,8|0
128,200,32837,2,0,B|192:168|160:104|240:104,1,120,0|8
256,192,33958,12,0,35360
96,80,36201,6,0,B|96:144|144:192,1,120,0|8
184,240,37042,1,0
240,208,37323,2,0,B|304:240,1,60
328,176,37884,2,0,B|392:192,1,60,8|0
440,232,38444,2,0,B|440:282|369:293|395:368,1,120,0|8
264,304,39566,2,0,B|218:326|178:267|121:324,1,120,0|8
88,192,40687,6,0,B|136:144|136:64,2,120,0|8|0
144,224,42089,2,0,B|176:256|208:240,1,60,0|8
256,216,42650,1,0
320,200,42930,2,0,B|320:136|384:72,2,120,0|8|0
224,80,44613,5,8
208,144,44893,2,0,B|240:176|272:176,2,60,0|2|0
144,144,45734,2,0,B|112:160|106:214,2,60,8|0|2
96,96,46575,2,0,B|144:48|224:32,1,120
192,96,47416,6,0,B|272:80|336:112,1,120,0|8
432,152,48538,1,0
312,208,49099,1,8
180,208,49659,1,0
256,192,50220,12,0,52463
432,192,53585,1,0
384,240,53865,1,0
352,296,54145,2,0,B|317:354|262:268|216:346,1,120,0|8
176,336,54986,2,0,B|164:250|109:270|144:196,1,120
80,184,55828,1,8
112,128,56108,2,0,B|144:32|224:64|224:48,1,120
197,54,56949,1,8
88,96,57510,6,0,B|144:144,1,60
192,160,58071,1,8
248,120,58351,2,0,B|312:104|360:146,1,120
416,176,59192,1,8
472,208,59472,2,0,B|456:272|378:301,1,120
368,352,60313,1,8
432,352,60593,1,0
464,296,60874,6,0,B|400:256,1,60,6|0
376,208,61435,2,0,B|312:240,1,60,2|0
256,232,61995,5,2
216,176,62276,2,0,B|232:128|280:128,1,60,0|2
312,96,62836,1,0
304,160,63117,2,0,B|256:128|208:160|160:128,1,120,6|8
136,184,63958,5,0
112,128,64238,2,0,B|48:160|88:232,2,120,0|8|0
224,56,65921,1,8
256,112,66201,2,0,B|272:184|208:224,1,120
168,264,67042,1,8
232,288,67322,6,0,B|296:312|344:360,1,120
376,296,68164,2,0,B|440:248|376:168,2,120,8|0|8
264,224,69846,5,2
160,144,70407,1,2
288,96,70968,2,0,B|240:144,1,60,0|2
320,336,72089,6,0,B|240:272|176:304,1,120,2|8
144,288,72930,1,0
96,240,73210,2,0,B|48:272|48:336|64:352,1,120,2|8
184,304,74332,2,0,B|248:352|296:336,1,120,2|10
304,192,75453,6,0,B|240:224,1,60,2|0
192,192,76014,2,0,B|144:272,1,60,8|0
112,288,76575,6,0,B|64:256|64:192|80:160,1,120,2|8
64,48,77696,2,0,B|80:128|160:144,1,120,2|8
240,64,78818,1,2
112,80,79379,1,10
112,80,79939,2,0,B|160:132|222:104|228:175,1,120,2|8
272,96,80780,1,0
336,128,81061,6,0,B|396:56|441:40,1,120,2|8
432,176,82182,2,0,B|368:256|371:298,1,120,2|8
312,304,83023,6,0,B|248:368,1,60,0|2
224,296,83584,2,0,B|288:232,1,60,0|10
312,208,84145,1,0
312,144,84426,2,0,B|248:104,1,60,2|0
192,112,84986,2,0,B|136:152,1,60,8|0
96,184,85547,5,2
160,296,86108,2,0,B|224:352|288:312,1,120,8|2
392,280,87229,1,8
344,160,87790,1,2
224,208,88351,1,10
224,208,88912,2,0,B|280:248|336:232,1,120,2|12
368,104,90033,6,0,B|312:56|248:72,1,120,0|8
136,120,91154,1,0
248,192,91715,1,0
256,192,92276,12,0,94519
