osu file format v9

[General]
AudioFilename: 1.mp3
AudioLeadIn: 3000
PreviewTime: 71809
Countdown: 0
SampleSet: Normal
StackLeniency: 0.8
Mode: 0
LetterboxInBreaks: 0

[Editor]
DistanceSpacing: 1.2
BeatDivisor: 2
GridSize: 8

[Metadata]
Title:Ashita, Boku wa Kimi ni Ai ni Yuku (TV Size)
Artist:Wakaba
Creator:S h i o n
Version:Hard
Source:Sekai Ichi Hatsukoi
Tags:boys love yaoi ending sherrie__fay tutuhaha

[Difficulty]
HPDrainRate:6
CircleSize:4
OverallDifficulty:5
ApproachRate:7
SliderMultiplier:1.6
SliderTickRate:2

[Events]
//Background and Video events
Video,0,"Sekai Ichi Hatsukoi Ending.flv"
0,0,"bg.jpg"
//Break Periods
2,13983,17357
//Storyboard Layer 0 (Background)
//Storyboard Layer 1 (Fail)
//Storyboard Layer 2 (Pass)
//Storyboard Layer 3 (Foreground)
//Storyboard Sound Samples
//Background Colour Transformations
3,100,163,162,255

[TimingPoints]
314,560.747663551402,4,1,0,45,1,0
1715,-100,4,2,0,45,0,0
2837,-100,4,1,0,40,0,0
4799,-100,4,1,0,45,0,1
13771,-100,4,1,0,45,0,0
35080,-100,4,2,0,35,0,0
35921,-100,4,1,0,45,0,0
72089,-100,4,1,0,50,0,1
90033,-100,4,1,0,50,0,0
92276,-100,4,2,0,30,0,0
92837,-100,4,2,0,25,0,0
93398,-100,4,2,0,20,0,0
93958,-100,4,2,0,10,0,0
94519,-100,4,2,0,5,0,0

[Colours]
Combo1 : 255,255,255
Combo2 : 255,185,255
Combo3 : 255,113,113
SliderBorder : 230,130,170

[HitObjects]
256,192,314,12,0,1996
256,192,2556,5,0
256,192,3117,1,0
128,64,3678,6,0,B|208:64,2,80,4|0|12
64,136,4519,1,0
128,208,4799,2,0,B|176:240|224:224,1,80,6|0
248,294,5360,2,0,B|232:246|184:214,1,80,8|0
200,136,5921,1,2
296,136,6201,1,0
368,80,6482,5,8
456,120,6762,2,0,B|472:176|408:208|432:276,1,160,0|0
344,312,7603,1,10
256,272,7884,1,0
176,216,8164,2,0,B|144:168|152:120,1,80,2|0
304,64,8725,2,0,B|328:112|288:168,1,80,8|0
160,120,9285,6,0,B|112:137|80:136,1,80,2|0
112,232,9846,1,8
176,304,10127,2,0,B|201:333|240:360,1,80,0|2
400,280,10968,1,10
408,88,11528,5,2
328,144,11809,1,0
264,72,12089,1,2
80,136,12650,1,2
128,216,12930,1,0
208,272,13211,2,0,B|240:272|240:272|280:240,1,80,2|0
277,242,13771,1,4
336,72,18257,37,0
408,128,18538,1,0
368,216,18818,2,0,B|344:243|292:282|208:249,1,160,8|0
136,208,19659,1,0
56,152,19940,1,8
24,240,20220,1,0
56,152,20500,22,0,B|104:104|168:152|216:88,1,160,0|8
296,88,21342,1,0
312,184,21622,2,0,B|328:240|280:288|312:352,1,160,0|8
400,328,22463,1,0
448,248,22743,22,0,B|400:136,1,120
384,96,23304,1,8
288,96,23585,1,0
272,144,23725,1,0
256,192,23865,2,0,B|224:272,1,80
128,264,24426,2,0,B|88:184,1,80,8|0
88,72,24986,6,0,B|157:81|191:29|265:61,1,160,0|8
312,120,25828,2,0,B|365:158|386:149,1,80
240,280,26669,1,8
320,336,26949,1,0
392,280,27229,1,4
312,104,27790,5,8
240,40,28071,1,0
168,104,28351,2,0,B|128:104|128:104|72:128,1,80
72,152,28771,1,0
72,200,28911,2,0,B|72:240|72:240|96:280,1,80,8|0
168,336,29472,1,0
360,336,30033,5,8
432,272,30314,1,0
432,176,30594,1,0
432,176,30734,1,0
432,176,30874,1,0
360,112,31155,1,8
256,192,31715,12,0,32837
256,192,33398,5,0
256,192,33958,12,0,35360
440,88,36201,6,0,B|336:72|320:112|280:112,1,160,0|8
200,64,37042,1,0
128,128,37323,2,0,B|96:208,1,80,0|0
136,288,37884,2,0,B|232:320,1,80,8|0
304,280,38444,5,0
440,152,39005,1,8
376,88,39285,1,0
376,88,39566,2,0,B|336:96|272:64|272:64|216:80,1,160,0|8
136,120,40407,5,0
176,144,40547,1,0
216,168,40687,2,0,B|240:200|288:200,1,80
352,272,41248,2,8,B|320:288|280:312,1,80,8|0
192,352,41809,1,0
128,280,42089,1,0
128,184,42370,2,0,B|160:136|224:136,1,80,8|0
256,64,42930,2,0,B|303:112|303:112|376:111|406:162,1,160,0|8
392,240,43771,1,0
328,312,44052,5,0
232,312,44332,2,0,B|168:304,2,40,0|0|8
224,120,45173,1,4
136,88,45454,1,0
88,168,45734,1,8
208,248,46295,5,0
288,296,46575,1,0
312,256,46715,1,0
336,216,46856,2,0,B|376:168|416:184,1,80,8|0
464,256,47416,2,0,B|512:192|488:136|448:104,1,160,0|8
272,56,48538,5,0
256,152,48818,1,0
240,248,49099,2,0,B|232:296|200:336,1,80,8|0
128,272,49659,2,0,B|168:232|176:160,1,120
184,120,50220,1,8
256,56,50500,1,0
256,192,50781,12,0,52183
152,160,53024,5,8
208,80,53304,1,0
304,80,53585,1,8
336,88,53725,1,0
368,104,53865,1,0
392,128,54005,1,0
416,152,54145,6,0,B|464:192|472:264|400:296,1,160,4|8
328,328,54986,1,0
200,216,55267,1,0
288,248,55547,1,0
440,208,55828,1,8
448,112,56108,2,0,B|368:48|304:144|288:80,1,160,0|0
176,48,56949,5,8
88,80,57229,1,0
120,168,57510,2,0,B|160:176|206:212,1,80
288,200,58071,2,0,B|248:208|200:241,1,80,8|0
264,312,58631,5,0
360,312,58912,2,0,B|456:312,3,80,0|8|0|0
408,224,60033,1,0
472,152,60314,1,8
392,104,60594,1,0
344,88,60734,1,0
296,72,60874,6,0,B|256:48|200:56,1,80,6|0
224,184,61435,2,0,B|192:200|158:247,1,80,6|0
104,312,61996,1,2
40,240,62276,1,0
96,160,62556,1,2
168,96,62837,2,0,B|232:88|264:96,1,80,0|2
304,208,63678,5,8
384,248,63958,1,0
456,200,64239,1,0
416,120,64519,2,0,B|336:120|336:88,1,80,0|8
256,104,65080,1,0
224,192,65360,2,0,B|280:160|328:224,1,120,0|0
328,272,65921,1,8
232,288,66201,2,0,B|144:331|84:276|79:240,1,160
88,264,67042,1,8
112,168,67323,5,0
112,168,67603,1,0
200,208,67884,2,0,B|248:224|280:272,1,80,0|8
440,304,68444,2,0,B|416:264|408:192,1,80
392,136,69005,1,0
336,56,69285,1,8
240,56,69566,2,0,B|160:80,1,80,0|2
160,176,70127,5,0
256,176,70407,2,0,B|344:256,1,120,10|0
392,256,70968,2,0,B|432:256|432:256|464:224,1,80,0|2
344,80,71809,6,0,B|312:48,2,40,0|0|2
424,136,72370,2,0,B|440:184|440:216,1,80,0|8
352,256,72930,2,0,B|320:304|320:352,1,80,0|2
200,240,73491,1,0
104,264,73771,1,8
48,184,74052,2,0,B|64:128|64:128|128:104|148:54,1,160,0|0
240,48,74893,5,10
288,128,75173,1,0
328,216,75454,2,0,B|344:256|336:312,1,80,2|0
240,280,76014,2,0,B|200:256|144:272,1,80,8|0
360,112,76575,6,0,B|408:96|424:48,1,80,2|0
328,40,77136,2,0,B|248:48,1,80,8|0
184,120,77697,1,2
64,280,78257,6,0,B|120:224|184:248|216:288,1,160,8|2
296,312,79099,1,0
392,336,79379,1,10
456,264,79659,1,0
456,168,79940,2,0,B|424:128|424:128|360:160|296:136,1,160,2|8
256,72,80781,6,0,B|208:88|176:120,1,80,0|2
56,184,81342,2,0,B|72:232|136:232,1,80,0|8
208,240,81902,1,0
160,152,82183,1,2
208,72,82463,22,0,B|280:64|304:72,1,80,0|8
384,64,83024,2,0,B|416:40,2,40,0|0|2
272,160,83585,2,0,B|200:216,1,80,0|10
144,280,84145,2,0,B|176:312,2,40,0|0|2
40,120,84706,1,0
88,200,84986,1,8
176,160,85267,1,0
256,216,85547,6,0,B|307:219|307:219|360:280|409:290,1,160,2|8
480,248,86388,1,0
464,152,86669,2,0,B|446:98|429:70,1,80,2|0
344,112,87229,5,8
344,112,87510,1,0
160,112,87790,1,6
160,112,88071,1,0
64,216,88351,1,14
136,280,88631,1,0
136,280,88771,1,0
136,280,88912,2,0,B|200:328|296:280|312:328,1,160,4|8
384,288,89753,1,0
376,128,90033,6,0,B|296:56,1,80
200,80,90594,2,0,B|120:144,1,80,8|0
168,224,91155,1,0
240,288,91435,1,0
264,192,91715,1,8
256,192,92276,12,0,94519
