osu file format v9

[General]
AudioFilename: sekai.mp3
AudioLeadIn: 2000
PreviewTime: 85305
Countdown: 0
SampleSet: Normal
StackLeniency: 0.5
Mode: 0
LetterboxInBreaks: 0

[Editor]
DistanceSpacing: 1.1
BeatDivisor: 4
GridSize: 4

[Metadata]
Title:Ashita, Boku wa Kimi ni Ai ni Yuku (Full Ver.)
Artist:Wakaba
Creator:Megurine Luka
Version:SuKi SuKI
Source:Sekai ichi Hatsukoi
Tags:sherrie__fay

[Difficulty]
HPDrainRate:6
CircleSize:4
OverallDifficulty:5
ApproachRate:7
SliderMultiplier:1.9
SliderTickRate:1

[Events]
//Background and Video events
0,0,"BG3.jpg"
//Break Periods
2,103729,111601
2,166533,185620
//Storyboard Layer 0 (Background)
Sprite,Background,Centre,"BG3.jpg",320,240 S,0,-2000,,0.625 F,0,-2000,352,1,0 F,0,353,240352,0 F,0,240353,249884,1
//Storyboard Layer 1 (Fail)
//Storyboard Layer 2 (Pass)
//Storyboard Layer 3 (Foreground)
//Storyboard Sound Samples
//Background Colour Transformations
3,100,163,162,255

[TimingPoints]
352,560.747663551402,4,2,2,48,1,0
4837,-100,4,1,1,67,0,0
23342,-100,4,2,2,60,0,0
30632,-100,4,1,1,52,0,0
31753,-100,4,2,2,67,0,0
65679,-100,4,1,1,67,0,0
66239,-100,4,1,1,52,0,0
66800,-100,4,1,1,40,0,0
67641,-100,4,2,2,67,0,0
75211,-100,4,2,2,70,0,0
83342,-100,4,1,1,74,0,0
85585,-100,4,1,1,77,0,1
101006,-100,4,1,1,77,0,0
112501,-100,4,2,2,60,0,0
125959,-66.6666666666667,4,2,2,60,0,0
130445,-100,4,2,2,63,0,0
146146,-100,4,1,1,63,0,0
148389,-100,4,1,1,77,0,1
164090,-100,4,1,1,87,0,0
166333,-100,4,1,1,47,0,0
186520,560.747663551402,4,2,2,53,1,0
187068,560.747663551402,4,2,2,53,1,0
187068,-133.333333333333,4,2,2,53,0,0
191832,560.747663551402,4,2,2,53,1,0
192120,560.747663551402,4,2,2,53,1,0
192649,560.747663551402,4,2,2,53,1,0
193209,-133.333333333333,4,1,1,39,0,0
194300,-133.333333333333,4,2,2,46,0,0
197454,560.747663551402,4,2,2,46,1,0
197454,-133.333333333333,4,2,2,46,0,0
202214,560.747663551402,4,1,1,55,1,0
202221,-133.333333333333,4,1,1,55,0,0
203342,-100,4,1,1,46,0,0
204459,-100,4,1,1,77,0,1
222407,-100,4,1,1,77,0,0

[Colours]
Combo1 : 255,255,255
Combo2 : 255,185,255
Combo3 : 255,113,113
SliderBorder : 230,130,170

[HitObjects]
96,104,352,2,0,B|192:104,1,95
296,104,912,2,0,B|296:208,1,95
296,304,1473,1,0
432,120,2034,1,0
248,224,2594,2,0,B|192:264,4,47.5
184,152,3436,1,0
88,200,3716,5,0
156,276,3996,1,0
260,240,4277,1,8
96,136,4837,6,0,B|144:104|192:144,1,95,4|0
96,248,5398,2,0,B|144:280|184:248,1,95,8|0
272,104,5959,2,0,B|368:72,1,95
272,272,6520,2,0,B|376:304,1,95,8|0
384,88,7080,1,0
440,184,7361,1,0
352,256,7641,1,8
280,168,7922,2,0,B|216:168|208:256,1,95
312,40,8763,5,8
400,96,9043,1,0
400,96,9323,2,0,B|392:152|456:200,1,95,4|0
352,248,9884,2,0,B|348:320|280:320,2,95,8|0|0
352,248,10725,1,0
384,152,11006,2,0,B|352:88|264:104,1,95,8|0
224,160,11566,5,0
224,160,11847,1,0
312,216,12127,1,8
312,216,12408,1,0
340,116,12688,2,0,B|404:116,2,47.5
392,216,13249,2,0,B|360:264,2,47.5,8|0|0
224,176,13809,6,0,B|168:216|168:216|192:240,1,95
320,208,14370,2,0,B|376:168|376:168|352:144,1,95,8|0
264,100,14931,2,0,B|360:44|360:44,1,95
346,52,15492,1,8
428,116,15772,2,0,B|492:204|428:308,2,190
428,116,17174,1,0
328,144,17454,1,0
228,172,17735,1,8
424,100,18295,6,0,B|344:76|320:68,1,95
333,72,18856,1,8
160,188,19417,2,0,B|248:132,1,95
160,188,19978,1,8
368,224,20538,5,0
260,204,20819,1,0
292,303,21099,1,0
400,322,21380,1,0
475,243,21660,1,0
444,148,21940,1,0
334,121,22221,1,8
184,216,22781,5,4
328,68,23342,2,0,B|256:156|160:84,1,190,8|0
60,52,24183,1,0
60,52,24464,1,8
80,260,25024,6,0,B|8:340,1,95
120,332,25585,2,0,B|224:332,1,95,8|0
320,332,26146,1,0
320,332,26426,1,0
320,332,26707,1,8
176,180,27267,6,0,B|216:84|320:68,2,190,0|8|0
92,244,28669,1,0
188,288,28950,1,8
396,284,29510,6,0,B|360:216|396:136,1,142.5,0|8
396,284,30352,1,0
484,228,30632,1,0
500,124,30912,1,0
424,52,31193,1,8
384,52,31333,1,0
344,52,31473,1,0
260,116,31753,6,0,B|324:196,1,95
240,260,32314,2,0,B|160:332,1,95,8|0
88,260,32875,2,0,B|4:200,1,95
84,128,33436,2,0,B|116:16,1,95,8|0
212,60,33996,2,0,B|308:4|404:68,2,190,0|8|0
264,152,35398,1,0
216,244,35679,1,8
96,76,36239,6,0,B|56:60,2,42.5
204,112,36800,2,0,B|180:224,1,95,8|0
164,308,37361,1,0
268,296,37641,1,0
344,224,37922,1,8
160,128,38482,6,0,B|104:224|168:312,1,190,0|8
260,268,39323,2,0,B|348:204,1,95
428,160,39884,1,0
428,160,40165,1,8
236,84,40725,6,0,B|332:36,1,95
256,192,41286,1,8
256,192,41566,1,0
280,296,41847,2,0,B|192:344,1,95
256,192,42408,1,8
256,192,42688,1,0
348,140,42968,6,0,B|412:164|412:228|412:228,1,95
396,312,43529,1,8
72,192,44090,1,0
300,48,44651,1,8
340,252,45212,5,0
244,296,45493,1,0
140,284,45772,1,8
60,216,46053,1,0
36,116,46334,1,0
232,48,46894,1,8
416,148,47455,6,0,B|312:196|328:308,2,190,0|8|0
504,96,48857,1,0
504,96,49137,1,8
416,288,49697,5,0
416,288,49978,1,0
416,288,50258,1,8
396,184,50538,2,0,B|396:128|340:88,2,95
396,184,51379,1,8
196,124,51940,2,0,B|112:140|112:140|144:36,2,190,0|8|0
300,108,53342,1,0
300,108,53623,1,8
164,268,54183,5,0
252,212,54463,1,0
340,268,54744,1,8
140,328,55305,2,0,B|180:224|68:168,2,190,0|8|0
244,320,56706,1,0
268,216,56987,1,8
248,80,57548,5,0
76,124,57828,1,0
192,248,58109,1,8
80,288,58669,5,0
320,216,59230,1,8
132,64,59791,1,0
184,224,60351,2,0,B|224:320,1,95,8|0
324,292,60912,1,0
408,232,61192,1,0
312,188,61473,1,8
108,140,62034,5,0
264,228,62314,1,0
116,316,62595,1,8
328,304,63155,6,0,B|292:200,1,95
424,304,63716,2,0,B|460:200,1,95,8|0
404,124,64277,2,0,B|296:120|260:236,2,190,0|8|0
312,72,65679,5,8
207,71,65959,1,8
157,162,66239,1,8
212,255,66520,1,8
316,256,66800,1,8
366,164,67080,1,8
224,84,67641,6,0,B|128:144,1,95
56,192,68202,1,8
136,260,68482,1,0
188,260,68623,1,0
240,260,68763,1,0
328,204,69043,5,0
396,284,69323,1,8
476,216,69604,1,0
408,136,69884,1,0
204,84,70445,1,8
80,252,71006,5,0
168,308,71286,1,0
272,320,71566,1,8
376,308,71847,2,0,B|480:276|500:172,1,190
499,176,72688,1,8
412,120,72968,1,0
216,196,73529,5,0
128,140,73809,1,8
40,196,74090,1,0
124,260,74370,2,0,B|216:328,1,95
124,260,74931,1,8
52,184,75211,5,0
156,184,75491,1,0
212,96,75772,1,0
316,88,76052,2,0,B|396:152,2,95,8|0|0
288,188,76893,5,0
288,188,77174,1,8
256,288,77454,1,0
188,208,77735,2,0,B|220:112,1,95
304,56,78295,1,8
396,104,78576,1,0
376,208,78856,1,0
172,260,79417,5,8
108,180,79697,1,0
164,92,79977,1,0
372,56,80538,1,8
396,264,81099,6,0,B|316:328,1,95
228,276,81660,2,0,B|148:212,1,95,8|0
220,136,82221,1,0
328,88,82501,5,0
392,172,82781,1,8
460,92,83062,1,0
460,92,83342,5,0
216,176,83903,1,8
376,308,84464,2,8,B|480:308,1,95
144,152,85585,6,0,B|232:96,1,95
328,152,86146,2,0,B|288:248,1,95,8|0
376,320,86707,2,0,B|488:296,1,95
432,208,87267,1,8
456,104,87547,1,0
360,48,87828,1,0
280,116,88109,1,0
192,172,88389,2,0,B|96:204,2,95,8|0|0
348,312,89510,1,8
380,72,90071,6,0,B|436:168,1,95
428,152,90632,1,8
332,196,90912,1,0
280,100,91192,1,0
248,84,91332,1,0
216,68,91473,1,0
144,144,91753,6,0,B|64:200,1,95,8|0
140,272,92314,2,0,B|36:304,1,95
140,272,92875,2,0,B|228:344,1,95,8|0
308,292,93435,1,0
296,188,93716,1,0
188,176,93996,1,8
52,336,94557,5,0
52,336,94837,1,0
124,260,95118,1,8
124,260,95398,1,0
160,164,95678,1,0
160,164,95959,1,0
264,156,96239,1,8
368,156,96520,6,0,B|328:252,1,95
304,348,97080,1,0
200,324,97360,1,8
164,228,97641,1,0
256,176,97921,1,0
84,60,98482,6,0,B|156:140,1,95,8|0
148,132,99043,1,0
212,216,99323,1,0
280,296,99603,1,8
100,188,100165,1,0
32,108,100446,1,0
120,52,100725,1,8
256,192,101006,12,4,103529
104,40,112501,5,0
84,144,112781,2,0,B|60:248,1,95,0|8
148,296,113342,1,0
172,320,113482,1,0
204,312,113622,2,0,B|220:232|300:288|316:160,1,190,0|8
314,169,114464,1,0
220,120,114744,6,0,B|268:88,2,47.5
308,64,115304,1,8
396,136,115585,2,0,B|348:236|436:276|484:176,1,190
480,84,116426,1,8
420,284,116987,5,0
316,292,117267,1,0
316,292,117407,1,0
316,292,117548,1,8
216,268,117828,1,0
132,208,118109,2,0,B|116:104,1,95,0|0
204,56,118669,2,0,B|292:88,1,95,8|0
388,136,119230,2,0,B|240:164|244:288|416:308,1,285
381,302,120352,1,0
272,196,120772,6,0,B|232:244,2,47.5,0|8|0
120,232,121473,1,4
180,316,121753,1,0
120,232,122033,1,8
260,76,122594,5,0
320,192,122874,1,0
216,296,123155,2,0,B|312:304,1,95,8|0
440,240,123716,1,0
296,112,124277,5,8
296,112,124557,1,0
360,200,124838,1,0
360,200,125117,1,0
288,272,125398,1,8
256,120,125959,5,0
256,120,126239,2,0,B|312:24|456:80|424:192|392:224|328:264|258:317,1,427.499987259508
256,120,127361,2,0,B|192:40|64:56|88:192|120:224|184:264|262:320,1,427.499987259508
324,252,128482,1,0
304,88,128763,1,8
392,200,129043,1,0
232,140,129323,1,0
380,116,129604,1,0
248,224,129884,1,8
80,80,130445,6,0,B|112:144,1,47.5
152,128,130725,2,0,B|96:192,1,47.5
96,224,131005,2,0,B|144:272,1,47.5,8|0
176,288,131286,2,0,B|144:336,1,47.5
151,326,131566,1,0
248,288,131847,6,0,B|224:240|264:192,2,95,0|8|0
352,284,132688,1,0
444,236,132969,1,0
356,180,133249,1,8
88,48,133810,6,0,B|48:104|94:156|64:248,1,190,0|8
68,233,134651,1,0
132,316,134931,2,0,B|196:228|284:316|396:236,1,285
395,236,135913,1,0
395,236,136052,5,0
480,176,136333,1,0
476,72,136613,1,8
384,20,136894,1,0
304,84,137174,1,0
312,188,137455,1,0
392,128,137735,1,8
80,92,138296,6,0,B|80:28,2,47.5
80,196,138857,1,8
80,300,139137,1,0
80,196,139417,1,0
256,192,139978,1,8
432,92,140258,6,0,B|432:28,2,47.5
432,196,140819,1,0
432,300,141099,1,8
432,196,141380,1,0
336,304,141660,2,0,B|248:192|176:416|88:272,1,285
68,176,142781,1,0
272,132,143343,1,8
404,296,143903,6,0,B|348:264|348:272,2,47.5
460,328,144464,1,8
308,240,144744,1,0
164,88,145305,1,0
60,100,145585,1,8
100,196,145866,1,0
152,288,146146,5,8
384,64,146707,1,8
180,108,147268,2,8,B|116:28,1,95
128,272,148389,5,4
176,124,148670,1,0
76,176,148950,1,8
220,236,149230,1,0
152,200,149511,1,0
264,176,149791,1,0
376,144,150072,1,8
480,192,150352,6,0,B|408:232|512:296|384:344,1,190
288,344,151193,1,8
184,344,151473,1,0
80,344,151754,1,0
24,144,152314,1,8
208,248,152875,6,0,B|152:168|152:168|220:88,1,190,4|8
316,96,153716,1,0
260,184,153996,1,0
424,80,154557,5,8
360,176,154838,1,0
464,184,155118,1,0
352,184,155399,1,0
408,280,155679,1,8
352,192,155959,1,0
288,296,156239,1,0
160,136,156800,1,8
424,64,157361,6,0,B|312:40,2,95,0|0|8
432,160,158202,1,0
328,176,158483,1,0
264,96,158763,1,0
176,32,159043,1,8
140,132,159324,2,0,B|36:180|52:308,2,190
280,80,160726,1,0
216,160,161006,1,0
296,224,161286,1,8
452,84,161847,6,8,B|456:136|412:164,2,95,0|0|8
248,120,162968,2,8,B|204:88|144:120,2,95,0|0|8
200,324,164090,1,0
376,324,164371,1,0
288,324,164651,1,8
464,324,164931,5,0
288,324,165211,1,4
256,192,165352,12,4,166333
112,72,186520,5,0
224,72,187068,2,0,B|296:72,1,71.2499978765846,8|0
376,72,187628,1,0
376,232,188189,1,8
96,104,188750,1,0
96,104,189030,1,0
96,104,189310,2,0,B|64:112|64:112|64:112|40:160,2,71.2499978765846,8|0|0
48,146,190432,1,8
344,304,190993,6,0,B|400:272|400:224|400:224|456:224,1,142.499995753169,0|8
440,224,191832,1,0
440,224,192120,1,0
400,104,192649,1,8
264,80,193209,1,8
216,144,193489,1,8
280,192,193770,1,8
256,264,194051,1,8
328,296,194331,5,4
160,272,194891,1,8
104,120,195452,2,0,B|112:80|112:80|144:72,2,71.2499978765846,0|0|8
104,120,196293,1,0
176,200,196574,1,0
272,264,196854,1,0
368,320,197134,1,8
408,208,197454,2,0,B|368:152|368:152|400:72,2,142.499995753169
408,208,198856,1,0
376,56,199417,5,8
304,56,199697,1,0
176,64,199978,1,0
144,88,200118,1,0
152,120,200258,1,0
240,184,200538,1,8
240,184,201099,5,0
336,224,201380,1,0
360,248,201520,1,0
352,280,201660,1,8
264,296,202214,5,8
152,200,202494,1,8
208,248,202774,1,8
96,144,203055,1,8
172,60,203335,2,0,B|248:84|320:24,1,142.499995753169
392,248,204457,5,0
328,248,204737,1,0
296,248,204877,1,0
264,248,205017,2,0,B|216:192|152:288|104:168,1,190,8|0
106,175,205858,1,0
159,85,206139,2,0,B|199:45|247:45,1,95,8|0
347,48,206700,1,0
347,48,206980,1,0
408,240,207260,5,8
408,240,207541,1,0
360,144,207821,2,0,B|312:144,2,47.5
408,240,208382,2,0,B|464:240,2,47.5,8|0|0
252,228,208943,6,0,B|260:324,1,95
144,120,209503,2,0,B|240:80,1,95,8|0
336,48,210064,1,0
400,216,210625,2,0,B|408:152|352:144|352:144,1,95
255,107,211186,1,8
192,192,211466,1,8
232,288,211746,1,8
335,306,212027,1,8
424,256,212307,5,0
456,224,212447,1,0
448,176,212588,1,0
328,160,212868,1,0
312,112,213008,1,0
336,72,213148,1,0
224,48,213429,5,8
152,120,213709,1,8
152,224,213989,1,8
224,296,214270,1,8
328,296,214550,2,0,B|432:296,1,95
424,296,215111,1,8
408,192,215391,6,0,B|320:192|408:48|280:64,2,190
408,192,216793,1,0
408,192,217073,1,0
408,192,217354,1,8
104,216,217915,6,8,B|166:203|160:128,2,95,0|0|8
352,72,219036,2,0,B|304:96|256:48,2,95,0|0|8
256,192,220158,12,4,222400
