osu file format v13

[General]
AudioFilename: 05 - Senbonzakura.mp3
AudioLeadIn: 0
PreviewTime: 74512
Countdown: 0
SampleSet: Normal
StackLeniency: 0.7
Mode: 1
LetterboxInBreaks: 0
WidescreenStoryboard: 1

[Editor]
DistanceSpacing: 1
BeatDivisor: 4
GridSize: 32
TimelineZoom: 1

[Metadata]
Title:Senbonzakura
TitleUnicode:千本桜
Artist:Wagakki Band
ArtistUnicode:和楽器バンド
Creator:Love
Version:Kantan
Source:
Tags:vocaloid vocalo zanmai ボカロ三昧 鈴華ゆう子 Yuko Suzuhana hatsune miku 初音ミク cover KurousaP 黒うさP
BeatmapID:486308
BeatmapSetID:204544

[Difficulty]
HPDrainRate:5
CircleSize:5
OverallDifficulty:4
ApproachRate:5
SliderMultiplier:1.4
SliderTickRate:1

[Events]
//Background and Video events
0,0,"asdf.jpg",0,75
//Break Periods
//Storyboard Layer 0 (Background)
//Storyboard Layer 1 (Fail)
//Storyboard Layer 2 (Pass)
//Storyboard Layer 3 (Foreground)
//Storyboard Sound Samples
//Background Colour Transformations
3,100,163,162,255

[TimingPoints]
493.28431372549,392.156862745098,4,1,0,100,1,0
18532,392.156862745098,4,1,0,100,1,0
75002,-100,4,1,0,100,0,1
100100,-100,4,1,0,100,0,0
137747,-100,4,1,0,100,0,1
162845,-100,4,1,0,100,0,0
206375,-117.647058823529,4,1,0,100,0,0
206767,-133.333333333333,4,1,0,100,0,0
222061,-100,4,1,0,100,0,0
222453,-100,4,1,0,100,0,1
258531,-100,4,1,0,100,0,0
260982,-100,4,1,0,5,0,0

[HitObjects]
256,192,493,5,0,0:0:0:0:
256,192,1081,1,0,0:0:0:0:
256,192,1669,1,8,0:0:0:0:
256,192,2061,1,8,0:0:0:0:
256,192,2846,1,0,0:0:0:0:
256,192,3630,1,0,0:0:0:0:
256,192,4218,1,0,0:0:0:0:
256,192,4807,1,8,0:0:0:0:
256,192,5199,1,12,0:0:0:0:
256,192,5983,1,0,0:0:0:0:
256,192,6767,1,4,0:0:0:0:
256,192,7944,1,0,0:0:0:0:
256,192,8336,1,0,0:0:0:0:
256,192,9512,1,0,0:0:0:0:
256,192,9905,1,0,0:0:0:0:
256,192,11081,1,0,0:0:0:0:
256,192,11473,1,0,0:0:0:0:
256,192,12257,1,0,0:0:0:0:
256,192,13042,1,0,0:0:0:0:
256,192,14218,1,0,0:0:0:0:
256,192,14610,1,0,0:0:0:0:
256,192,15787,1,0,0:0:0:0:
256,192,16179,1,0,0:0:0:0:
256,192,16963,1,0,0:0:0:0:
256,192,17748,1,0,0:0:0:0:
256,192,18532,1,12,0:0:0:0:
256,192,19316,1,12,0:0:0:0:
256,192,20100,1,12,0:0:0:0:
256,192,20884,1,4,0:0:0:0:
256,192,21277,1,4,0:0:0:0:
256,192,21669,1,12,0:0:0:0:
256,192,22453,1,12,0:0:0:0:
256,192,23237,1,4,0:0:0:0:
256,192,23630,1,4,0:0:0:0:
256,192,24022,1,4,0:0:0:0:
256,192,24806,1,4,0:0:0:0:
256,192,25590,1,0,0:0:0:0:
256,192,26375,1,0,0:0:0:0:
256,192,27159,1,8,0:0:0:0:
256,192,27551,1,0,0:0:0:0:
256,192,27943,1,0,0:0:0:0:
256,192,28728,1,0,0:0:0:0:
256,192,29512,1,0,0:0:0:0:
256,192,30296,1,0,0:0:0:0:
256,192,30688,1,8,0:0:0:0:
256,192,31081,1,0,0:0:0:0:
256,192,31865,1,0,0:0:0:0:
256,192,32649,1,0,0:0:0:0:
256,192,33433,1,8,0:0:0:0:
256,192,33826,1,0,0:0:0:0:
256,192,34218,1,0,0:0:0:0:
256,192,35002,1,0,0:0:0:0:
256,192,35786,1,4,0:0:0:0:
256,192,36571,1,4,0:0:0:0:
256,192,37355,1,4,0:0:0:0:
256,192,38139,1,0,0:0:0:0:
256,192,38924,1,0,0:0:0:0:
256,192,39708,1,8,0:0:0:0:
256,192,40100,1,0,0:0:0:0:
256,192,40492,1,0,0:0:0:0:
256,192,41277,1,0,0:0:0:0:
256,192,42061,1,0,0:0:0:0:
256,192,42845,1,0,0:0:0:0:
256,192,43237,1,8,0:0:0:0:
256,192,43630,1,0,0:0:0:0:
256,192,44414,1,0,0:0:0:0:
256,192,45198,1,0,0:0:0:0:
256,192,45982,1,0,0:0:0:0:
256,192,46375,1,0,0:0:0:0:
256,192,46767,1,0,0:0:0:0:
256,192,47551,1,8,0:0:0:0:
256,192,48335,1,12,0:0:0:0:
256,192,49120,1,12,0:0:0:0:
256,192,49904,1,4,0:0:0:0:
256,192,50688,1,8,0:0:0:0:
256,192,51473,1,0,0:0:0:0:
256,192,52257,1,8,0:0:0:0:
256,192,52649,1,0,0:0:0:0:
256,192,53041,1,0,0:0:0:0:
256,192,53826,1,8,0:0:0:0:
256,192,54610,1,0,0:0:0:0:
256,192,55394,1,8,0:0:0:0:
256,192,55786,1,8,0:0:0:0:
256,192,56179,1,0,0:0:0:0:
256,192,56963,1,8,0:0:0:0:
256,192,57747,1,0,0:0:0:0:
256,192,58532,1,8,0:0:0:0:
256,192,59316,1,0,0:0:0:0:
256,192,60100,1,8,0:0:0:0:
256,192,60884,1,0,0:0:0:0:
256,192,61277,1,8,0:0:0:0:
256,192,61669,1,0,0:0:0:0:
256,192,62453,1,4,0:0:0:0:
256,192,62845,1,8,0:0:0:0:
256,192,63630,1,8,0:0:0:0:
256,192,64022,1,0,0:0:0:0:
256,192,64414,1,8,0:0:0:0:
256,192,65198,1,8,0:0:0:0:
256,192,65590,1,0,0:0:0:0:
256,192,66375,1,0,0:0:0:0:
256,192,67159,1,8,0:0:0:0:
256,192,67943,1,8,0:0:0:0:
256,192,68728,1,0,0:0:0:0:
256,192,69120,1,8,0:0:0:0:
256,192,69904,1,8,0:0:0:0:
256,192,70296,1,0,0:0:0:0:
256,192,70688,1,8,0:0:0:0:
256,192,71473,1,8,0:0:0:0:
256,192,71865,1,12,0:0:0:0:
256,192,72649,1,8,0:0:0:0:
256,192,73433,1,8,0:0:0:0:
256,192,74022,1,12,0:0:0:0:
256,192,75002,1,4,0:0:0:0:
256,192,75786,1,8,0:0:0:0:
256,192,76571,1,0,0:0:0:0:
256,192,76963,1,8,0:0:0:0:
256,192,77355,1,0,0:0:0:0:
256,192,78139,1,8,0:0:0:0:
256,192,78924,1,8,0:0:0:0:
256,192,79708,1,0,0:0:0:0:
256,192,80100,1,0,0:0:0:0:
256,192,80492,1,8,0:0:0:0:
256,192,81277,1,8,0:0:0:0:
256,192,82061,1,8,0:0:0:0:
256,192,82845,1,8,0:0:0:0:
256,192,83237,1,0,0:0:0:0:
256,192,83630,1,8,0:0:0:0:
256,192,84414,1,8,0:0:0:0:
256,192,85198,1,8,0:0:0:0:
256,192,85982,1,8,0:0:0:0:
256,192,86375,1,8,0:0:0:0:
256,192,86767,1,8,0:0:0:0:
256,192,87551,1,4,0:0:0:0:
256,192,88335,1,8,0:0:0:0:
256,192,89120,1,8,0:0:0:0:
256,192,89512,1,0,0:0:0:0:
256,192,89904,1,8,0:0:0:0:
256,192,90688,1,8,0:0:0:0:
256,192,91473,1,8,0:0:0:0:
256,192,92257,1,0,0:0:0:0:
256,192,92649,1,8,0:0:0:0:
256,192,93041,1,8,0:0:0:0:
256,192,93826,1,8,0:0:0:0:
256,192,94610,1,8,0:0:0:0:
256,192,95394,1,8,0:0:0:0:
256,192,95786,1,0,0:0:0:0:
256,192,96179,1,8,0:0:0:0:
256,192,96963,1,0,0:0:0:0:
256,192,97747,1,0,0:0:0:0:
256,192,98532,1,8,0:0:0:0:
256,192,98924,1,8,0:0:0:0:
256,192,99316,1,8,0:0:0:0:
256,192,100100,1,4,0:0:0:0:
256,192,100884,1,0,0:0:0:0:
256,192,101669,1,0,0:0:0:0:
256,192,102453,1,8,0:0:0:0:
256,192,102845,1,0,0:0:0:0:
256,192,103237,1,0,0:0:0:0:
256,192,104022,1,0,0:0:0:0:
256,192,104806,1,0,0:0:0:0:
256,192,105590,1,8,0:0:0:0:
256,192,105982,1,8,0:0:0:0:
256,192,106375,1,0,0:0:0:0:
256,192,107159,1,0,0:0:0:0:
256,192,107943,1,0,0:0:0:0:
256,192,108727,1,8,0:0:0:0:
256,192,109120,1,0,0:0:0:0:
256,192,109512,1,0,0:0:0:0:
256,192,110296,1,8,0:0:0:0:
256,192,111080,1,12,0:0:0:0:
256,192,111865,1,12,0:0:0:0:
256,192,112649,1,12,0:0:0:0:
256,192,114218,1,12,0:0:0:0:
256,192,115002,1,4,0:0:0:0:
256,192,115786,1,12,0:0:0:0:
256,192,117355,1,12,0:0:0:0:
256,192,118139,1,0,0:0:0:0:
256,192,118531,1,8,0:0:0:0:
256,192,118924,1,4,0:0:0:0:
256,192,119708,1,8,0:0:0:0:
256,192,120492,1,0,0:0:0:0:
256,192,121277,1,8,0:0:0:0:
256,192,121669,1,8,0:0:0:0:
256,192,122061,1,0,0:0:0:0:
256,192,122845,1,8,0:0:0:0:
256,192,123237,1,8,0:0:0:0:
256,192,123630,1,8,0:0:0:0:
256,192,124806,1,12,0:0:0:0:
256,192,125198,1,4,0:0:0:0:
256,192,125982,1,8,0:0:0:0:
256,192,126767,1,0,0:0:0:0:
256,192,127159,1,8,0:0:0:0:
256,192,127943,1,8,0:0:0:0:
256,192,128335,1,0,0:0:0:0:
256,192,129120,1,8,0:0:0:0:
256,192,129904,1,0,0:0:0:0:
256,192,130296,1,8,0:0:0:0:
256,192,130688,1,8,0:0:0:0:
256,192,131473,1,0,0:0:0:0:
256,192,131865,1,8,0:0:0:0:
256,192,132649,1,8,0:0:0:0:
256,192,133041,1,0,0:0:0:0:
256,192,133433,1,8,0:0:0:0:
256,192,134218,1,8,0:0:0:0:
256,192,134610,1,12,0:0:0:0:
256,192,135394,1,0,0:0:0:0:
256,192,136179,1,8,0:0:0:0:
256,192,136767,1,12,0:0:0:0:
256,192,137747,1,4,0:0:0:0:
256,192,138531,1,8,0:0:0:0:
256,192,139316,1,0,0:0:0:0:
256,192,139708,1,8,0:0:0:0:
256,192,140100,1,0,0:0:0:0:
256,192,140884,1,8,0:0:0:0:
256,192,141669,1,8,0:0:0:0:
256,192,142453,1,0,0:0:0:0:
256,192,142845,1,0,0:0:0:0:
256,192,143237,1,8,0:0:0:0:
256,192,144022,1,8,0:0:0:0:
256,192,144806,1,8,0:0:0:0:
256,192,145590,1,8,0:0:0:0:
256,192,145982,1,0,0:0:0:0:
256,192,146375,1,8,0:0:0:0:
256,192,147159,1,8,0:0:0:0:
256,192,147943,1,8,0:0:0:0:
256,192,148727,1,8,0:0:0:0:
256,192,149120,1,0,0:0:0:0:
256,192,149512,1,8,0:0:0:0:
256,192,150296,1,4,0:0:0:0:
256,192,151080,1,8,0:0:0:0:
256,192,151865,1,8,0:0:0:0:
256,192,152257,1,0,0:0:0:0:
256,192,152649,1,8,0:0:0:0:
256,192,153433,1,8,0:0:0:0:
256,192,154218,1,8,0:0:0:0:
256,192,155002,1,0,0:0:0:0:
256,192,155394,1,8,0:0:0:0:
256,192,155786,1,8,0:0:0:0:
256,192,156571,1,8,0:0:0:0:
256,192,157355,1,8,0:0:0:0:
256,192,158139,1,8,0:0:0:0:
256,192,158531,1,0,0:0:0:0:
256,192,158924,1,8,0:0:0:0:
256,192,159708,1,8,0:0:0:0:
256,192,160492,1,8,0:0:0:0:
256,192,161277,1,8,0:0:0:0:
256,192,161669,1,8,0:0:0:0:
256,192,162061,1,8,0:0:0:0:
256,192,162845,1,4,0:0:0:0:
256,192,164022,1,8,0:0:0:0:
256,192,164414,1,0,0:0:0:0:
256,192,165590,1,8,0:0:0:0:
256,192,165982,1,0,0:0:0:0:
256,192,167159,1,0,0:0:0:0:
128,96,167551,2,0,L|352:160,2,210,0|0|0,0:0|0:0|0:0,0:0:0:0:
256,192,169120,1,0,0:0:0:0:
256,192,169904,1,0,0:0:0:0:
256,192,170296,1,8,0:0:0:0:
256,192,170688,1,0,0:0:0:0:
256,192,171473,1,8,0:0:0:0:
256,192,172257,1,0,0:0:0:0:
256,192,173041,1,0,0:0:0:0:
256,192,173433,1,8,0:0:0:0:
256,192,173826,1,0,0:0:0:0:
256,192,174610,1,8,0:0:0:0:
256,192,175394,1,0,0:0:0:0:
256,192,176179,1,0,0:0:0:0:
256,192,176963,1,0,0:0:0:0:
256,192,177747,1,0,0:0:0:0:
256,192,178139,1,8,0:0:0:0:
256,192,178532,1,0,0:0:0:0:
256,192,179316,1,0,0:0:0:0:
256,192,179708,1,0,0:0:0:0:
256,192,180100,1,8,0:0:0:0:
256,192,180884,1,0,0:0:0:0:
256,192,181669,1,4,0:0:0:0:
256,192,182453,1,8,0:0:0:0:
256,192,182845,1,8,0:0:0:0:
256,192,183237,1,0,0:0:0:0:
256,192,184022,1,8,0:0:0:0:
256,192,184806,1,0,0:0:0:0:
256,192,185590,1,0,0:0:0:0:
256,192,186375,1,8,0:0:0:0:
256,192,187159,1,8,0:0:0:0:
256,192,187355,1,8,0:0:0:0:
256,192,187943,1,0,0:0:0:0:
256,192,189512,1,0,0:0:0:0:
256,192,190296,1,8,0:0:0:0:
256,192,191081,1,8,0:0:0:0:
256,192,191865,1,0,0:0:0:0:
256,192,192649,1,12,0:0:0:0:
256,192,193433,1,12,0:0:0:0:
256,192,194218,1,4,0:0:0:0:
256,192,195002,1,8,0:0:0:0:
256,192,195787,1,0,0:0:0:0:
256,192,196179,1,8,0:0:0:0:
256,192,196963,1,8,0:0:0:0:
256,192,197355,1,0,0:0:0:0:
256,192,198139,1,0,0:0:0:0:
256,192,198924,1,0,0:0:0:0:
256,192,199316,1,8,0:0:0:0:
256,192,199708,1,0,0:0:0:0:
256,192,200493,1,0,0:0:0:0:
256,192,200885,1,8,0:0:0:0:
256,192,201669,1,8,0:0:0:0:
256,192,202061,1,0,0:0:0:0:
256,192,202453,1,8,0:0:0:0:
256,192,203238,1,8,0:0:0:0:
256,192,203630,1,8,0:0:0:0:
256,192,204414,1,12,0:0:0:0:
256,192,205198,1,8,0:0:0:0:
256,192,205787,1,12,0:0:0:0:
256,192,206767,1,4,0:0:0:0:
256,192,208335,1,0,0:0:0:0:
256,192,209120,1,8,0:0:0:0:
256,192,209904,1,0,0:0:0:0:
256,192,211473,1,0,0:0:0:0:
256,192,212257,1,8,0:0:0:0:
256,192,213041,1,0,0:0:0:0:
256,192,214610,1,0,0:0:0:0:
256,192,215394,1,8,0:0:0:0:
256,192,216179,1,0,0:0:0:0:
256,192,216963,1,0,0:0:0:0:
256,192,217747,1,8,0:0:0:0:
256,192,218139,1,8,0:0:0:0:
256,192,218531,12,0,221277,0:0:0:0:
256,192,222061,5,8,0:0:0:0:
256,192,222453,1,4,0:0:0:0:
256,192,223237,1,8,0:0:0:0:
256,192,224022,1,0,0:0:0:0:
256,192,224414,1,8,0:0:0:0:
256,192,224806,1,0,0:0:0:0:
256,192,225590,1,8,0:0:0:0:
256,192,226375,1,8,0:0:0:0:
256,192,227159,1,0,0:0:0:0:
256,192,227551,1,0,0:0:0:0:
256,192,227943,1,8,0:0:0:0:
256,192,228728,1,8,0:0:0:0:
256,192,229512,1,8,0:0:0:0:
256,192,230296,1,8,0:0:0:0:
256,192,230688,1,0,0:0:0:0:
256,192,231081,1,8,0:0:0:0:
256,192,231865,1,8,0:0:0:0:
256,192,232649,1,8,0:0:0:0:
256,192,233433,1,8,0:0:0:0:
256,192,233826,1,0,0:0:0:0:
256,192,234218,1,8,0:0:0:0:
256,192,235002,1,0,0:0:0:0:
256,192,235786,1,0,0:0:0:0:
256,192,236570,1,0,0:0:0:0:
256,192,237355,1,8,0:0:0:0:
256,192,237747,1,8,0:0:0:0:
256,192,238139,1,0,0:0:0:0:
256,192,238923,1,0,0:0:0:0:
256,192,239707,1,0,0:0:0:0:
256,192,240492,1,8,0:0:0:0:
256,192,241277,1,0,0:0:0:0:
256,192,242061,1,0,0:0:0:0:
256,192,242844,1,0,0:0:0:0:
256,192,243629,1,0,0:0:0:0:
256,192,244022,1,0,0:0:0:0:
256,192,244414,1,0,0:0:0:0:
256,192,245198,1,8,0:0:0:0:
256,192,245982,1,4,0:0:0:0:
256,192,246767,1,8,0:0:0:0:
256,192,247551,1,0,0:0:0:0:
256,192,248335,1,0,0:0:0:0:
256,192,249120,1,0,0:0:0:0:
256,192,249904,1,0,0:0:0:0:
256,192,250296,1,8,0:0:0:0:
256,192,250688,1,0,0:0:0:0:
256,192,251473,1,0,0:0:0:0:
256,192,252257,1,0,0:0:0:0:
256,192,253041,1,8,0:0:0:0:
256,192,253826,1,0,0:0:0:0:
256,192,254610,1,0,0:0:0:0:
256,192,255394,1,0,0:0:0:0:
256,192,256179,1,0,0:0:0:0:
256,192,256571,1,0,0:0:0:0:
256,192,256963,1,8,0:0:0:0:
256,192,257747,1,8,0:0:0:0:
256,192,258531,1,4,0:0:0:0:
256,192,259316,1,4,0:0:0:0:
256,192,260100,1,12,0:0:0:0:
256,192,260884,1,12,0:0:0:0:
256,192,261081,12,0,264414,0:0:0:0:
