osu file format v14

[General]
AudioFilename: merrychristmas.mp3
AudioLeadIn: 0
PreviewTime: 26202
Countdown: 0
SampleSet: Soft
StackLeniency: 0.7
Mode: 0
LetterboxInBreaks: 1
WidescreenStoryboard: 1

[Editor]
Bookmarks: 14684
DistanceSpacing: 1.6
BeatDivisor: 4
GridSize: 32
TimelineZoom: 1

[Metadata]
Title:I Hsiw Uoy a Yrrem Samtsirhc
TitleUnicode:I Hsiw Uoy a Yrrem Samtsirhc
Artist:Wafu
ArtistUnicode:Wafu
Creator:Wafu
Version:Samtsirhc
Source:
Tags:xmas collaboration collab we wish you merry christmas winter ByBy13 ByBy_ChAn
BeatmapID:838714
BeatmapSetID:383715

[Difficulty]
HPDrainRate:6
CircleSize:5
OverallDifficulty:6
ApproachRate:7
SliderMultiplier:1.6
SliderTickRate:1

[Events]
//Background and Video events
0,0,"station.jpg",0,0
//Break Periods
//Storyboard Layer 0 (Background)
//Storyboard Layer 1 (Fail)
//Storyboard Layer 2 (Pass)
//Storyboard Layer 3 (Foreground)
//Storyboard Sound Samples

[TimingPoints]
1024,1071.42857142857,3,2,1,40,1,0
63702,-100,3,2,1,20,0,0

[Colours]
Combo1 : 66,108,159
Combo2 : 101,150,150

[HitObjects]
411,272,488,5,0,0:0:0:0:
411,272,1024,6,0,L|415:192,1,80,2|0,0:0|0:0,0:0:0:0:
381,138,1827,1,0,0:0:0:0:
324,169,2095,2,0,P|305:169|285:165,1,40
233,127,2631,2,0,P|195:115|155:122,2,80,2|0|0,0:0|0:0|0:0,0:0:0:0:
303,233,4238,6,0,L|382:224,1,80,2|0,0:0|0:0,0:0:0:0:
431,182,5041,1,0,0:0:0:0:
454,122,5309,2,0,L|448:82,1,40
383,75,5845,2,0,P|356:103|318:114,1,80,2|0,0:0|0:0,0:0:0:0:
203,57,6916,1,0,0:0:0:0:
94,125,7452,6,0,B|88:158|88:158|95:203,1,80,2|0,0:0|0:0,0:0:0:0:
117,264,8256,1,0,0:0:0:0:
68,305,8523,2,0,L|28:310,2,40,0|0|2,0:0|0:0|0:0,0:0:0:0:
187,351,9595,1,0,0:0:0:0:
285,269,10131,1,0,0:0:0:0:
285,269,10398,1,0,0:0:0:0:
285,269,10666,6,0,L|289:189,1,80,2|0,0:0|0:0,0:0:0:0:
364,85,11738,1,0,0:0:0:0:
237,69,12273,1,2,0:0:0:0:
123,298,13345,1,0,0:0:0:0:
249,316,13881,6,0,L|338:291,1,80,2|0,0:0|0:0,0:0:0:0:
379,178,14952,2,0,L|396:121,1,40
416,81,15488,1,2,0:0:0:0:
456,130,15756,1,0,0:0:0:0:
441,192,16023,1,0,0:0:0:0:
361,292,16559,1,0,0:0:0:0:
248,352,17095,6,0,B|207:361|207:361|158:354,1,80,2|0,0:0|0:0,0:0:0:0:
73,271,18166,1,0,0:0:0:0:
144,164,18702,1,2,0:0:0:0:
243,244,19238,1,0,0:0:0:0:
307,133,19773,1,0,0:0:0:0:
195,70,20309,6,0,P|135:71|95:101,1,80,2|0,0:0|0:0,0:0:0:0:
28,170,21381,1,0,0:0:0:0:
153,194,21916,1,2,0:0:0:0:
203,311,22452,1,0,0:0:0:0:
153,194,22988,1,0,0:0:0:0:
109,146,23256,1,0,0:0:0:0:
75,91,23523,6,0,P|120:83|163:106,1,80,2|0,0:0|0:0,0:0:0:0:
241,186,24595,1,0,0:0:0:0:
173,295,25131,2,0,P|142:324|92:328,1,80,2|0,0:0|0:0,0:0:0:0:
15,240,26202,1,0,0:0:0:0:
154,174,26738,6,0,P|158:134|155:94,1,80,2|0,0:0|0:0,0:0:0:0:
139,33,27541,1,0,0:0:0:0:
202,24,27809,2,0,L|241:26,1,40
294,62,28345,2,0,L|373:55,2,80,2|0|0,0:0|0:0|0:0,0:0:0:0:
230,173,29952,5,2,0:0:0:0:
310,272,30488,2,0,L|305:312,2,40
362,235,31291,1,0,0:0:0:0:
406,281,31559,2,0,P|445:281|478:260,1,80,2|0,0:0|0:0,0:0:0:0:
502,134,32631,1,0,0:0:0:0:
405,50,33166,6,0,P|365:49|332:70,1,80,2|0,0:0|0:0,0:0:0:0:
289,118,33970,1,0,0:0:0:0:
231,90,34238,2,0,L|191:91,1,40
144,135,34773,2,0,B|113:143|113:143|65:136,2,80,2|0|0,0:0|0:0|0:0,0:0:0:0:
191,91,36113,1,0,0:0:0:0:
236,136,36381,6,0,P|279:140|323:116,1,80,2|0,0:0|0:0,0:0:0:0:
398,31,37452,1,0,0:0:0:0:
444,150,37988,1,2,0:0:0:0:
241,305,39059,1,0,0:0:0:0:
176,195,39595,6,0,P|211:180|266:181,1,80,6|0,0:0|0:0,0:0:0:0:
344,267,40666,2,0,L|350:311,1,40
303,352,41202,2,0,B|263:346|263:346|204:351,1,80,6|0,0:0|0:0,0:0:0:0:
95,354,42273,1,0,0:0:0:0:
65,229,42809,6,0,L|39:142,1,80,6|0,0:0|0:0,0:0:0:0:
96,35,43881,2,0,L|147:15,1,40
195,33,44416,2,0,P|206:85|237:123,1,80,6|0,0:0|0:0,0:0:0:0:
286,217,45488,1,0,0:0:0:0:
189,300,46023,6,0,B|142:312|142:312|77:300,1,80,6|0,0:0|0:0,0:0:0:0:
7,233,47095,1,0,0:0:0:0:
112,160,47631,1,6,0:0:0:0:
228,106,48166,2,0,P|270:101|319:117,1,80
390,206,49237,5,6,0:0:0:0:
265,168,49773,1,0,0:0:0:0:
167,251,50309,2,0,P|124:262|89:255,1,80,0|6,0:0|0:0,0:0:0:0:
4,159,51381,1,0,0:0:0:0:
111,90,51916,1,0,0:0:0:0:
242,132,52452,6,0,B|281:144|281:121|320:132,1,80,12|0,0:0|0:0,0:0:0:0:
372,170,53256,1,0,0:0:0:0:
433,151,53523,2,0,L|437:111,1,40
425,47,54059,2,0,P|388:60|349:57,1,80,12|0,0:0|0:0,0:0:0:0:
227,11,55131,1,0,0:0:0:0:
120,81,55666,6,0,B|109:113|109:113|114:158,1,80,12|0,0:0|0:0,0:0:0:0:
134,219,56470,1,0,0:0:0:0:
89,265,56738,2,0,L|49:268,2,40,0|0|12,0:0|0:0|0:0,0:0:0:0:
195,336,57809,1,0,0:0:0:0:
295,255,58345,1,0,0:0:0:0:
221,148,58881,6,0,P|216:109|230:72,1,80,12|0,0:0|0:0,0:0:0:0:
281,33,59684,1,0,0:0:0:0:
325,79,59952,2,0,L|364:75,1,40
417,112,60488,2,0,B|431:150|408:151|421:189,2,80,12|0|0,0:0|0:0|0:0,0:0:0:0:
358,136,61827,1,0,0:0:0:0:
307,97,62095,6,0,L|227:93,1,80,12|0,0:0|0:0,0:0:0:0:
157,201,63166,2,0,L|236:204,1,80
