osu file format v14

[General]
AudioFilename: merrychristmas.mp3
AudioLeadIn: 0
PreviewTime: 26202
Countdown: 0
SampleSet: Soft
StackLeniency: 0.7
Mode: 0
LetterboxInBreaks: 1
WidescreenStoryboard: 1

[Editor]
DistanceSpacing: 1.6
BeatDivisor: 4
GridSize: 32
TimelineZoom: 1

[Metadata]
Title:I Hsiw Uoy a Yrrem Samtsirhc
TitleUnicode:I Hsiw Uoy a Yrrem Samtsirhc
Artist:Wafu
ArtistUnicode:Wafu
Creator:Wafu
Version:Normal
Source:
Tags:xmas collaboration collab we wish you merry christmas winter ByBy13 ByBy_ChAn
BeatmapID:838744
BeatmapSetID:383715

[Difficulty]
HPDrainRate:4
CircleSize:4
OverallDifficulty:4
ApproachRate:5
SliderMultiplier:1.3
SliderTickRate:2

[Events]
//Background and Video events
0,0,"station.jpg",0,0
//Break Periods
//Storyboard Layer 0 (Background)
//Storyboard Layer 1 (Fail)
//Storyboard Layer 2 (Pass)
//Storyboard Layer 3 (Foreground)
//Storyboard Sound Samples

[TimingPoints]
1024,1071.42857142857,3,2,1,40,1,0
63702,-100,3,2,1,20,0,0

[Colours]
Combo1 : 66,108,159
Combo2 : 101,150,150

[HitObjects]
155,337,488,5,0,0:0:0:0:
214,286,1024,6,0,L|274:306,2,65,2|0|0,0:0|0:0|0:0,0:0:0:0:
192,211,2631,2,0,L|130:189,2,65,2|0|0,0:0|0:0|0:0,0:0:0:0:
259,172,4238,6,0,P|273:110|241:55,1,130,2|0,0:0|0:0,0:0:0:0:
165,41,5845,2,0,L|100:41,1,65,2|0,0:0|0:0,0:0:0:0:
41,92,6916,1,0,0:0:0:0:
91,152,7452,6,0,P|96:185|90:217,1,65,2|0,0:0|0:0,0:0:0:0:
40,276,8523,1,0,0:0:0:0:
94,331,9059,2,0,B|140:339|140:339|221:321,1,130,2|0,0:0|0:0,0:0:0:0:
270,260,10666,6,0,P|268:227|255:198,1,65,2|0,0:0|0:0,0:0:0:0:
183,166,11738,1,0,0:0:0:0:
245,119,12273,1,2,0:0:0:0:
333,335,13881,6,0,L|246:309,1,65,2|0,0:0|0:0,0:0:0:0:
200,281,14952,1,0,0:0:0:0:
136,235,15488,2,0,B|111:196|111:196|111:162|111:162|89:115,1,130,2|0,0:0|0:0,0:0:0:0:
63,43,17095,5,2,0:0:0:0:
141,43,17631,1,0,0:0:0:0:
206,85,18166,1,0,0:0:0:0:
215,162,18702,2,0,B|216:202|239:221|239:221|234:257|268:300,1,130,2|0,0:0|0:0,0:0:0:0:
295,348,20309,6,0,P|325:318|331:281,1,65,2|0,0:0|0:0,0:0:0:0:
345,220,21381,1,0,0:0:0:0:
270,243,21916,2,0,P|219:246|148:195,1,130,2|0,0:0|0:0,0:0:0:0:
111,141,23523,5,2,0:0:0:0:
175,96,24059,1,0,0:0:0:0:
234,146,24596,2,0,P|266:151|298:144,1,65,0|2,0:0|0:0,0:0:0:0:
422,50,26202,1,0,0:0:0:0:
459,117,26738,6,0,P|470:179|436:233,1,130,2|0,0:0|0:0,0:0:0:0:
364,261,28345,2,0,L|299:262,1,65,2|0,0:0|0:0,0:0:0:0:
258,329,29416,1,0,0:0:0:0:
205,271,29952,6,0,B|190:240|205:208|205:208|220:176|205:146,1,130,2|0,0:0|0:0,0:0:0:0:
143,97,31559,2,0,L|78:90,2,65,2|0|0,0:0|0:0|0:0,0:0:0:0:
213,61,33166,6,0,P|274:47|329:79,1,130,2|0,0:0|0:0,0:0:0:0:
374,143,34773,1,2,0:0:0:0:
451,135,35309,1,0,0:0:0:0:
482,206,35845,1,0,0:0:0:0:
444,274,36381,6,0,P|441:306|446:338,2,65,2|0|0,0:0|0:0|0:0,0:0:0:0:
482,206,37988,1,2,0:0:0:0:
274,98,39595,6,0,B|222:98|222:98|183:81|183:81|130:81,1,130,6|0,0:0|0:0,0:0:0:0:
69,88,41202,1,6,0:0:0:0:
97,160,41738,1,0,0:0:0:0:
56,226,42273,1,0,0:0:0:0:
104,286,42809,6,0,L|177:274,2,65,6|0|0,0:0|0:0|0:0,0:0:0:0:
48,340,44416,2,0,P|26:292|68:211,1,130,6|0,0:0|0:0,0:0:0:0:
112,176,46023,5,6,0:0:0:0:
171,227,46559,1,0,0:0:0:0:
118,284,47095,2,0,P|112:323|125:354,1,65,0|6,0:0|0:0,0:0:0:0:
195,367,48166,2,0,B|252:338|252:338|288:283,1,130,0|6,0:0|0:0,0:0:0:0:
301,205,49773,5,0,0:0:0:0:
228,233,50309,1,0,0:0:0:0:
155,204,50845,1,6,0:0:0:0:
228,65,51916,1,0,0:0:0:0:
160,104,52452,6,0,L|95:98,2,65,12|0|0,0:0|0:0|0:0,0:0:0:0:
215,159,54059,2,0,P|216:201|199:237,1,65,12|0,0:0|0:0,0:0:0:0:
155,279,55131,1,0,0:0:0:0:
89,321,55666,6,0,L|218:327,1,130,12|0,0:0|0:0,0:0:0:0:
288,291,57273,2,0,P|292:259|287:227,1,65,12|0,0:0|0:0,0:0:0:0:
253,155,58345,1,0,0:0:0:0:
185,193,58881,6,0,L|120:187,2,65,12|0|0,0:0|0:0|0:0,0:0:0:0:
253,155,60488,1,12,0:0:0:0:
326,180,61023,1,0,0:0:0:0:
376,120,61559,1,0,0:0:0:0:
452,102,62095,6,0,B|464:133|446:163|446:163|428:194|441:226,1,130,12|0,0:0|0:0,0:0:0:0:
481,293,63702,1,0,0:0:0:0:
