osu file format v14

[General]
AudioFilename: optc.mp3
AudioLeadIn: 0
PreviewTime: 55550
Countdown: 0
SampleSet: None
StackLeniency: 0.9
Mode: 0
LetterboxInBreaks: 0
WidescreenStoryboard: 0

[Editor]
Bookmarks: 14916,25662,39990,47155,56110,63274,70438,77602
DistanceSpacing: 1.8
BeatDivisor: 4
GridSize: 16
TimelineZoom: 4.299999

[Metadata]
Title:The Biggest Dreamer (TV Size)
TitleUnicode:The Biggest Dreamer (TVサイズ)
Artist:Wada Kouji
ArtistUnicode:和田光司
Creator:Shad0w1and
Version:Bigger than bigger
Source:デジモンテイマーズ
Tags:Digimon Tamers Kencho m1223961117 DreaM117er Gero XinCrin
BeatmapID:867157
BeatmapSetID:398819

[Difficulty]
HPDrainRate:5.2
CircleSize:4
OverallDifficulty:8.4
ApproachRate:9.2
SliderMultiplier:1.8
SliderTickRate:1

[Events]
//Background and Video events
Video,0,"optc.flv"
0,0,"BG.jpg",0,0
//Break Periods
//Storyboard Layer 0 (Background)
//Storyboard Layer 1 (Fail)
//Storyboard Layer 2 (Pass)
//Storyboard Layer 3 (Foreground)
//Storyboard Sound Samples

[TimingPoints]
2670,600,4,3,1,40,1,0
2970,564.971751412429,4,3,1,40,1,0
3252,603.015075376884,4,3,1,40,1,0
3855,545.454545454546,4,3,1,40,1,0
4264,612.244897959184,4,3,1,40,1,0
4723,600,4,3,1,40,1,0
5023,588.235294117647,4,3,1,40,1,0
5611,638.297872340426,4,3,1,40,1,0
5930,600,4,3,1,40,1,0
6230,659.340659340659,4,3,1,40,1,0
6449,714.285714285714,4,3,1,40,1,0
6687,554.52865064695,4,3,1,40,1,0
7380,-100,4,3,1,20,0,0
7703,609.137055837563,4,3,1,40,1,0
8007,609.137055837563,4,3,1,40,1,0
8312,571.428571428571,4,3,1,40,1,0
8454,623.376623376623,4,3,1,40,1,0
9233,555.555555555556,4,3,1,40,1,0
9510,588.235294117647,4,3,1,40,1,0
9657,625,4,3,1,40,1,0
10438,600,4,3,1,40,1,0
11038,588.235294117647,4,3,1,40,1,0
11234,789.473684210526,4,3,1,40,1,0
11497,569.935882213251,4,3,1,40,1,0
11639,-100,4,2,1,40,0,0
14916,447.761194029851,4,2,1,70,1,0
14916,-83.3333333333333,4,2,1,70,0,0
25662,-100,4,2,1,50,0,0
39319,-100,4,2,1,40,0,0
39990,-83.3333333333333,4,2,1,50,0,0
54319,-83.3333333333333,4,2,1,60,0,0
56110,-80,4,2,1,70,0,1
77602,-83.3333333333333,4,2,1,70,0,0
87005,-83.3333333333333,4,2,1,50,0,0
87677,-83.3333333333333,4,2,1,70,0,0
88461,-83.3333333333333,4,2,1,40,0,0
88573,-83.3333333333333,4,2,1,35,0,0
88796,-83.3333333333333,4,2,1,25,0,0
89020,-83.3333333333333,4,1,1,15,0,0
89244,-83.3333333333333,4,2,1,10,0,0
89468,-83.3333333333333,4,2,1,8,0,0
89692,-83.3333333333333,4,2,1,5,0,0

[Colours]
Combo1 : 245,221,5
Combo2 : 87,227,214
Combo3 : 34,112,227
Combo4 : 226,125,24

[HitObjects]
39,61,2670,6,0,L|52:183,1,90,2|0,0:0|0:0,0:0:0:0:
210,172,3252,2,0,L|236:62,1,90,0|0,0:0|0:0,0:0:0:0:
109,328,3855,1,0,0:0:0:0:
109,328,3991,2,0,L|159:326,1,45,0|0,0:0|0:0,0:0:0:0:
337,299,4264,6,0,L|348:151,1,135,2|0,0:0|0:0,0:0:0:0:
199,22,5023,2,0,P|151:13|94:22,1,90,0|0,0:0|0:0,0:0:0:0:
0,183,5611,6,0,P|63:193|119:176,1,90,2|0,0:0|0:0,0:0:0:0:
290,98,6230,2,0,L|287:179,1,60,0|0,0:0|0:0,0:0:0:0:
267,331,6687,6,0,P|186:265|103:336,1,225,2|0,0:0|0:0,0:0:0:0:
104,329,7703,1,0,0:0:0:0:
132,154,8007,6,0,B|127:48,1,90,2|0,0:0|0:0,0:0:0:0:
68,231,8454,2,0,P|142:253|203:223,1,135,0|0,0:0|0:0,0:0:0:0:
486,97,9233,6,0,P|437:88|390:101,1,90,2|0,0:0|0:0,0:0:0:0:
424,273,9657,2,0,P|445:210|436:154,1,90,0|0,0:0|0:0,0:0:0:0:
168,245,10438,6,0,L|182:368,2,90,2|0|0,0:0|0:0|0:0,0:0:0:0:
301,209,11234,2,0,L|294:296,1,60,0|2,0:0|0:0,0:0:0:0:
256,192,11639,12,0,14346,0:0:0:0:
0,44,14916,6,0,L|13:169,1,107.999996704102,14|0,0:0|0:0,0:0:0:0:
196,209,15363,2,0,L|210:94,1,107.999996704102,12|0,0:0|0:0,0:0:0:0:
309,214,15699,1,2,0:0:0:0:
309,214,15811,6,0,P|367:225|389:224,1,53.9999983520508,4|0,0:3|0:0,0:0:0:0:
477,112,16035,2,0,L|349:117,1,107.999996704102,4|8,0:0|0:0,0:0:0:0:
160,304,16483,5,0,0:0:0:0:
160,304,16595,1,0,0:0:0:0:
160,304,16707,2,0,L|73:310,1,53.9999983520508,2|0,0:0|0:0,0:0:0:0:
256,208,16930,5,0,0:0:0:0:
256,208,17042,1,0,0:0:0:0:
256,208,17154,2,0,L|319:211,1,53.9999983520508,8|0,0:0|0:0,0:0:0:0:
128,160,17378,5,0,0:0:0:0:
128,160,17490,1,0,0:0:0:0:
128,160,17602,2,0,L|46:164,1,53.9999983520508,2|0,0:0|0:0,0:0:0:0:
224,64,17826,2,0,L|305:68,1,53.9999983520508,0|0,0:0|0:0,0:0:0:0:
96,32,18050,5,8,0:0:0:0:
214,356,18274,1,0,0:0:0:0:
214,356,18386,1,0,0:0:0:0:
214,356,18498,6,0,L|339:343,1,107.999996704102,6|0,0:0|0:0,0:0:0:0:
469,201,18946,2,0,P|471:153|453:83,1,107.999996704102,12|0,0:0|0:0,0:0:0:0:
328,48,19281,1,2,0:0:0:0:
328,48,19393,6,0,P|324:76|325:107,1,53.9999983520508,4|0,0:3|0:0,0:0:0:0:
348,244,19617,2,0,P|290:240|235:247,1,107.999996704102,4|8,0:0|0:0,0:0:0:0:
12,253,20065,5,0,0:0:0:0:
12,253,20177,1,0,0:0:0:0:
12,253,20289,2,0,L|15:322,1,53.9999983520508,2|0,0:0|0:0,0:0:0:0:
125,127,20512,5,0,0:0:0:0:
125,127,20624,1,0,0:0:0:0:
125,127,20736,2,0,L|122:64,1,53.9999983520508,8|0,0:0|0:0,0:0:0:0:
241,246,20960,5,0,0:0:0:0:
241,246,21072,1,0,0:0:0:0:
241,246,21184,2,0,L|247:321,1,53.9999983520508,2|0,0:0|0:0,0:0:0:0:
367,116,21408,2,0,L|370:40,1,53.9999983520508
233,112,21632,6,0,L|170:105,1,53.9999983520508,8|0,0:0|0:0,0:0:0:0:
381,262,21856,2,0,L|466:255,1,53.9999983520508,0|0,0:0|0:0,0:0:0:0:
245,299,22080,6,0,P|231:248|235:172,1,107.999996704102,2|8,0:0|0:0,0:0:0:0:
429,19,22416,2,0,P|436:87|430:145,1,107.999996704102,12|0,0:1|0:0,0:0:0:0:
418,153,22976,6,0,L|359:157,1,53.9999983520508,2|0,0:0|0:0,0:0:0:0:
169,167,23199,1,8,0:0:0:0:
307,270,23311,2,0,B|353:203|322:112|322:112|261:126,1,215.999993408203,2|0,0:0|0:0,0:0:0:0:
42,322,23871,6,0,B|97:333|97:333|144:305|144:305|196:329|251:333,1,215.999993408203,12|0,0:1|0:0,0:0:0:0:
276,328,24767,5,8,0:1:0:0:
191,50,24916,1,8,0:1:0:0:
61,242,25065,1,8,0:1:0:0:
418,133,25214,1,8,0:1:0:0:
418,133,25662,6,0,L|433:14,1,90,12|0,0:1|0:0,0:0:0:0:
180,43,26110,2,0,L|194:150,1,90,0|0,0:1|0:0,0:0:0:0:
224,350,26558,5,2,0:0:0:0:
303,184,26782,1,0,0:0:0:0:
14,148,27005,1,0,0:0:0:0:
123,304,27229,1,0,0:0:0:0:
224,27,27453,6,0,P|267:22|314:26,1,90,2|0,0:0|0:0,0:0:0:0:
392,184,27789,1,0,0:0:0:0:
392,184,27901,2,0,P|342:189|298:182,1,90,0|0,0:0|0:0,0:0:0:0:
0,132,28349,2,0,L|9:257,1,90,2|0,0:0|0:0,0:0:0:0:
152,324,28684,1,0,0:0:0:0:
152,324,28796,2,0,L|164:218,1,90,0|0,0:0|0:0,0:0:0:0:
178,23,29244,6,0,L|371:23,1,180,2|0,0:0|0:0,0:0:0:0:
464,189,29916,1,0,0:0:0:0:
213,146,30140,2,0,L|223:251,1,90,2|0,0:0|0:0,0:0:0:0:
440,361,30588,2,0,L|453:258,1,90,0|0,0:0|0:0,0:0:0:0:
243,380,31035,6,0,P|196:376|147:355,1,90,2|0,0:0|0:0,0:0:0:0:
16,274,31371,1,0,0:0:0:0:
16,274,31483,2,0,L|18:172,1,90,0|0,0:0|0:0,0:0:0:0:
229,24,31931,1,2,0:0:0:0:
220,235,32155,1,0,0:0:0:0:
220,235,32267,1,0,0:0:0:0:
220,235,32379,2,0,L|111:228,1,90,0|0,0:0|0:0,0:0:0:0:
369,91,32826,6,0,L|488:83,1,90,12|0,0:1|0:0,0:0:0:0:
496,254,33162,1,0,0:0:0:0:
496,254,33274,2,0,L|393:246,1,90,0|0,0:0|0:0,0:0:0:0:
130,229,33721,5,2,0:0:0:0:
288,357,33946,1,0,0:0:0:0:
304,96,34170,1,0,0:0:0:0:
52,117,34393,1,0,0:0:0:0:
220,325,34617,6,0,L|220:217,1,90,2|0,0:0|0:0,0:0:0:0:
259,102,34953,1,0,0:0:0:0:
259,102,35065,6,0,L|312:94,1,45,0|0,0:0|0:0,0:0:0:0:
132,190,35289,2,0,L|55:179,1,45
220,325,35513,6,0,L|332:325,1,90,2|0,0:0|0:0,0:0:0:0:
470,323,35848,1,0,0:0:0:0:
470,323,35961,6,0,L|471:381,1,45,0|0,0:0|0:0,0:0:0:0:
353,221,36184,2,0,L|355:155,1,45
465,50,36408,6,0,L|360:33,1,90,2|0,0:0|0:0,0:0:0:0:
246,109,36744,1,0,0:0:0:0:
246,109,36856,2,0,L|128:89,1,90,0|0,0:0|0:0,0:0:0:0:
0,342,37304,2,0,L|96:334,1,90,2|0,0:0|0:0,0:0:0:0:
170,221,37639,1,0,0:0:0:0:
170,221,37752,2,0,L|275:212,1,90,0|0,0:0|0:0,0:0:0:0:
512,208,38199,5,2,0:0:0:0:
260,214,38423,1,0,0:0:0:0:
461,54,38647,1,0,0:0:0:0:
436,286,38871,1,0,0:0:0:0:
278,42,39095,1,2,0:0:0:0:
37,163,39319,5,8,0:1:0:0:
24,176,39393,1,8,0:1:0:0:
15,191,39468,1,8,0:1:0:0:
7,207,39543,2,0,L|1:263,1,45,8|0,0:1|0:0,0:0:0:0:
163,137,39766,2,0,L|155:86,1,45,8|0,0:1|0:0,0:0:0:0:
180,322,39990,6,0,P|239:334|306:311,1,107.999996704102,12|0,0:1|0:0,0:0:0:0:
485,88,40438,2,0,L|477:212,1,107.999996704102,8|0,0:0|0:0,0:0:0:0:
237,182,40886,6,0,L|228:73,1,107.999996704102,8|0,0:1|0:0,0:0:0:0:
86,199,41222,1,0,0:0:0:0:
86,199,41334,2,0,L|78:332,1,107.999996704102,8|0,0:0|0:0,0:0:0:0:
267,122,41782,5,8,0:1:0:0:
279,361,42005,1,0,0:0:0:0:
112,251,42229,1,8,0:0:0:0:
428,240,42453,1,0,0:0:0:0:
258,14,42677,6,0,L|266:121,1,107.999996704102,0|0,0:1|0:0,0:0:0:0:
112,251,43013,1,0,0:0:0:0:
112,251,43125,2,0,L|118:110,1,107.999996704102,8|0,0:0|0:0,0:0:0:0:
417,253,43572,6,0,P|362:271|313:257,1,107.999996704102,8|0,0:1|0:0,0:0:0:0:
240,113,43908,1,0,0:0:0:0:
240,113,44020,2,0,P|176:101|121:129,1,107.999996704102,8|0,0:0|0:0,0:0:0:0:
187,320,44356,1,0,0:0:0:0:
187,320,44468,2,0,P|192:241|187:178,1,107.999996704102,8|0,0:1|0:0,0:0:0:0:
62,85,44804,1,0,0:0:0:0:
62,85,44916,2,0,P|56:170|60:226,1,107.999996704102,8|0,0:0|0:0,0:0:0:0:
228,301,45251,1,0,0:0:0:0:
228,301,45364,6,0,P|285:302|364:290,1,107.999996704102,8|0,0:1|0:0,0:0:0:0:
483,121,45699,1,0,0:0:0:0:
483,121,45811,2,0,P|419:129|376:129,1,107.999996704102,8|0,0:0|0:0,0:0:0:0:
288,207,46147,1,0,0:0:0:0:
196,130,46259,2,0,L|203:76,1,53.9999983520508,8|0,0:1|0:0,0:0:0:0:
88,197,46483,2,0,L|96:250,1,53.9999983520508,0|0,0:1|0:0,0:0:0:0:
2,116,46707,1,8,0:0:0:0:
5,93,46931,5,0,0:0:0:0:
5,93,47043,1,0,0:0:0:0:
5,93,47155,2,0,L|149:71,1,107.999996704102,4|0,0:1|0:0,0:0:0:0:
288,291,47602,2,0,L|420:312,1,107.999996704102,8|0,0:0|0:0,0:0:0:0:
360,188,47938,1,0,0:0:0:0:
360,188,48050,6,0,L|362:100,1,53.9999983520508,2|0,0:0|0:0,0:0:0:0:
227,89,48274,1,0,0:0:0:0:
227,89,48386,1,0,0:0:0:0:
227,89,48498,2,0,L|236:171,1,53.9999983520508,8|0,0:0|0:0,0:0:0:0:
87,66,48722,1,0,0:0:0:0:
87,66,48834,1,0,0:0:0:0:
87,66,48946,6,0,L|99:213,1,107.999996704102,2|0,0:0|0:0,0:0:0:0:
184,334,49282,1,0,0:0:0:0:
184,334,49393,2,0,L|188:200,1,107.999996704102,8|0,0:0|0:0,0:0:0:0:
372,369,49841,5,8,0:1:0:0:
192,72,50065,1,8,0:1:0:0:
103,322,50289,1,8,0:0:0:0:
453,112,50513,1,0,0:0:0:0:
453,112,50625,1,0,0:0:0:0:
453,112,50737,6,0,L|461:165,1,53.9999983520508,8|0,0:1|0:0,0:0:0:0:
249,155,50961,2,0,L|256:100,1,53.9999983520508,0|0,0:0|0:0,0:0:0:0:
352,274,51185,2,0,L|348:327,1,53.9999983520508,8|0,0:0|0:0,0:0:0:0:
134,314,51408,2,0,L|128:260,1,53.9999983520508,0|0,0:0|0:0,0:0:0:0:
90,54,51632,5,8,0:1:0:0:
377,171,51856,1,8,0:1:0:0:
1,203,52080,1,8,0:0:0:0:
275,381,52304,1,8,0:1:0:0:
483,194,52528,6,0,L|356:167,1,107.999996704102,4|0,0:1|0:0,0:0:0:0:
230,137,52864,2,0,L|236:192,1,53.9999983520508,0|8,0:0|0:0,0:0:0:0:
6,196,53199,1,0,0:0:0:0:
6,196,53311,1,0,0:0:0:0:
6,196,53423,2,0,L|3:142,1,53.9999983520508,2|0,0:0|0:0,0:0:0:0:
123,276,53647,2,0,L|127:329,1,53.9999983520508
138,104,53871,5,8,0:1:0:0:
129,84,53946,1,8,0:1:0:0:
125,62,54020,1,8,0:1:0:0:
125,39,54095,2,0,L|73:44,2,35.9999989013672,8|8|8,0:1|0:1|0:1,0:0:0:0:
215,61,54319,5,8,0:1:0:0:
250,191,54431,1,8,0:1:0:0:
339,97,54543,1,8,0:1:0:0:
133,157,54655,1,8,0:1:0:0:
130,196,54879,5,8,0:1:0:0:
380,186,55102,5,8,0:1:0:0:
126,237,55214,1,8,0:1:0:0:
122,277,55662,6,0,L|266:272,1,107.999996704102,0|0,3:0|3:0,3:3:0:0:
489,197,56110,6,0,P|499:139|488:72,1,112.5,12|0,0:1|0:0,0:0:0:0:
246,48,56558,1,8,0:0:0:0:
162,127,56670,1,0,0:0:0:0:
246,219,56782,2,0,L|246:275,1,56.25,0|0,0:0|0:0,0:0:0:0:
32,319,57005,6,0,L|176:310,1,112.5,8|0,0:1|0:0,0:0:0:0:
380,77,57453,1,8,0:0:0:0:
367,289,57677,1,0,0:0:0:0:
88,56,57901,5,8,0:1:0:0:
150,234,58125,1,0,0:0:0:0:
310,96,58349,1,8,0:0:0:0:
310,96,58461,2,0,L|308:225,1,112.5,0|0,0:0|0:0,0:0:0:0:
204,330,58796,6,0,P|136:343|74:311,1,112.5,8|0,0:1|0:0,0:0:0:0:
46,200,59132,1,0,0:0:0:0:
157,122,59244,2,0,P|152:180|151:246,1,112.5,8|0,0:0|0:0,0:0:0:0:
485,200,59692,6,0,P|484:147|478:81,1,112.5,8|0,0:1|0:0,0:0:0:0:
263,234,60140,2,0,L|150:234,1,112.5,8|0,0:0|0:0,0:0:0:0:
0,288,60476,1,0,0:0:0:0:
9,132,60588,6,0,L|6:40,1,56.25,8|0,0:1|0:0,0:0:0:0:
155,177,60811,2,0,L|150:235,1,56.25,0|0,0:0|0:0,0:0:0:0:
163,17,61035,2,0,L|329:9,1,112.5,8|0,0:0|0:0,0:0:0:0:
438,328,61483,6,0,L|321:323,1,112.5,8|0,0:1|0:0,0:0:0:0:
133,156,61931,2,0,L|286:144,1,112.5,8|0,0:0|0:0,0:0:0:0:
394,135,62267,1,0,0:0:0:0:
325,266,62379,6,0,L|325:322,1,56.25,8|0,0:1|0:0,0:0:0:0:
218,150,62602,2,0,L|220:55,1,56.25,0|0,0:0|0:0,0:0:0:0:
117,265,62826,2,0,L|4:269,1,112.5,8|0,0:0|0:0,0:0:0:0:
53,125,63162,1,0,0:0:0:0:
53,125,63274,5,8,0:1:0:0:
179,384,63498,1,0,0:0:0:0:
296,125,63722,1,8,0:0:0:0:
296,125,63834,2,0,P|364:113|421:135,1,112.5,0|0,0:0|0:0,0:0:0:0:
356,329,64170,6,0,L|351:216,1,112.5,8|0,0:1|0:0,0:0:0:0:
53,125,64617,2,0,L|72:235,1,112.5,8|0,0:0|0:0,0:0:0:0:
310,352,65065,5,8,0:1:0:0:
194,18,65289,1,0,0:0:0:0:
72,235,65513,1,8,0:0:0:0:
433,138,65737,1,0,0:0:0:0:
433,138,65849,1,0,0:0:0:0:
433,138,65961,6,0,P|443:196|428:261,1,112.5,8|0,0:1|0:0,0:0:0:0:
310,352,66296,1,0,0:0:0:0:
310,352,66408,1,8,0:0:0:0:
82,154,66632,1,0,0:0:0:0:
287,110,66856,6,0,L|277:236,1,112.5,12|0,0:1|0:0,0:0:0:0:
72,266,67192,1,0,0:0:0:0:
72,266,67304,2,0,L|83:134,1,112.5,8|0,0:0|0:0,0:0:0:0:
321,47,67752,6,0,L|311:173,1,112.5,12|0,0:1|0:0,0:0:0:0:
36,328,68088,1,0,0:0:0:0:
36,328,68200,2,0,L|47:196,1,112.5,8|0,0:0|0:0,0:0:0:0:
320,384,68647,5,8,0:1:0:0:
512,90,68871,1,8,0:1:0:0:
171,58,69095,1,8,0:0:0:0:
171,58,69207,1,0,0:0:0:0:
171,58,69319,2,0,L|164:119,1,56.25,0|0,0:0|0:0,0:0:0:0:
345,199,69543,5,8,0:1:0:0:
345,199,69655,1,0,0:0:0:0:
345,199,69767,2,0,L|339:143,1,56.25,0|0,0:0|0:0,0:0:0:0:
177,275,69990,6,0,L|139:333,1,56.25,8|0,0:0|0:0,0:0:0:0:
317,384,70214,2,0,L|348:319,1,56.25,0|0,0:0|0:0,0:0:0:0:
512,138,70438,6,0,P|454:128|387:139,1,112.5,12|0,0:1|0:0,0:0:0:0:
177,275,70886,1,8,0:0:0:0:
270,358,70998,1,0,0:0:0:0:
296,238,71110,2,0,L|287:182,1,56.25,0|0,0:0|0:0,0:0:0:0:
73,86,71333,6,0,L|82:230,1,112.5,8|0,0:1|0:0,0:0:0:0:
384,327,71782,1,8,0:0:0:0:
246,93,72005,1,0,0:0:0:0:
197,384,72229,5,8,0:1:0:0:
419,162,72453,1,0,0:0:0:0:
123,90,72677,1,8,0:0:0:0:
330,359,72901,2,0,L|387:357,1,56.25,0|0,0:0|0:0,0:0:0:0:
512,245,73124,6,0,L|369:239,1,112.5,8|0,0:1|0:0,0:0:0:0:
275,149,73460,1,0,0:0:0:0:
173,244,73572,2,0,P|168:302|167:368,1,112.5,8|0,0:0|0:0,0:0:0:0:
506,180,74020,6,0,P|505:127|499:61,1,112.5,12|0,0:1|0:0,0:0:0:0:
303,193,74356,1,0,0:0:0:0:
303,193,74468,2,0,P|239:199|190:193,1,112.5,8|0,0:0|0:0,0:0:0:0:
0,46,74804,1,0,0:0:0:0:
0,46,74916,6,0,P|1:99|7:165,1,112.5,12|0,0:1|0:0,0:0:0:0:
233,340,75252,1,0,0:0:0:0:
233,340,75364,2,0,L|233:227,1,112.5,8|0,0:0|0:0,0:0:0:0:
464,320,75811,5,8,0:1:0:0:
48,128,76035,1,8,0:1:0:0:
384,16,76259,1,8,0:1:0:0:
160,384,76483,1,8,0:1:0:0:
489,199,76707,1,8,0:1:0:0:
377,76,76819,6,0,L|264:83,1,112.5,4|0,0:0|0:0,0:0:0:0:
211,240,77155,2,0,L|342:233,1,112.5,8|0,0:0|0:0,0:0:0:0:
113,114,77490,1,0,0:0:0:0:
4,209,77602,6,0,L|17:334,1,107.999996704102,14|0,0:0|0:0,0:0:0:0:
254,238,78050,2,0,L|268:123,1,107.999996704102,12|0,0:0|0:0,0:0:0:0:
375,216,78385,1,2,0:0:0:0:
375,216,78498,6,0,L|432:221,1,53.9999983520508,4|0,0:3|0:0,0:0:0:0:
496,82,78721,2,0,L|386:89,1,107.999996704102,4|8,0:0|0:0,0:0:0:0:
113,330,79169,5,0,0:0:0:0:
113,330,79281,1,0,0:0:0:0:
113,330,79393,2,0,L|110:399,1,53.9999983520508,2|0,0:0|0:0,0:0:0:0:
238,222,79617,5,0,0:0:0:0:
238,222,79729,1,0,0:0:0:0:
238,222,79841,2,0,L|244:141,1,53.9999983520508,8|0,0:0|0:0,0:0:0:0:
12,217,80065,5,0,0:0:0:0:
12,217,80177,1,0,0:0:0:0:
12,217,80289,2,0,L|6:298,1,53.9999983520508,2|0,0:0|0:0,0:0:0:0:
120,105,80513,2,0,L|125:30,1,53.9999983520508,0|0,0:0|0:0,0:0:0:0:
170,244,80736,5,8,0:0:0:0:
446,191,80960,1,0,0:0:0:0:
446,191,81072,1,0,0:0:0:0:
446,191,81184,6,0,P|387:181|320:177,1,107.999996704102,6|0,0:0|0:0,0:0:0:0:
27,199,81632,2,0,P|26:152|43:81,1,107.999996704102,12|0,0:0|0:0,0:0:0:0:
183,37,81967,1,2,0:0:0:0:
183,37,82080,6,0,L|188:94,1,53.9999983520508,4|0,0:3|0:0,0:0:0:0:
149,214,82304,2,0,L|271:205,1,107.999996704102,4|8,0:0|0:0,0:0:0:0:
447,151,82751,5,0,0:0:0:0:
447,151,82863,1,0,0:0:0:0:
447,151,82975,2,0,L|444:82,1,53.9999983520508,2|0,0:0|0:0,0:0:0:0:
301,300,83199,5,0,0:0:0:0:
301,300,83311,1,0,0:0:0:0:
301,300,83423,2,0,L|304:363,1,53.9999983520508,8|0,0:0|0:0,0:0:0:0:
165,122,83646,5,0,0:0:0:0:
165,122,83758,1,0,0:0:0:0:
165,122,83871,2,0,L|159:41,1,53.9999983520508,2|0,0:0|0:0,0:0:0:0:
41,291,84095,2,0,L|48:369,1,53.9999983520508,0|0,0:0|0:0,0:0:0:0:
276,148,84318,6,0,L|269:214,1,53.9999983520508,8|0,0:0|0:0,0:0:0:0:
15,69,84542,2,0,L|22:143,1,53.9999983520508,0|0,0:0|0:0,0:0:0:0:
175,300,84766,6,0,P|226:281|298:268,1,107.999996704102,2|8,0:0|0:0,0:0:0:0:
448,364,85102,2,0,P|377:369|322:365,1,107.999996704102,2|0,0:0|0:0,0:0:0:0:
169,157,85662,5,2,0:0:0:0:
131,174,85774,1,0,0:0:0:0:
106,209,85886,1,8,0:0:0:0:
203,353,85998,6,0,L|197:225,1,107.999996704102,2|0,0:0|0:0,0:0:0:0:
196,224,86558,1,8,0:0:0:0:
194,203,87005,5,8,0:1:0:0:
167,109,87117,1,8,0:1:0:0:
229,34,87229,1,8,0:1:0:0:
325,43,87341,1,8,0:1:0:0:
374,126,87453,1,8,0:1:0:0:
319,312,87677,5,8,0:1:0:0:
512,231,87901,1,0,0:0:0:0:
512,231,88013,1,8,0:0:0:0:
41,99,88349,5,14,0:0:0:0:
256,192,88461,12,0,89692,0:0:0:0:
