osu file format v5

[General]
AudioFilename: 13 - FIRE!! (TV Size).mp3
AudioLeadIn: 0
PreviewTime: -1
Countdown: 1
SampleSet: Normal
StackLeniency: 0.7
Mode: 0
LetterboxInBreaks: 1

[Metadata]
Title:FIRE!! (TV Size)
Artist:Wada Kouji
Creator:Ekaru
Version:Normal
Source:
Tags:

[Difficulty]
HPDrainRate:5
CircleSize:3
OverallDifficulty:5
SliderMultiplier:1.4
SliderTickRate:2

[Events]
//Background and Video events
0,0,"digimon_1_800.jpg"
//Break Periods
//Storyboard Layer 0 (Background)
//Storyboard Layer 1 (Failing)
//Storyboard Layer 2 (Passing)
//Storyboard Layer 3 (Foreground)
//Storyboard Sound Samples
//Background Colour Transformations
3,100,163,162,255

[TimingPoints]
17884,361.707258258982,4,1,0,70,1

[HitObjects]
184,192,18245,6,0,B|344:192,3,140,8|0|0|8
496,192,19873,1,0
496,360,20415,5,8
384,360,20777,1,0
272,360,21139,1,0
272,248,21501,1,8
384,248,21862,2,0,B|344:168|280:144|200:152|168:312|32:120,1,420,0|8
128,56,23309,5,0
128,56,23490,1,0
240,56,23852,1,0
240,56,24033,1,8
32,360,26203,5,0
104,272,26564,1,4
328,272,27288,5,4
328,40,28011,5,4
96,40,28735,5,4
400,192,29820,5,2
288,192,30182,1,0
176,192,30543,1,0
64,192,30905,2,0,B|48:264|112:336|216:320,1,210,2|0
344,248,31990,5,2
424,168,32352,1,0
464,272,32713,1,0
384,352,33075,1,2
272,352,33437,2,0,B|192:368|104:312|120:208,1,210
208,96,34522,5,8
208,208,34884,1,8
304,152,35245,2,8,B|480:288|224:344,1,280,8|8
256,336,36331,5,0
144,336,36692,1,0
144,224,37054,1,8
144,224,37235,1,8
144,112,37597,1,0
256,112,37958,2,2,B|352:136|384:216|344:288,1,210
416,72,40309,5,4
416,240,40852,1,4
144,248,41756,6,4,B|80:200|88:104|160:56,1,210
256,328,43203,5,0
256,216,43565,1,0
480,216,44288,1,0
480,104,44650,1,0
368,104,45012,1,0
368,272,45554,1,0
368,272,45735,1,0
256,272,46097,6,4,B|96:272,1,140
116,272,46639,1,4
336,96,47543,5,4
448,96,47905,1,4
448,96,48086,2,4,B|448:248,1,140
280,272,48990,6,0,B|280:64,1,140
280,132,49533,2,0,B|120:128,1,140
32,256,50437,2,0,B|32:88,1,140
32,116,50980,2,0,B|184:112,1,140
256,192,51884,12,4,56224
112,64,56767,6,0,B|384:64,1,210
424,328,58214,6,0,B|136:328,1,280
64,160,59480,6,0,B|352:160,1,280
208,256,60746,6,0,B|384:256,3,140,8|2|2|4
216,112,62554,6,0,B|216:320,1,140
216,256,63097,1,0
328,248,63459,1,0
328,248,63639,2,0,B|328:88,2,140
328,248,64544,5,0
440,248,64905,1,0
440,360,65267,1,0
328,360,65629,2,0,B|240:352|192:280|176:200|216:136,1,280,0|4
48,352,68161,6,0,B|368:352,1,280
400,136,69608,6,0,B|112:136,1,280
328,216,71054,6,0,B|40:216,1,280
48,216,71959,1,0
48,104,72320,1,0
160,104,72682,2,2,B|272:104|328:184|344:240|328:328,1,280
424,80,74129,5,0
424,248,74672,1,0
328,192,75033,1,0
224,144,75395,1,8
224,144,75576,1,8
256,304,76118,5,0
256,304,76480,1,0
392,200,77023,2,0,B|392:112|352:56|264:16|184:40|128:96,1,350,0|4
480,48,79012,5,0
368,48,79374,1,0
240,160,79916,2,2,B|392:160,2,140
40,328,81906,5,0
40,216,82267,1,0
144,88,82810,2,2,B|144:248,2,140
440,344,84799,5,0
352,272,85161,1,0
440,200,85523,1,0
440,200,85704,2,2,B|440:48,2,140
256,192,87512,12,4,89321
