osu file format v5

[General]
AudioFilename: Wada Kouji - Butterfly.mp3
AudioLeadIn: 0
PreviewTime: -1
Countdown: 1
SampleSet: Normal
StackLeniency: 1
Mode: 0
LetterboxInBreaks: 1
EditorBookmarks: 82138,91047,154320,160138

[Metadata]
Title:Butterfly
Artist:Wada Kouji
Creator:Ekaru
Version:Hard
Source:Digimon Adventure
Tags:Digimon rock j-pop

[Difficulty]
HPDrainRate:5
CircleSize:4
OverallDifficulty:7
SliderMultiplier:1.4
SliderTickRate:2

[Events]
//Background and Video events
0,0,"Whee.JPG"
//Break Periods
2,82499,89707
//Storyboard Layer 0 (Background)
//Storyboard Layer 1 (Failing)
//Storyboard Layer 2 (Passing)
//Storyboard Layer 3 (Foreground)
//Storyboard Sound Samples
//Background Colour Transformations
3,100,163,162,255

[TimingPoints]
18300,363.636363636364,4,1,0,80,1

[Colours]
Combo1 : 255,47,47
Combo2 : 250,245,78
Combo3 : 0,0,0
Combo4 : 254,193,82

[HitObjects]
32,192,18118,1,8
32,192,18300,2,8,B|92:120|152:192,5,140
368,192,20845,2,0,B|208:128|272:288,1,210
208,280,21572,1,0
152,280,21754,1,0
96,280,21936,2,0,B|24:248|64:160,1,140
63,162,22481,1,0
176,160,22845,2,8,B|112:112|168:32|248:64,1,140
312,40,23572,5,0
312,40,23754,1,0
312,40,23936,1,0
312,40,24118,2,0,B|408:64|416:144|296:176,1,210
400,240,25027,5,0
344,240,25209,1,0
288,240,25390,2,2,B|144:240,1,140
144,184,25936,1,0
144,128,26118,2,2,B|304:128,1,140
288,72,26663,2,0,B|360:88|392:160,1,140
256,192,27390,12,0,29572
256,32,29754,5,0
200,128,30118,1,0
256,128,30300,1,0
312,128,30481,1,0
312,184,30663,2,0,B|312:328,1,140
256,328,31209,2,0,B|200:328|176:312|152:288|128:264|120:232|120:208,2,140
200,176,32481,5,0
200,176,32663,2,0,B|288:200|344:128,1,140
329,144,33209,1,0
329,144,33390,2,0,B|368:240|456:224,1,140
432,168,33936,1,0
432,112,34118,1,0
336,48,34481,2,0,B|184:48,1,140
80,48,35209,5,0
80,104,35390,1,0
136,104,35572,1,0
136,160,35754,2,12,B|216:160|272:224|240:304,1,210
352,304,36663,6,0,B|400:304|456:288|488:228|496:200,1,140,0|12
424,136,37390,1,0
424,136,37572,1,0
424,136,37754,2,0,B|344:144|312:56,1,140,0|12
256,64,38300,2,0,B|176:64,1,70
256,192,39027,12,0,40845
256,352,41027,5,0
256,352,41209,1,0
256,352,41390,1,0
256,296,41572,1,0
256,184,41936,1,0
368,184,42300,1,0
368,184,42481,1,0
368,72,42845,2,0,B|304:32|284:23|255:23|208:40|184:48|168:88,1,210
64,192,43936,5,0
120,192,44118,1,0
176,192,44300,1,0
120,192,44481,1,0
120,136,44663,1,0
120,80,44845,2,0,B|208:80,1,70
248,80,45209,1,0
288,120,45390,1,0
296,176,45572,2,0,B|376:232|384:256|344:304|304:344|272:352|184:312|112:336,1,350,0|14
144,216,46845,5,0
144,216,47027,1,0
144,216,47209,1,0
144,160,47390,2,0,B|144:8,2,140
200,160,48300,2,0,B|272:160,1,70
272,216,48663,2,0,B|352:224|400:256|416:296|352:368|256:376|184:288,1,350
128,216,49936,5,0
240,168,50300,1,0
296,168,50481,1,0
352,168,50663,1,0
408,168,50845,2,0,B|477:232|408:296,1,140
360,288,51390,1,0
304,288,51572,2,0,B|241:335|160:280,1,140
112,288,52118,1,0
112,232,52300,2,0,B|236:88|352:232,3,280
376,104,55027,6,10,B|288:104,1,70
248,104,55390,1,10
248,104,55572,1,10
160,32,55936,5,0
160,32,56118,2,0,B|88:48|88:104|184:104,1,140
168,160,56663,2,0,B|88:192|128:288|248:208|72:344,1,210
48,224,57572,1,0
48,112,57936,1,0
48,112,58118,1,0
160,112,58481,1,0
160,112,58663,1,0
160,112,58845,2,0,B|192:56|244:28|319:31|360:56|400:120,1,280
464,256,60118,5,0
416,224,60300,1,0
368,192,60481,2,0,B|304:136,1,70
256,56,61027,1,0
256,112,61209,1,0
256,168,61390,1,0
256,224,61572,1,0
256,280,61754,2,0,B|168:272|160:192|176:96,1,210
172,117,62481,5,0
72,64,62845,1,8
72,64,63027,1,8
72,64,63209,1,8
72,176,63572,1,8
72,176,63754,1,8
72,176,63936,2,8,B|151:241|48:312,1,140,8|2
184,264,64663,5,0
184,328,64845,1,0
248,328,65027,1,0
248,264,65209,1,0
312,264,65390,1,0
312,328,65572,1,0
376,328,65754,1,0
376,264,65936,1,0
440,264,66118,1,0
504,152,66481,1,0
504,152,66663,1,0
424,64,67027,1,0
424,64,67209,2,0,B|272:64,1,140
224,64,67754,6,0,B|224:224,1,140
168,208,68300,2,0,B|104:264|32:200,1,140
40,152,68845,2,0,B|128:128|136:48,2,140
40,208,69754,1,0
152,208,70118,1,0
152,208,70300,1,0
152,208,70481,2,4,B|128:144|200:104|288:136|312:200|272:272,1,280
360,112,71754,5,0
304,112,71936,1,0
248,112,72118,1,0
192,112,72300,2,0,B|192:200,1,70
136,184,72663,1,0
80,184,72845,1,0
80,128,73027,1,0
80,72,73209,1,0
80,16,73390,2,0,B|296:16,1,210
344,16,74118,6,0,B|376:104|464:80|480:8,1,140
452,55,74663,1,0
452,55,74845,1,0
456,168,75209,1,0
456,168,75390,1,0
456,168,75572,2,0,B|464:272|344:312|304:264,1,210
208,280,76481,6,4,B|120:272|112:176,3,140
224,192,77936,2,4,B|312:184|320:88,3,140
424,72,79390,2,4,B|368:24|344:24|288:24|224:24|176:48|128:104|112:160|120:216|160:264|264:312,2,560,2|2|12
256,192,91027,5,8
200,192,91209,1,8
256,192,91390,1,8
200,192,91572,1,8
256,192,91754,2,8,B|336:248|248:312,1,140
200,304,92300,2,8,B|112:304,1,70
72,304,92663,2,8,B|-40:201|104:96,1,210
144,40,93572,5,0
144,96,93754,2,0,B|144:248,1,140
144,288,94300,1,0
200,288,94481,1,0
256,288,94663,2,0,B|324:352|384:280,1,140
432,288,95209,2,0,B|432:216,1,70
488,216,95572,2,0,B|480:136|440:80|376:32,1,210
325,59,96300,5,0
328,112,96481,1,0
272,112,96663,1,0
272,56,96845,1,0
216,56,97027,2,0,B|128:72|96:120|88:208,1,210
88,256,97754,5,0
88,256,97936,1,0
88,256,98118,2,0,B|160:328|216:240,1,140
264,256,98663,1,0
320,256,98845,2,0,B|384:304|464:248,1,140
448,200,99390,2,0,B|384:144|312:200,1,140
256,192,100300,12,0,102300
32,304,102481,6,0,B|32:224,1,70
88,304,102845,2,0,B|88:224,1,70
144,304,103209,2,0,B|144:232,1,70
232,304,103754,1,0
232,304,103936,2,0,B|312:304,1,70
302,304,104300,2,0,B|392:248|392:192|288:144,1,210
256,48,105209,5,0
256,48,105390,1,0
256,160,105754,1,0
256,160,105936,1,0
312,160,106118,2,0,B|312:232|312:232|192:232|192:232|160:232,1,210
173,232,106845,1,0
56,232,107209,2,0,B|64:336|160:352|224:344,1,210
256,344,107936,5,0
256,288,108118,1,0
256,232,108300,1,0
256,176,108481,2,0,B|256:104|256:104|472:104,1,280
464,160,109390,5,2
464,272,109754,2,0,B|408:208|320:288,1,140,8|2
280,272,110300,1,8
280,216,110481,2,0,B|264:133|368:125,1,140,2|8
360,72,111027,1,2
360,72,111209,1,0
256,192,111754,12,0,113572
200,24,113754,5,0
256,24,113936,1,0
312,24,114118,1,0
368,24,114300,2,4,B|368:176,2,140
448,40,115300,1,4
488,112,115572,2,4,B|464:200|440:232|416:288|368:320|328:328|280:328|296:328,1,280
256,232,116663,5,0
200,232,116845,1,0
144,232,117027,1,0
88,232,117209,2,0,B|88:152,2,70
24,136,117936,1,0
24,192,118118,1,0
24,248,118300,1,0
24,304,118481,2,0,B|320:304,1,280
424,248,119572,5,0
384,208,119754,1,0
424,168,119936,1,0
424,112,120118,2,4,B|264:112,2,140
336,40,121118,1,4
336,40,121390,2,4,B|248:48|184:72|152:120|128:216,1,280
32,336,122663,5,0
32,336,122845,1,0
32,336,123027,2,0,B|32:184,1,140
32,136,123572,2,0,B|208:136,1,140
224,136,124118,1,0
280,136,124300,2,0,B|280:296,1,140
280,328,124845,1,0
336,328,125027,2,0,B|408:280|432:216|412:146|320:96,3,280
240,160,127572,5,0
240,160,127754,1,0
240,104,127936,1,0
240,104,128027,1,0
240,104,128118,1,0
216,56,128300,1,0
104,64,128663,5,0
104,64,128845,2,0,B|48:112|112:208,1,140
101,191,129390,2,0,B|160:288|288:280|312:216,1,210
368,176,130300,1,0
368,64,130663,1,0
368,64,130845,2,0,B|456:72|496:176,1,140
480,192,131390,1,0
480,248,131572,2,0,B|440:328|376:344|288:336|200:296|184:224,1,350
304,248,132845,5,0
304,192,133027,1,0
304,136,133209,1,0
304,80,133390,1,0
192,80,133754,1,0
192,24,133936,1,0
248,24,134118,1,0
304,24,134300,1,0
360,24,134481,2,2,B|464:32|504:112|488:192,1,210
432,160,135209,5,0
320,160,135572,1,0
320,160,135754,1,0
320,160,135936,2,0,B|208:160|144:200|144:224,1,140
192,296,136663,2,0,B|120:344|48:288,1,140
64,184,137390,6,12,B|64:104,1,70
64,56,137754,2,12,B|136:56,1,70
192,56,138118,1,12
248,56,138300,2,12,B|344:56|376:152,1,140
363,121,138845,1,0
368,232,139209,1,0
368,232,139390,1,0
288,304,139754,1,0
288,304,139936,2,0,B|176:336|208:224,1,140
203,242,140481,6,12,B|144:216|120:184|128:104,1,140
126,136,141027,2,12,B|184:56|248:64|256:96,1,140
296,80,141572,1,12
352,80,141754,1,12
408,80,141936,2,12,B|504:80,1,70
480,136,142300,1,0
456,184,142481,2,0,B|408:248|400:256,1,70
360,240,142845,1,0
304,240,143027,1,0
248,240,143209,2,0,B|160:304|96:280|64:208|96:160|112:112,1,280,0|4
256,48,144481,5,0
256,104,144663,1,0
256,160,144845,2,0,B|344:160,2,70
256,216,145390,1,0
208,248,145572,1,0
256,272,145754,1,0
304,248,145936,1,0
304,192,146118,2,0,B|304:120|376:104|432:128|472:56,1,210
456,16,146845,6,0,B|288:16,1,140
316,16,147390,1,0
312,72,147572,2,0,B|352:120|352:168|280:208,1,140
304,248,148118,1,0
304,304,148300,2,0,B|232:320|144:296|112:224,1,210
256,192,149209,12,0,150481
256,192,150663,12,0,151936
256,192,152118,12,0,154481
