osu file format v5

[General]
AudioFilename: Wada Kouji - Butterfly.mp3
AudioLeadIn: 0
PreviewTime: -1
Countdown: 1
SampleSet: Normal
StackLeniency: 1
Mode: 0
LetterboxInBreaks: 1
EditorBookmarks: 82138,91047,154320,160138

[Metadata]
Title:Butterfly
Artist:Wada Kouji
Creator:Ekaru
Version:Easy
Source:Digimon Adventure
Tags:Digimon rock j-pop

[Difficulty]
HPDrainRate:2
CircleSize:2
OverallDifficulty:3
SliderMultiplier:1.4
SliderTickRate:1

[Events]
//Background and Video events
0,0,"Whee.JPG"
//Break Periods
//Storyboard Layer 0 (Background)
//Storyboard Layer 1 (Failing)
//Storyboard Layer 2 (Passing)
//Storyboard Layer 3 (Foreground)
//Storyboard Sound Samples
//Background Colour Transformations
3,100,163,162,255

[TimingPoints]
18300,363.636363636364,4,1,0,100,1

[Colours]
Combo1 : 255,47,47
Combo2 : 250,245,78
Combo3 : 0,0,0
Combo4 : 254,193,82

[HitObjects]
496,16,18299,1,0
419,97,18663,1,0
408,208,19027,1,0
312,272,19390,2,0,B|200:280|128:240|72:192|96:176|152:160|160:120|256:112|112:48,1,420
11,45,20845,1,0
46,152,21209,5,0
100,249,21572,1,0
209,272,21936,1,0
320,256,22300,2,0,B|408:240|448:208|312:152|224:144|464:136|440:152|466:238|481:200|488:96|368:8,1,420
376,24,23754,6,0,B|307:93|92:28,1,280,0|0
264,224,25209,1,0
392,216,25572,1,0
312,312,25936,1,0
184,336,26300,1,0
96,248,26663,1,0
166,152,27027,2,0,B|163:365|163:365|313:316|400:194|406:87|346:17|278:10|180:9|107:1|107:1|163:126,1,980,2|2
273,134,29936,5,0
271,21,30300,1,0
273,134,30663,1,0
272,248,31027,2,0,B|392:264|288:376|72:368|-12:348|112:224,1,420
53,136,32481,1,0
143,70,32845,5,0
242,18,33209,1,0
144,72,33572,1,0
56,136,33936,2,0,B|24:208|64:312|127:412|216:280|232:192|208:88,1,420
288,208,35390,5,0
288,320,35754,2,0,B|466:164,1,210
292,106,36845,1,0
295,219,37209,1,0
298,329,37572,1,0
185,332,37936,1,0
72,332,38299,2,0,B|7:139,1,140
112,128,39027,2,0,B|204:305|204:305|257:143|257:143|315:301|315:301|395:140,1,700,8|4
496,192,41209,5,4
488,303,41572,1,4
376,304,41936,1,4
264,304,42300,2,4,B|227:218,1,70
240,128,42845,2,4,B|281:60|400:64|432:152,1,210
208,200,44118,5,0
160,304,44481,1,0
272,312,44845,1,0
384,312,45209,1,0
384,200,45572,2,0,B|304:240|216:224|192:104|48:136,1,350
192,48,47027,5,4
304,50,47390,1,4
192,48,47754,1,4
193,158,48118,2,4,B|288:137,1,70
352,196,48663,2,0,B|261:236|212:230|164:231|101:227|54:217,1,280,4|8
104,55,49936,5,0
216,58,50299,1,0
327,50,50663,1,0
402,133,51027,1,0
410,21,51390,1,0
318,86,51754,1,0
295,194,52118,2,2,B|408:265|144:377|491:318|491:318|472:83|472:83|22:53,1,980,2|8
40,168,55027,2,2,B|344:168,1,280
319,267,56118,5,0
207,272,56481,1,0
94,269,56845,1,0
92,156,57209,1,0
82,44,57572,1,0
194,39,57936,1,0
306,41,58299,1,0
416,40,58663,2,2,B|384:144|328:224|184:272|80:248,1,420
49,150,60118,5,0
147,203,60481,1,0
114,95,60845,1,0
207,32,61209,1,0
320,32,61572,2,2,B|424:120|408:224|336:272,1,280
258,193,62663,5,0
145,192,63027,1,0
152,303,63390,1,0
264,306,63754,1,0
262,193,64118,1,0
189,107,64481,5,0
301,108,64845,1,0
189,107,65209,1,0
105,181,65572,1,0
217,183,65936,2,0,B|209:342|209:342|419:293|419:293|249:156,1,560
376,128,67754,5,0
312,32,68118,1,0
247,131,68481,1,0
158,62,68845,1,0
72,136,69209,1,0
70,242,69572,1,0
180,259,69936,1,0
291,264,70299,2,2,B|477:24,1,280,2|8
238,36,71754,5,0
125,36,72118,1,0
123,147,72481,1,0
124,259,72845,1,0
236,261,73209,2,0,B|468:76,1,280
342,88,74299,5,0
230,88,74663,1,0
117,88,75027,1,0
121,199,75390,2,6,B|68:254|188:324|312:281|292:192,1,280
288,315,76481,6,2,B|459:267|525:153|451:10|409:1|265:145|265:145|189:36|66:14|54:101|49:256|119:271|226:311|228:327|228:327|258:353,2,1050,4|10|4
