osu file format v9

[General]
AudioFilename: ButterFly.mp3
AudioLeadIn: 0
PreviewTime: 55649
Countdown: 0
SampleSet: Normal
StackLeniency: 0.7
Mode: 0
LetterboxInBreaks: 1

[Editor]
DistanceSpacing: 0.8
BeatDivisor: 2
GridSize: 8

[Metadata]
Title:Butter-Fly (TV Size)
Artist:Wada Kouji
Creator:LaceWingfield
Version:Normal
Source:Digimon Adventure
Tags:athiota33 anime opening

[Difficulty]
HPDrainRate:3
CircleSize:3
OverallDifficulty:3
ApproachRate:4
SliderMultiplier:1.2
SliderTickRate:2

[Events]
//Background and Video events
Video,0,"Digimon Adventure OP.avi"
0,0,"wallpaper.jpg"
//Break Periods
2,26941,28330
2,38578,39421
//Storyboard Layer 0 (Background)
//Storyboard Layer 1 (Fail)
//Storyboard Layer 2 (Pass)
//Storyboard Layer 3 (Foreground)
//Storyboard Sound Samples
//Background Colour Transformations
3,100,163,162,255

[TimingPoints]
560,363.636363636364,4,1,0,80,1,0
55468,-100,4,2,0,80,0,0
55649,-100,4,1,0,80,0,0
55831,-100,4,1,0,80,0,1
66013,-100,4,2,0,80,0,1
67104,-100,4,1,0,80,0,1
67286,-100,4,1,0,80,0,0
67468,-100,4,1,0,80,0,1
75922,-100,4,1,0,80,0,0
89286,-100,4,1,0,70,0,0

[Colours]
Combo1 : 255,255,255
Combo2 : 0,0,255
Combo3 : 0,128,0
Combo4 : 255,255,0
Combo5 : 255,0,0
Combo6 : 255,150,0

[HitObjects]
248,224,16560,2,0,B|160:312|48:184,2,180,0|8|0
312,296,18014,6,0,B|432:344|408:136,1,240,0|8
408,40,19105,1,0
408,40,19287,1,0
312,40,19650,1,0
216,40,20014,2,0,B|216:144|216:144|136:144,1,180
80,216,20923,6,0,B|16:304|104:360,1,120,0|8
152,288,21650,1,0
248,288,22014,1,0
336,328,22378,2,0,B|392:264|320:216,1,120,0|8
256,88,23469,6,0,B|208:32|144:96,1,120
104,168,24196,1,0
56,248,24560,1,0
192,280,25105,2,0,B|264:344|336:256,2,120
256,152,26378,1,0
256,56,26741,1,4
424,72,29650,22,0,B|480:152|376:216,1,120,0|0
376,264,30378,1,0
296,320,30741,1,0
216,272,31105,1,0
136,216,31469,2,0,B|80:192|80:144|144:112,1,120,0|8
160,32,32196,5,0
208,32,32378,1,0
256,32,32560,1,0
352,32,32923,2,0,B|432:136|320:208,1,180
304,280,33832,1,0
224,336,34196,1,8
128,168,34923,6,0,B|80:120,3,60
152,56,35832,1,0
216,128,36196,1,0
256,192,36560,12,0,38378
424,24,40741,5,0
424,120,41105,1,0
424,168,41287,2,0,B|464:240|400:280,1,120
320,240,42014,1,0
272,240,42196,2,0,B|224:312|168:240,1,120,0|8
64,64,43650,6,0,B|16:128,3,60,0|0|0|8
112,152,44560,1,0
176,224,44923,2,0,B|264:256|264:112,1,120
224,80,45650,1,0
312,48,46014,1,8
400,80,46378,1,0
400,80,46560,6,0,B|400:152,3,60,0|0|0|4
400,240,47469,1,0
400,336,47832,2,0,B|384:376|376:392|344:392|304:384,1,120
312,336,48378,1,0
216,336,48741,1,8
120,336,49105,1,0
64,200,49650,6,0,B|8:144|80:88,1,120
112,96,50196,1,0
160,96,50378,1,0
208,96,50560,1,8
304,96,50923,6,0,B|344:160,2,60
336,216,51650,2,0,B|288:264,2,60,0|0|8
256,192,52196,12,0,54378
360,328,55650,5,0
408,328,55832,2,0,B|464:288|424:208,1,120
424,128,56560,1,0
360,56,56923,1,0
272,88,57287,1,8
184,56,57650,6,0,B|136:96,1,60
64,160,58196,1,0
64,160,58378,1,0
64,160,58560,1,8
72,304,59832,6,0,B|128:352,3,60
216,344,60741,1,0
312,344,61105,2,0,B|360:296|304:240,1,120,0|8
208,240,61832,1,0
272,160,62196,5,0
368,160,62560,1,0
416,248,62923,1,4
464,168,63287,2,0,B|464:96,2,60
256,48,64560,5,0
256,48,64923,2,0,B|184:112|128:40,1,120
56,48,65650,1,0
56,144,66014,2,0,B|0:224|80:240,1,120,4|4
152,296,66741,2,0,B|216:352|256:288,1,120,4|0
352,296,67469,6,0,B|408:256|344:192,1,120
288,120,68196,1,0
224,48,68560,1,0
128,64,68923,1,8
72,136,69287,6,0,B|16:208|120:272,1,120
176,248,70014,1,0
272,248,70378,1,0
368,248,70741,2,0,B|440:248,2,60,0|0|8
360,352,71469,5,0
360,352,71832,2,0,B|320:384|288:384|240:344,1,120
176,288,72560,1,0
176,288,72923,2,0,B|96:248|160:184,1,120,0|8
40,104,73650,5,0
56,64,73832,1,0
72,24,74014,1,0
152,96,74378,2,0,B|216:176|272:80,1,120
328,160,75105,2,0,B|368:208,2,60
392,232,75832,1,8
352,320,76196,5,0
256,328,76560,1,0
160,312,76923,1,0
160,216,77287,2,0,B|160:96,3,120,0|8|0|0
160,96,78741,1,0
72,128,79105,1,4
72,224,79469,5,0
72,224,79832,2,0,B|16:280|88:328,1,120
176,312,80560,1,8
272,328,80923,2,0,B|312:280,4,60,0|0|0|0|8
368,344,82014,5,0
368,344,82378,2,0,B|432:288|384:240,1,120
392,144,83105,1,8
320,80,83469,1,0
280,56,83650,1,0
240,80,83832,1,0
176,144,84196,2,0,B|136:208|192:264,1,120,0|4
136,328,84923,5,0
232,328,85287,2,0,B|352:328,2,120
240,232,86378,5,0
184,152,86741,1,8
240,80,87105,1,0
296,152,87469,1,0
384,96,87832,6,0,B|448:176|448:264|344:320,1,240
288,352,88923,1,8
256,192,89287,12,4,92741
