osu file format v9

[General]
AudioFilename: ButterFly.mp3
AudioLeadIn: 0
PreviewTime: 55649
Countdown: 0
SampleSet: Normal
StackLeniency: 0.7
Mode: 0
LetterboxInBreaks: 1

[Editor]
DistanceSpacing: 0.6
BeatDivisor: 1
GridSize: 4

[Metadata]
Title:Butter-Fly (TV Size)
Artist:Wada Kouji
Creator:LaceWingfield
Version:Easy
Source:Digimon Adventure
Tags:athiota33 anime opening

[Difficulty]
HPDrainRate:2
CircleSize:3
OverallDifficulty:2
ApproachRate:3
SliderMultiplier:0.8
SliderTickRate:2

[Events]
//Background and Video events
Video,0,"Digimon Adventure OP.avi"
0,0,"wallpaper.jpg"
//Break Periods
2,18214,19483
2,26941,28210
//Storyboard Layer 0 (Background)
//Storyboard Layer 1 (Fail)
//Storyboard Layer 2 (Pass)
//Storyboard Layer 3 (Foreground)
//Storyboard Sound Samples
//Background Colour Transformations
3,100,163,162,255

[TimingPoints]
560,363.636363636364,4,1,0,80,1,0
55831,-100,4,1,0,80,0,1
66013,-100,4,2,0,80,0,1
67468,-100,4,1,0,80,0,1
75922,-100,4,1,0,80,0,0
78378,-100,4,1,0,10,0,0
78741,-100,4,1,0,80,0,0
89286,-100,4,1,0,70,0,0

[Colours]
Combo1 : 255,255,255
Combo2 : 0,0,255
Combo3 : 0,128,0
Combo4 : 255,255,0
Combo5 : 255,0,0
Combo6 : 255,150,0

[HitObjects]
312,256,560,1,0
312,256,1287,2,0,B|360:240|368:200|360:160|312:160|312:160|312:104|296:80|266:74|240:80|224:104|224:160|224:160|176:160|168:200|176:240|232:256,1,480,0|4
152,320,4196,2,0,B|120:376|32:376|8:296,2,160
152,224,6378,1,8
96,144,7105,6,0,B|64:104|104:72,2,80
192,120,8560,2,0,B|296:96|392:136,2,160,0|8|0
248,208,10741,1,0
200,288,11469,1,0
288,288,12196,1,4
376,328,12923,6,0,B|432:288|424:256|408:216|408:216|432:200|440:168|424:144|392:112|392:112|328:128,1,320,0|8
232,136,15105,1,0
200,48,15832,1,0
256,192,16560,12,0,18014
104,72,20923,5,0
56,160,21650,2,0,B|8:240|72:328,1,160,0|8
160,312,23105,1,0
208,312,23469,2,0,B|376:312,1,160,0|0
416,224,24923,5,0
392,128,25650,1,0
328,56,26378,2,0,B|304:88|280:88|256:64,1,80,0|4
96,88,29650,5,0
40,164,30378,1,8
104,232,31105,2,0,B|176:304|248:232,1,160
332,200,32560,5,0
388,124,33287,1,8
316,60,34014,1,0
260,132,34741,2,0,B|204:188|236:44,2,80
88,56,36560,5,0
88,104,36923,2,0,B|88:264,1,160
176,312,38378,1,4
272,336,39105,1,0
368,312,39832,2,0,B|424:248|376:160,1,160,0|8
312,96,41287,5,0
240,160,42014,2,0,B|176:208,2,80
176,88,43469,1,0
88,128,44196,5,8
96,224,44923,2,0,B|64:312|112:384,1,160
204,360,46378,1,0
304,360,47105,5,4
304,360,47832,2,0,B|368:296|336:208,1,160,0|8
288,128,49287,5,0
264,88,49650,1,0
216,80,50014,2,0,B|128:160|208:240,1,160,0|8
192,272,51105,1,0
192,320,51469,2,0,B|272:368|352:320,1,160
256,192,52923,12,0,54378
256,192,55832,5,4
304,272,56560,2,0,B|376:344|448:280,1,160
448,232,57650,1,8
448,184,58014,2,0,B|448:104,1,80
408,80,58741,1,0
216,80,60196,5,8
136,136,60923,2,0,B|40:224|176:288,1,160,0|4
184,352,62378,1,0
280,352,63105,1,8
368,352,63832,1,0
464,336,64560,6,0,B|512:256|464:160,2,160,0|0|4
408,256,66741,1,4
328,200,67469,6,0,B|392:168|392:120|312:88,1,160
272,88,68560,1,8
224,92,68923,6,0,B|160:124|160:172|240:204,1,160
236,252,70014,1,0
236,300,70378,2,0,B|292:372|388:300,1,160,0|8
324,228,71832,5,0
352,136,72560,1,0
272,84,73287,1,4
236,172,74014,2,0,B|140:244|212:316,1,160,0|8
224,348,75105,2,0,B|288:396|376:356,1,160
256,192,76196,12,0,78741
256,192,79105,5,4
184,248,79832,2,0,B|112:320|184:392,1,160
272,352,81287,1,0
352,296,82014,5,0
432,240,82741,2,0,B|472:168|416:80,1,160
328,88,84196,1,4
248,144,84923,5,0
192,224,85650,2,0,B|152:296|152:296|120:224,1,160
120,176,86741,1,8
120,128,87105,2,0,B|160:56|160:56|192:128,1,160
248,208,88560,1,8
256,192,89287,12,4,92741
