osu file format v9

[General]
AudioFilename: 02 - Butter-Fly (TV Size).mp3
AudioLeadIn: 2000
PreviewTime: 55512
Countdown: 0
SampleSet: Normal
StackLeniency: 0.7
Mode: 1
LetterboxInBreaks: 0

[Editor]
DistanceSpacing: 0.8
BeatDivisor: 2
GridSize: 8

[Metadata]
Title:Butter-Fly (TV Size)
Artist:Wada Kouji
Creator:Ekaru
Version:Taiko Kantan
Source:Digimon Adventure
Tags:

[Difficulty]
HPDrainRate:4
CircleSize:5
OverallDifficulty:5
ApproachRate:5
SliderMultiplier:1.4
SliderTickRate:2

[Events]
//Background and Video events
0,0,"butterfly.PNG"
//Break Periods
//Storyboard Layer 0 (Background)
//Storyboard Layer 1 (Fail)
//Storyboard Layer 2 (Pass)
//Storyboard Layer 3 (Foreground)
//Storyboard Sound Samples
//Background Colour Transformations
3,100,163,162,255

[TimingPoints]
564,363.636363636364,4,1,0,100,1,0
55837,-100,4,1,0,100,0,1
79109,-100,4,1,0,100,0,0

[Colours]
Combo1 : 0,255,255
Combo2 : 243,89,34
Combo3 : 112,196,193
Combo4 : 255,0,0

[HitObjects]
176,240,564,1,4
160,256,3473,1,4
208,280,6382,1,0
208,280,7109,1,0
208,280,7836,1,0
208,280,9291,1,0
208,280,10018,1,0
208,280,10745,1,0
208,280,12200,1,0
208,280,12927,1,0
208,280,13654,1,0
208,280,15109,1,0
208,280,15836,1,0
208,280,16564,1,0
208,280,18018,1,0
208,280,18745,1,0
208,280,19473,5,2
208,280,20927,5,0
208,280,21654,1,0
208,280,22382,5,2
208,280,23836,5,0
208,280,24200,1,0
208,280,25291,1,0
208,280,26018,1,0
208,280,26745,1,0
208,280,27109,1,0
208,280,27473,5,2
208,280,28200,5,0
208,280,28564,1,0
208,280,28927,1,0
208,280,29654,1,0
208,280,30382,1,0
208,280,31109,5,2
208,280,32564,5,0
208,280,33291,1,0
208,280,34018,5,2
208,280,35473,5,4
208,280,36927,1,0
208,280,37654,1,0
208,280,38382,1,0
208,280,38745,1,0
208,280,39109,5,2
208,280,39836,5,0
208,280,40200,1,0
208,280,40564,1,0
208,280,41291,1,0
208,280,42382,5,2
208,280,42745,5,0
208,280,43836,5,2
208,280,44200,5,0
208,280,45291,5,2
208,280,45654,5,0
208,280,46745,1,0
208,280,47109,5,2
208,280,48200,5,0
208,280,48564,5,2
208,280,50018,5,0
208,280,50745,1,0
208,280,51473,1,0
208,280,52200,1,0
208,280,52927,1,0
208,280,53291,1,0
208,280,53654,1,0
208,280,54018,1,0
256,192,54382,12,0,55291
152,272,55836,21,0
152,272,56564,1,0
152,272,56927,1,0
152,272,57291,1,0
152,272,58018,1,0
152,272,58745,1,0
152,272,60200,5,2
152,272,60927,1,2
152,272,61654,1,2
152,272,63109,5,0
152,272,63836,1,0
152,272,64564,1,0
152,272,64927,1,0
152,272,65291,1,0
152,272,66018,1,0
152,272,66745,1,0
152,272,67473,1,0
152,272,68200,1,0
152,272,68927,1,0
152,272,69291,1,0
152,272,69654,1,0
152,272,70382,1,0
152,272,70745,1,0
152,272,71836,5,2
240,264,72564,1,2
240,264,73291,1,2
240,264,74745,5,0
240,264,76200,1,0
240,264,76564,1,0
240,264,76927,1,0
240,264,77654,1,0
240,264,78018,1,0
240,264,78382,1,0
240,264,79109,1,0
240,264,80564,5,2
240,264,82018,5,0
240,264,83473,5,2
240,264,84927,5,0
240,264,86382,5,2
112,152,87836,2,0,B|464:144|464:144|464:352,1,560
240,264,90745,1,0
192,280,92200,1,4
