osu file format v9

[General]
AudioFilename: ButterFly.mp3
AudioLeadIn: 0
PreviewTime: 55509
Countdown: 1
SampleSet: Normal
StackLeniency: 0.7
Mode: 0
LetterboxInBreaks: 1

[Editor]
DistanceSpacing: 0.8
BeatDivisor: 2
GridSize: 8

[Metadata]
Title:Butter-Fly (TV Edit)
Artist:Wada Kouji
Creator:Ekaru
Version:Old Style
Source:Digimon Adventure
Tags:Size Dejimon butterfly ztrot

[Difficulty]
HPDrainRate:5
CircleSize:4
OverallDifficulty:5
ApproachRate:5
SliderMultiplier:1.5
SliderTickRate:2

[Events]
//Background and Video events
0,0,"BUTTERFLY.jpg"
Video,0,"Digimon Adventure OP.avi"
//Break Periods
//Storyboard Layer 0 (Background)
//Storyboard Layer 1 (Fail)
//Storyboard Layer 2 (Pass)
//Storyboard Layer 3 (Foreground)
//Storyboard Sound Samples
//Background Colour Transformations
3,100,163,162,255

[TimingPoints]
564,363.636363636364,4,1,0,100,1,0
19109,-100,4,1,0,80,0,0
20200,-100,4,1,0,100,0,0
23109,-100,4,1,0,70,0,0
26745,-100,4,1,0,100,0,0
31135,-100,4,2,0,100,0,0
32044,-100,4,1,0,100,0,0
36018,-100,4,1,0,70,0,0
38382,-100,4,1,0,90,0,0
39836,-100,4,1,0,100,0,0
55836,-100,4,1,0,100,0,1
79109,-100,4,1,0,100,0,0

[HitObjects]
184,128,18018,2,0,B|256:80|334:135,2,150
216,240,19109,2,0,B|312:240,1,75
256,352,19654,1,4
352,88,20564,6,0,B|304:24|208:24|152:88,1,225
175,157,21291,2,0,B|327:157,1,150
256,256,22018,1,0
256,256,22200,1,0
136,256,22564,1,4
368,328,23291,6,0,B|256:376|144:328,1,225
144,120,24745,5,0
144,120,24927,1,0
144,120,25109,1,4
256,120,25473,1,0
256,120,25654,1,0
256,120,25836,1,4
368,120,26200,1,0
368,120,26382,1,4
256,224,26745,5,4
256,352,27109,2,0,B|104:352|104:352|104:208|104:208|24:208,1,375
184,32,28564,2,2,B|32:32,2,150
256,32,29473,5,4
256,152,29836,2,0,B|184:168|136:240|184:328,1,225
288,264,30745,1,0
472,264,31291,1,2
472,264,31473,1,2
360,264,31836,1,4
288,376,32200,5,2
232,328,32382,2,0,B|232:160,1,150
176,120,32927,1,2
224,48,33109,2,0,B|72:48,1,150,0|2
152,184,33836,1,8
152,184,34200,1,4
88,304,35109,6,0,B|160:360|304:368|360:248,1,300
368,80,36382,5,0
368,80,36563,1,0
368,80,36745,1,4
256,80,37109,1,0
256,80,37291,1,0
256,80,37473,1,4
144,80,37836,1,0
144,80,38018,1,0
144,80,38200,1,0
144,80,38382,1,4
200,184,38745,6,0,B|200:272,1,75
271,258,39109,2,0,B|351:258,1,75
346,187,39473,2,0,B|258:187,1,75
352,100,40018,1,0
424,88,40200,1,0
415,226,40564,1,0
392,360,40927,1,0
256,352,41291,5,4
256,208,41654,1,4
216,80,42018,1,2
296,80,42200,1,2
256,280,42563,1,4
322,27,43654,6,0,B|394:43|458:99|468:189,1,225
400,288,44563,1,0
280,288,44927,1,0
240,176,45291,1,0
240,176,45473,1,0
344,120,45836,1,4
256,352,47109,5,4
256,208,47473,1,4
296,80,47836,1,2
216,80,48018,1,2
256,280,48382,1,4
256,136,49654,5,0
168,192,50018,1,4
344,192,50564,1,4
256,368,51291,1,4
256,192,52018,12,4,54382
155,152,55836,6,0,B|212:100|304:96|367:160,2,225,4|0|2
192,256,57291,1,0
320,256,57654,1,2
320,256,57836,1,0
256,360,58200,1,0
256,360,58382,1,2
256,360,58564,1,2
256,32,59836,6,0,B|320:88|192:112|264:168,1,150
144,200,60564,1,8
256,248,60928,1,0
368,200,61292,1,8
400,88,61654,1,4
256,72,62200,5,0
192,176,62564,1,0
192,176,62745,1,0
192,176,62927,1,4
320,176,63291,1,0
320,176,63473,1,0
320,176,63654,1,4
144,96,64564,5,0
144,216,64927,1,8
256,160,65291,1,0
256,40,65654,1,8
360,96,66018,1,0
360,216,66382,1,8
256,280,66745,1,0
360,352,67109,1,8
480,352,67473,6,0,B|536:296|544:200|464:136,2,225,4|0|0
448,224,68927,1,0
256,224,69473,1,0
320,360,69836,1,0
256,320,70018,1,0
192,360,70200,1,4
352,120,71473,6,0,B|304:64|200:64|144:120,1,225
128,232,72382,2,0,B|168:312|248:328|336:312|376:224,1,300,0|4
256,368,73836,5,4
144,360,74200,1,0
144,360,74382,1,0
144,360,74563,1,4
32,352,74927,1,0
32,352,75109,1,0
32,352,75291,1,4
192,72,76200,6,0,B|136:144|200:224,3,150,0|0|0|4
312,208,77654,2,0,B|368:136|304:64,3,150,0|0|0|4
256,192,79109,12,4,84018
