osu file format v9

[General]
AudioFilename: ButterFly.mp3
AudioLeadIn: 0
PreviewTime: 55509
Countdown: 1
SampleSet: Normal
StackLeniency: 0.7
Mode: 0
LetterboxInBreaks: 1

[Editor]
DistanceSpacing: 0.8
BeatDivisor: 2
GridSize: 8

[Metadata]
Title:Butter-Fly (TV Edit)
Artist:Wada Kouji
Creator:Ekaru
Version:Hard
Source:Digimon Adventure
Tags:Size Dejimon butterfly ztrot

[Difficulty]
HPDrainRate:7
CircleSize:4
OverallDifficulty:7
ApproachRate:7
SliderMultiplier:1.8
SliderTickRate:2

[Events]
//Background and Video events
0,0,"BUTTERFLY.jpg"
Video,0,"Digimon Adventure OP.avi"
//Break Periods
//Storyboard Layer 0 (Background)
//Storyboard Layer 1 (Fail)
//Storyboard Layer 2 (Pass)
//Storyboard Layer 3 (Foreground)
//Storyboard Sound Samples
//Background Colour Transformations
3,100,163,162,255

[TimingPoints]
564,363.636363636364,4,1,0,100,1,0
19109,-100,4,1,0,80,0,0
20200,-100,4,1,0,100,0,0
23109,-100,4,1,0,70,0,0
26745,-100,4,1,0,100,0,0
36018,-100,4,1,0,70,0,0
38382,-100,4,1,0,90,0,0
39836,-100,4,1,0,100,0,0
55836,-100,4,1,0,100,0,1
70382,-100,4,1,0,70,0,1
71473,-100,4,1,0,90,0,1
72291,-100,4,1,0,100,0,1
79109,-100,4,1,0,100,0,0

[HitObjects]
256,40,17836,1,0
256,40,18018,1,4
256,328,18745,1,0
328,200,19109,1,0
328,200,19291,1,8
184,200,19654,1,8
488,32,20563,5,0
488,104,20745,2,0,B|488:164|488:164|488:208|456:224|432:220|400:208|408:160,1,180
346,232,21291,2,0,B|154:232,1,180
182,366,22018,1,0
182,366,22200,1,8
326,366,22563,1,8
256,32,23291,5,0
256,104,23473,1,8
256,176,23654,1,8
256,248,23836,1,4
256,248,24018,1,0
184,32,24745,5,0
176,104,24927,1,0
152,176,25109,1,2
328,32,25473,1,0
336,104,25654,1,0
360,176,25836,1,2
379,312,26200,2,0,B|315:376|195:376|133:311,1,270,0|4
72,112,27109,5,0
120,168,27291,1,0
144,96,27473,1,8
96,40,27654,1,0
168,24,27836,1,0
240,40,28018,1,2
336,152,28382,5,0
408,152,28563,1,2
448,216,28745,1,0
376,216,28927,1,2
336,280,29109,1,2
408,280,29291,1,2
376,344,29473,6,0,B|336:368|288:344,1,90
216,344,29836,2,0,B|176:376|120:336,1,90
72,296,30200,1,0
56,224,30382,1,0
200,224,30745,1,0
200,224,30927,1,0
40,88,31291,1,0
40,88,31473,1,2
256,80,31836,1,2
256,80,32018,1,0
264,152,32200,5,0
336,168,32382,1,0
352,312,32745,2,0,B|280:360|160:328,1,180
72,240,33473,2,0,B|8:168|8:64|112:-8|224:48,1,360
264,104,34382,1,8
240,256,34745,1,8
240,256,34927,1,8
288,312,35109,1,0
360,312,35291,1,0
408,256,35473,1,4
96,232,36382,5,0
168,240,36563,1,0
168,240,36745,1,2
96,112,37109,1,0
168,120,37291,1,0
168,120,37473,1,2
296,168,37836,1,0
368,176,38018,1,0
440,160,38200,1,2
512,168,38382,1,2
440,288,38745,5,0
384,328,38927,1,0
328,288,39109,1,8
272,328,39291,1,0
216,288,39473,1,0
160,328,39654,1,0
80,208,40018,2,0,B|168:208,1,90
168,136,40382,2,0,B|264:136,1,90,0|8
264,208,40745,1,0
264,208,40927,1,0
256,360,41291,5,4
256,136,41654,1,4
72,256,42018,1,2
168,256,42200,1,2
368,256,42563,1,2
368,64,42927,1,8
368,160,43109,1,2
160,184,43473,1,2
224,224,43654,5,0
296,224,43836,1,0
256,288,44018,1,0
256,360,44200,2,8,B|168:360|152:344|128:256,1,180
128,104,44927,1,0
176,48,45109,1,0
248,48,45291,1,0
296,104,45473,2,0,B|488:104,2,180,8|2|4
256,360,47109,5,4
48,360,47473,1,4
152,192,47836,1,2
152,280,48018,1,2
320,208,48382,1,4
472,120,48745,1,2
472,208,48927,1,2
472,32,49291,1,4
256,32,49654,5,4
256,144,50018,1,0
256,216,50200,1,0
256,288,50382,1,0
256,360,50564,2,2,B|160:360|112:256,1,180,2|0
167,210,51109,1,0
120,152,51291,2,2,B|128:56|240:8,1,180,2|0
256,80,51836,1,0
256,192,52018,12,4,54382
256,32,55654,5,4
200,80,55836,2,0,B|128:168|208:256,1,180
120,272,56382,2,0,B|88:232|72:168|96:96,1,180,0|2
120,32,56927,1,2
168,168,57291,5,0
32,264,57654,1,2
32,264,57836,1,0
144,352,58200,1,2
208,320,58382,1,2
280,320,58564,2,8,B|472:320,1,180
464,248,59109,1,0
392,248,59291,2,8,B|208:248,1,180,8|4
216,176,59836,6,0,B|160:112|112:264|48:160,1,180
24,112,60382,1,0
40,256,60745,1,0
112,296,60927,1,0
112,216,61109,1,8
184,256,61291,1,8
264,256,61473,1,0
264,256,61654,1,4
432,48,62200,5,8
328,232,62564,1,0
328,232,62745,1,0
328,232,62927,1,2
224,48,63291,1,0
224,48,63473,1,0
224,48,63654,1,2
64,176,64018,1,8
64,176,64200,1,8
120,224,64382,6,0,B|120:320,1,90,0|2
192,296,64745,2,0,B|280:336,1,90,0|8
312,272,65109,2,0,B|208:224,1,90,0|2
248,160,65473,1,0
312,120,65654,1,0
352,184,65836,1,0
272,40,66200,1,0
272,40,66382,1,0
120,120,66745,1,0
120,120,66927,1,0
256,352,67473,5,4
112,352,67836,1,0
112,280,68018,1,2
256,280,68382,1,0
184,280,68564,1,2
184,136,68927,1,4
304,224,69291,1,0
248,176,69473,1,2
104,192,69836,1,0
72,128,70018,1,2
32,184,70200,1,0
24,256,70382,2,2,B|72:352|176:344,2,180
168,264,71473,5,0
240,280,71654,1,2
312,264,71836,1,2
384,248,72018,1,8
392,112,72382,1,0
320,184,72564,1,0
256,112,72745,1,0
192,184,72927,1,0
120,112,73109,1,4
56,288,73473,1,0
56,288,73654,1,0
120,336,73836,5,4
328,336,74200,1,0
328,336,74382,1,0
328,336,74563,1,4
224,136,74927,1,0
224,136,75109,1,0
224,136,75291,1,4
432,136,75654,1,8
432,136,75836,1,8
344,224,76200,6,0,B|160:224,3,180,0|0|0|4
168,80,77654,2,0,B|256:24|344:88,3,180,0|0|0|4
256,192,79109,12,4,84018
