osu file format v14

[General]
AudioFilename: Wada Kouji - Butter-Fly.mp3
AudioLeadIn: 2000
PreviewTime: 194290
Countdown: 0
SampleSet: Soft
StackLeniency: 0.7
Mode: 0
LetterboxInBreaks: 0
WidescreenStoryboard: 1

[Editor]
Bookmarks: 380,9464,18566,20830,29929,38989,48092,57140,66233,74723,79861,88939,98059,107096,116216,125275,129841,139290,145108,150926,156744,162562,168380,174199,180017,185835,191653,194562,200380,206199,212017,217835,223653,229471,235290,241108,246926,252744,258562,264380,267290,273108,278926,284744,290562,296380,302199,308017,313835,319653,325471,331290,337108,342926,348744,354547,360380,366199,372017,377835,383653,389471
DistanceSpacing: 1.6
BeatDivisor: 4
GridSize: 4
TimelineZoom: 1.8

[Metadata]
Title:Butter-Fly
TitleUnicode:Butter-Fly
Artist:Wada Kouji
ArtistUnicode:和田光司
Creator:Kencho
Version:Butter-Fly
Source:デジモンアドベンチャー
Tags:digimon adventure monster digimonmusic opening butterfly childhood remix all of my mind
BeatmapID:748957
BeatmapSetID:338542

[Difficulty]
HPDrainRate:6
CircleSize:4
OverallDifficulty:7
ApproachRate:9
SliderMultiplier:1.8
SliderTickRate:1

[Events]
//Background and Video events
0,0,"BG.jpg",0,0
Video,-230,"video.flv"
//Break Periods
2,17900,20230
2,35504,37247
2,134754,138690
2,296380,301599
//Storyboard Layer 0 (Background)
//Storyboard Layer 1 (Fail)
//Storyboard Layer 2 (Pass)
//Storyboard Layer 3 (Foreground)
//Storyboard Sound Samples

[TimingPoints]
380,560.747663551402,4,2,1,25,1,0
380,-133.333333333333,4,2,1,25,0,0
1221,-133.333333333333,4,2,1,25,0,0
1501,582.52427184466,4,2,1,25,1,0
1501,-133.333333333333,4,2,1,25,0,0
1937,560.747663551402,4,2,1,25,1,0
1937,-133.333333333333,4,2,1,25,0,0
2358,588.235294117647,4,2,1,25,1,0
2358,-133.333333333333,4,2,1,25,0,0
2652,566.037735849057,4,2,1,25,1,0
2652,-133.333333333333,4,2,1,25,0,0
4067,-133.333333333333,4,2,1,5,0,0
4350,600,4,2,1,25,1,0
4950,560.747663551402,4,2,1,25,1,0
4950,-133.333333333333,4,2,1,25,0,0
5791,566.037735849057,4,2,1,25,1,0
5791,-133.333333333333,4,2,1,25,0,0
6074,535.714285714286,4,2,1,25,1,0
6074,-133.333333333333,4,2,1,25,0,0
6475,612.244897959184,4,2,1,25,1,0
6475,-133.333333333333,4,2,1,25,0,0
6934,576.923076923077,4,2,1,25,1,0
7222,560.747663551402,4,2,1,25,1,0
9464,582.52427184466,4,2,1,25,1,0
9464,-133.333333333333,4,2,1,30,0,0
10046,517.241379310345,4,2,1,25,1,0
10304,582.52427184466,4,2,1,25,1,0
10304,-133.333333333333,4,2,1,25,0,0
10595,545.454545454546,4,2,1,25,1,0
11004,-133.333333333333,4,2,1,25,0,0
11413,612.244897959184,4,2,1,25,1,0
11719,666.666666666667,4,2,1,25,1,0
11719,-133.333333333333,4,2,1,25,0,0
12052,526.315789473684,4,2,1,25,1,0
12315,612.244897959184,4,2,1,25,1,0
12315,-133.333333333333,4,2,1,25,0,0
12927,535.714285714286,4,2,1,25,1,0
13462,555.555555555556,4,2,1,25,1,0
14017,571.428571428571,4,2,1,25,1,0
14017,-133.333333333333,4,2,1,25,0,0
14302,535.714285714286,4,2,1,25,1,0
14569,566.037735849057,4,2,1,25,1,0
14852,-133.333333333333,4,2,1,25,0,0
14993,606.060606060606,4,2,1,25,1,0
15144,535.714285714286,4,2,1,25,1,0
15545,571.428571428571,4,2,1,25,1,0
15545,-133.333333333333,4,2,1,25,0,0
16259,576.923076923077,4,2,1,25,1,0
17124,-133.333333333333,4,2,1,25,0,0
17701,-133.333333333333,4,2,1,5,0,0
18566,566.037735849057,4,2,1,30,1,0
20830,566.037735849057,4,2,1,30,1,0
20830,-133.333333333333,4,2,1,35,0,0
25358,571.428571428571,4,2,1,35,1,0
25358,-133.333333333333,4,2,1,35,0,0
29929,560.747663551402,4,2,1,35,1,0
29929,-133.333333333333,4,2,1,35,0,0
34134,612.244897959184,4,2,1,35,1,0
34440,576.923076923077,4,2,1,35,1,0
34440,-133.333333333333,4,2,1,35,0,0
36747,550.45871559633,4,2,1,35,1,0
37847,582.52427184466,4,2,1,35,1,0
37847,-133.333333333333,4,2,1,35,0,0
38429,560.747663551402,4,2,1,35,1,0
38989,-133.333333333333,4,2,1,40,0,0
40671,550.45871559633,4,2,1,40,1,0
40671,-133.333333333333,4,2,1,40,0,0
41496,571.428571428571,4,2,1,40,1,0
41496,-133.333333333333,4,2,1,40,0,0
42067,612.244897959184,4,2,1,40,1,0
42679,571.428571428571,4,2,1,40,1,0
42679,-133.333333333333,4,2,1,40,0,0
45536,550.45871559633,4,2,1,40,1,0
45536,-133.333333333333,4,2,1,40,0,0
46636,582.52427184466,4,2,1,40,1,0
46636,-133.333333333333,4,2,1,40,0,0
48092,560.747663551402,4,2,1,40,1,0
48092,-133.333333333333,4,2,1,40,0,0
49213,550.45871559633,4,2,1,40,1,0
49213,-133.333333333333,4,2,1,40,0,0
49763,582.52427184466,4,2,1,40,1,0
49763,-133.333333333333,4,2,1,40,0,0
52093,508.474576271186,4,2,1,40,1,0
52093,-133.333333333333,4,2,1,40,0,0
52601,588.235294117647,4,2,1,40,1,0
52601,-133.333333333333,4,2,1,40,0,0
53777,550.45871559633,4,2,1,40,1,0
53777,-133.333333333333,4,2,1,40,0,0
54602,576.923076923077,4,2,1,40,1,0
54890,-133.333333333333,4,2,1,40,0,0
56332,517.241379310345,4,2,1,40,1,0
56332,-133.333333333333,4,2,1,40,0,0
56590,550.45871559633,4,2,1,40,1,0
56590,-133.333333333333,4,2,1,40,0,0
57140,571.428571428571,4,2,1,45,1,0
57140,-133.333333333333,4,2,1,45,0,0
61711,560.747663551402,4,2,1,45,1,0
61711,-133.333333333333,4,2,1,45,0,0
63673,571.428571428571,4,2,1,45,1,0
63673,-133.333333333333,4,2,1,45,0,0
65101,566.037735849057,4,2,1,45,1,0
65101,-133.333333333333,4,2,1,45,0,0
67931,588.235294117647,4,2,1,45,1,0
68519,571.428571428571,4,2,1,45,1,0
68519,-133.333333333333,4,2,1,45,0,0
70233,545.454545454546,4,2,1,45,1,0
70233,-133.333333333333,4,2,1,45,0,0
70778,555.555555555556,4,2,1,45,1,0
70778,-133.333333333333,4,2,1,45,0,0
72444,576.923076923077,4,2,1,45,1,0
72444,-133.333333333333,4,2,1,45,0,0
73597,555.555555555556,4,2,1,45,1,0
73874,566.037735849057,4,2,1,45,1,0
73874,-133.333333333333,4,2,1,45,0,0
74723,600,4,2,1,45,1,0
75323,566.037735849057,4,2,1,45,1,0
75323,-133.333333333333,4,2,1,45,0,0
77587,571.428571428571,4,2,1,45,1,0
79301,560.747663551402,4,2,1,45,1,0
79861,555.555555555556,4,2,1,50,1,1
79861,-100,4,2,1,50,0,1
81527,576.923076923077,4,2,1,50,1,1
82103,566.037735849057,4,2,1,50,1,1
84084,588.235294117647,4,2,1,50,1,1
85260,566.037735849057,4,2,1,50,1,1
86675,560.747663551402,4,2,1,50,1,1
88357,582.52427184466,4,2,1,50,1,1
88939,571.428571428571,4,2,1,50,1,1
90653,566.037735849057,4,2,1,50,1,1
93200,555.555555555556,4,2,1,50,1,1
93477,566.037735849057,4,2,1,50,1,1
95741,576.923076923077,4,2,1,50,1,1
97471,588.235294117647,4,2,1,50,1,1
98059,566.037735849057,4,2,1,50,1,1
99757,560.747663551402,4,2,1,50,1,1
103962,576.923076923077,4,2,1,50,1,1
104827,566.037735849057,4,2,1,50,1,1
106525,571.428571428571,4,2,1,50,1,1
111667,555.555555555556,4,2,1,50,1,1
112778,566.037735849057,4,2,1,50,1,1
113344,594.059405940594,4,2,1,50,1,1
113938,566.037735849057,4,2,1,50,1,1
115070,550.45871559633,4,2,1,50,1,1
115345,612.244897959184,4,2,1,50,1,1
115651,530.973451327434,4,2,1,50,1,1
115916,600,4,2,1,50,1,1
116216,571.428571428571,4,2,1,40,1,0
116216,-133.333333333333,4,2,1,40,0,0
116788,550.45871559633,4,2,1,40,1,0
117063,588.235294117647,4,2,1,40,1,0
117063,-133.333333333333,4,2,1,40,0,0
117357,500,4,2,1,40,1,0
117732,571.428571428571,4,2,1,40,1,0
118446,588.235294117647,4,2,1,40,1,0
118446,-133.333333333333,4,2,1,40,0,0
119034,566.037735849057,4,2,1,40,1,0
120166,-133.333333333333,4,2,1,40,0,0
120732,612.244897959184,4,2,1,40,1,0
120732,-133.333333333333,4,2,1,40,0,0
121344,521.739130434783,4,2,1,40,1,0
121865,545.454545454546,4,2,1,40,1,0
121865,-133.333333333333,4,2,1,40,0,0
122410,612.244897959184,4,2,1,40,1,0
123022,566.037735849057,4,2,1,40,1,0
123022,-133.333333333333,4,2,1,40,0,0
124720,555.555555555556,4,2,1,40,1,0
125275,576.923076923077,4,2,1,35,1,0
125275,-133.333333333333,4,2,1,35,0,0
125851,555.555555555556,4,2,1,35,1,0
126406,-133.333333333333,4,2,1,35,0,0
126962,582.52427184466,4,2,1,35,1,0
127544,-133.333333333333,4,2,1,35,0,0
128709,566.037735849057,4,2,1,35,1,0
129841,588.235294117647,4,2,1,30,1,0
129841,-133.333333333333,4,2,1,30,0,0
131017,594.059405940594,4,2,1,30,1,0
131017,-133.333333333333,4,2,1,30,0,0
132353,526.315789473684,4,2,1,25,1,0
132353,-133.333333333333,4,2,1,25,0,0
133537,857.142857142857,4,2,1,25,1,0
133537,-133.333333333333,4,2,1,20,0,0
134394,-133.333333333333,4,2,1,15,0,0
139290,363.636363636364,4,2,1,60,1,0
139290,-100,4,2,1,60,0,0
144744,-100,4,2,1,80,0,0
145108,-100,4,2,1,80,0,1
145199,-100,4,2,1,80,0,0
156744,-100,4,2,1,70,0,0
180017,-100,4,2,1,80,0,0
194562,-90.9090909090909,4,2,1,100,0,1
217835,-100,4,2,1,80,0,0
229471,-100,4,2,1,70,0,0
252744,-100,4,2,1,80,0,0
267290,-90.9090909090909,4,2,1,100,0,1
290562,-100,4,2,1,80,0,0
308017,-133.333333333333,4,2,1,80,0,0
313835,-100,4,2,1,80,0,0
331290,-133.333333333333,4,2,1,50,0,0
353108,-100,4,2,1,50,0,0
353471,-100,4,2,1,60,0,0
353835,-100,4,2,1,70,0,0
354017,-100,4,2,1,70,0,0
354199,-100,4,2,1,90,0,0
354380,-100,4,2,1,100,0,0
354547,363.636363636364,4,2,1,100,1,1
354547,-90.9090909090909,4,2,1,100,0,1
356016,363.636363636364,4,2,1,100,1,1
356016,-90.9090909090909,4,2,1,100,0,1
377834,-100,4,2,1,70,0,0
390925,375,4,2,1,70,1,0

[Colours]
Combo1 : 255,128,192
Combo2 : 255,128,64
Combo3 : 0,128,255
Combo4 : 255,64,64
Combo5 : 192,64,192
Combo6 : 255,255,64
Combo7 : 96,255,64
Combo8 : 96,128,192

[HitObjects]
191,102,380,6,0,P|255:84|320:102,1,135.000005149842,2|0,0:0|0:0,0:0:0:0:
404,144,1221,2,0,L|404:185,2,33.7500012874604,0|0|2,0:0|0:0|0:0,0:0:0:0:
275,215,1937,2,0,P|262:263|273:312,1,101.250003862381
358,263,2652,5,2,0:0:0:0:
74,263,3501,2,0,P|63:196|85:133,1,135.000005149842,2|0,0:0|0:0,0:0:0:0:
379,171,4950,6,0,B|427:187|477:168|477:168|486:202,1,135.000005149842,2|0,0:0|0:0,0:0:0:0:
451,289,5791,2,0,L|468:318,2,33.7500012874604,0|0|2,0:0|0:0|0:0,0:0:0:0:
333,251,6475,2,0,P|282:258|232:252,1,101.250003862381,2|0,0:0|0:0,0:0:0:0:
138,340,7222,5,2,0:0:0:0:
138,340,9464,6,0,L|129:273,1,67.5000025749208,2|0,0:0|0:0,0:0:0:0:
115,172,10046,1,0,0:0:0:0:
210,178,10304,2,0,L|205:144,1,33.7500012874604
197,97,10595,1,2,0:0:0:0:
320,166,11004,2,0,P|370:172|417:154,1,101.250003862381
496,119,11719,6,0,P|504:152|506:186,1,67.5000025749208,2|0,0:0|0:0,0:0:0:0:
479,280,12315,2,0,P|450:262|425:239,1,67.5000025749208,0|2,0:0|0:0,0:0:0:0:
258,36,13462,1,0,0:0:0:0:
258,36,14017,6,0,L|267:103,1,67.5000025749208,2|0,0:0|0:0,0:0:0:0:
281,204,14569,1,0,0:0:0:0:
186,198,14852,2,0,L|191:232,1,33.7500012874604
199,279,15144,1,2,0:0:0:0:
322,328,15545,2,0,P|372:331|420:315,1,101.250003862381
488,258,16259,5,2,0:0:0:0:
241,120,17124,2,0,P|174:119|114:149,1,135.000005149842,2|0,0:0|0:0,0:0:0:0:
238,283,20830,6,0,P|271:289|304:292,1,67.5000025749208,2|0,0:0|0:0,0:0:0:0:
395,266,21396,2,0,P|375:238|354:212,1,67.5000025749208
269,170,21962,2,0,P|202:181|138:162,1,135.000005149842,2|0,0:0|0:0,0:0:0:0:
52,124,22811,6,0,P|40:190|59:254,1,135.000005149842,2|0,0:0|0:0,0:0:0:0:
106,336,23660,1,0,0:0:0:0:
186,286,23943,1,2,0:0:0:0:
367,336,24509,1,0,0:0:0:0:
445,284,24792,2,0,P|449:250|444:217,1,67.5000025749208,2|0,0:0|0:0,0:0:0:0:
360,111,25358,6,0,P|356:144|361:177,1,67.5000025749208,2|0,0:0|0:0,0:0:0:0:
396,264,25929,2,0,P|422:243|444:217,1,67.5000025749208
488,134,26500,2,0,P|426:107|360:111,1,135.000005149842,2|0,0:0|0:0,0:0:0:0:
267,129,27358,6,0,P|261:64|314:27,1,135.000005149842,2|0,0:0|0:0,0:0:0:0:
359,111,28215,1,0,0:0:0:0:
330,201,28500,1,2,0:0:0:0:
166,294,29072,2,0,L|98:300,1,67.5000025749208,2|0,0:0|0:0,0:0:0:0:
4,308,29643,1,0,0:0:0:0:
33,218,29929,6,0,P|39:186|39:152,1,67.5000025749208,2|0,0:0|0:0,0:0:0:0:
28,57,30489,1,0,0:0:0:0:
116,89,30770,1,0,0:0:0:0:
205,257,31330,2,0,P|172:266|138:268,1,67.5000025749208,2|0,0:0|0:0,0:0:0:0:
45,268,31891,1,0,0:0:0:0:
94,187,32171,6,0,P|126:177|160:175,2,67.5000025749208,2|0|0,0:0|0:0|0:0,0:0:0:0:
45,268,33013,2,0,P|64:330|127:340,1,135.000005149842,2|0,0:0|0:0,0:0:0:0:
220,321,33854,2,0,P|253:319|286:326,1,67.5000025749208
412,280,34440,6,0,P|416:246|413:212,1,67.5000025749208,2|0,0:0|0:0,0:0:0:0:
326,175,35016,2,0,P|322:208|325:242,1,67.5000025749208
205,202,37847,6,0,P|258:241|325:241,1,135.000005149842,2|0,0:0|0:0,0:0:0:0:
372,58,38989,6,0,P|338:53|305:54,1,67.5000025749208,2|0,0:0|0:0,0:0:0:0:
216,86,39549,2,0,P|235:113|260:135,1,67.5000025749208
353,156,40110,2,0,P|420:156|480:186,1,135.000005149842,2|0,0:0|0:0,0:0:0:0:
399,234,40946,6,0,P|350:279|355:344,1,135.000005149842,2|0,0:0|0:0,0:0:0:0:
445,313,41781,2,0,P|476:302|502:280,1,67.5000025749208
378,137,42679,1,0,0:0:0:0:
288,108,42964,2,0,P|254:106|220:111,1,67.5000025749208,2|0,0:0|0:0,0:0:0:0:
109,138,43536,6,0,P|101:102|104:69,1,67.5000025749208,2|0,0:0|0:0,0:0:0:0:
195,98,44107,1,0,0:0:0:0:
193,212,44393,2,0,P|173:275|120:315,1,135.000005149842,2|0,0:0|0:0,0:0:0:0:
99,223,45250,1,0,0:0:0:0:
136,136,45536,6,0,P|200:121|262:147,1,135.000005149842,2|0,0:0|0:0,0:0:0:0:
344,227,46361,2,0,P|348:260|345:293,1,67.5000025749208,0|2,0:0|0:0,0:0:0:0:
224,148,47218,2,0,P|244:120|270:99,1,67.5000025749208,2|0,0:0|0:0,0:0:0:0:
353,53,47801,1,0,0:0:0:0:
433,101,48092,6,0,P|435:134|433:168,1,67.5000025749208,2|0,0:0|0:0,0:0:0:0:
400,256,48652,1,0,0:0:0:0:
333,188,48933,1,0,0:0:0:0:
173,289,49488,2,0,P|206:294|239:293,1,67.5000025749208,2|0,0:0|0:0,0:0:0:0:
333,282,50054,1,0,0:0:0:0:
333,188,50345,6,0,P|333:154|338:120,2,67.5000025749208,2|0|0,0:0|0:0|0:0,0:0:0:0:
410,243,51219,2,0,B|468:267|515:243|515:243|509:217,1,135.000005149842,2|0,0:0|0:0,0:0:0:0:
444,147,52093,2,0,P|410:141|377:144,1,67.5000025749208,2|0,0:0|0:0,0:0:0:0:
260,197,52601,6,0,P|279:224|305:246,1,67.5000025749208,2|0,0:0|0:0,0:0:0:0:
379,304,53189,2,0,P|352:325|322:339,1,67.5000025749208,0|2,0:0|0:0,0:0:0:0:
41,298,54327,2,0,L|41:230,1,67.5000025749208,2|0,0:0|0:0,0:0:0:0:
135,231,54890,6,0,L|135:163,2,67.5000025749208,2|0|0,0:0|0:0|0:0,0:0:0:0:
135,325,55755,1,2,0:0:0:0:
330,273,56332,2,0,P|363:278|394:290,1,67.5000025749208,2|2,0:0|0:0,0:0:0:0:
272,349,56865,1,0,0:0:0:0:
225,180,57140,6,0,P|292:175|356:193,1,135.000005149842,2|0,0:0|0:0,0:0:0:0:
449,234,57997,1,2,0:0:0:0:
367,294,58282,2,0,P|369:327|366:361,2,67.5000025749208,2|0|2,0:0|0:0|0:0,0:0:0:0:
356,193,59140,1,0,0:0:0:0:
192,257,59425,6,0,P|125:264|63:239,1,135.000005149842,2|0,0:0|0:0,0:0:0:0:
138,171,60282,1,2,0:0:0:0:
330,101,60854,2,0,P|332:134|330:168,1,67.5000025749208,0|2,0:0|0:0,0:0:0:0:
293,262,61425,1,0,0:0:0:0:
370,324,61711,6,0,P|403:329|436:330,1,67.5000025749208,2|0,0:0|0:0,0:0:0:0:
506,256,62271,2,0,P|494:224|478:194,1,67.5000025749208
379,172,62832,2,0,P|357:197|339:226,1,67.5000025749208,2|0,0:0|0:0,0:0:0:0:
370,324,63393,1,0,0:0:0:0:
420,236,63673,6,0,P|354:226|295:258,1,135.000005149842,2|0,0:0|0:0,0:0:0:0:
227,332,64530,2,0,P|193:335|159:331,1,67.5000025749208,0|2,0:0|0:0,0:0:0:0:
198,145,65384,2,0,P|231:137|265:134,1,67.5000025749208,0|2,0:0|0:0,0:0:0:0:
387,130,65950,1,0,0:0:0:0:
426,287,66233,6,0,P|359:288|297:262,1,135.000005149842,2|0,0:0|0:0,0:0:0:0:
216,200,67082,1,2,0:0:0:0:
131,145,67365,2,0,P|125:111|130:78,2,67.5000025749208,2|0|2,0:0|0:0|0:0,0:0:0:0:
146,245,68225,1,0,0:0:0:0:
295,183,68519,6,0,P|361:170|424:192,1,135.000005149842,2|0,0:0|0:0,0:0:0:0:
353,264,69376,2,0,P|287:276|224:254,1,135.000005149842,2|0,0:0|0:0,0:0:0:0:
130,215,70233,2,0,P|125:248|126:282,1,67.5000025749208,2|0,0:0|0:0,0:0:0:0:
223,197,70778,6,0,P|223:163|219:129,1,67.5000025749208,2|0,0:0|0:0,0:0:0:0:
188,19,71333,1,0,0:0:0:0:
288,75,71611,2,0,P|350:99|416:88,1,135.000005149842,2|0,0:0|0:0,0:0:0:0:
507,45,72444,1,0,0:0:0:0:
489,172,72732,6,0,P|468:235|414:272,1,135.000005149842,2|0,0:0|0:0,0:0:0:0:
313,287,73597,1,0,0:0:0:0:
195,221,73874,2,0,P|98:207|32:279,1,202.500007724762,2|0,0:0|0:0,0:0:0:0:
97,91,75323,6,0,L|83:24,2,67.5000025749208,2|0|0,0:0|0:0|0:0,0:0:0:0:
118,183,76172,2,0,P|185:186|245:156,1,135.000005149842,2|0,0:0|0:0,0:0:0:0:
338,142,77021,2,0,P|342:176|340:210,1,67.5000025749208,2|0,0:0|0:0,0:0:0:0:
314,335,77587,5,2,0:0:0:0:
48,287,78158,1,2,0:0:0:0:
216,58,78729,1,2,0:0:0:0:
467,216,79301,1,2,0:0:0:0:
133,312,79861,6,0,B|69:336|0:314|0:314|-5:291|3:270,1,180,2|0,0:0|0:0,0:0:0:0:
101,153,80694,2,0,P|177:107|265:117,1,180,2|0,0:0|0:0,0:0:0:0:
406,177,81527,2,0,P|417:133|414:89,1,90,2|0,0:0|0:0,0:0:0:0:
264,117,82103,6,0,P|251:204|294:281,1,180,2|0,0:0|0:0,0:0:0:0:
406,177,82952,1,2,0:0:0:0:
106,244,83518,2,0,P|62:248|17:243,1,90,0|2,0:0|0:0,0:0:0:0:
62,96,84084,1,0,0:0:0:0:
197,166,84378,6,0,P|282:186|363:149,1,180,2|0,0:0|0:0,0:0:0:0:
488,50,85260,2,0,P|520:132|499:218,1,180,2|0,0:0|0:0,0:0:0:0:
379,314,86109,1,2,0:0:0:0:
363,148,86392,1,0,0:0:0:0:
191,308,86675,6,0,P|179:264|179:219,1,90,2|0,0:0|0:0,0:0:0:0:
378,11,87516,2,0,P|421:23|460:45,1,90,2|0,0:0|0:0,0:0:0:0:
355,167,88076,1,0,0:0:0:0:
203,223,88357,2,0,P|158:226|113:220,1,90,2|0,0:0|0:0,0:0:0:0:
162,65,88939,6,0,P|250:67|326:114,1,180,2|0,0:0|0:0,0:0:0:0:
380,238,89796,2,0,P|291:235|215:188,1,180,2|0,0:0|0:0,0:0:0:0:
85,149,90653,2,0,P|80:193|87:237,1,90,2|0,0:0|0:0,0:0:0:0:
215,188,91219,5,2,0:0:0:0:
278,68,91502,2,0,P|322:63|366:69,1,90
497,104,92068,1,2,0:0:0:0:
497,104,93200,6,0,P|499:148|492:193,1,90,0|2,0:0|0:0,0:0:0:0:
437,316,93760,1,0,0:0:0:0:
327,236,94043,2,0,P|324:191|331:146,1,90,2|2,0:0|0:0,0:0:0:0:
459,81,94609,2,0,P|466:125|463:170,2,90,2|0|2,0:0|0:0|0:0,0:0:0:0:
291,47,95458,1,0,0:0:0:0:
170,166,95741,6,0,P|126:168|83:156,1,90,2|0,0:0|0:0,0:0:0:0:
141,34,96317,1,0,0:0:0:0:
253,109,96606,2,0,P|297:111|340:99,1,90,2|0,0:0|0:0,0:0:0:0:
455,26,97183,1,2,0:0:0:0:
370,238,98059,6,0,P|285:261|200:235,1,180,2|0,0:0|0:0,0:0:0:0:
55,181,98908,2,0,P|28:265|52:351,1,180,2|0,0:0|0:0,0:0:0:0:
203,327,99757,2,0,P|247:323|291:331,1,90,2|0,0:0|0:0,0:0:0:0:
441,363,100317,6,0,P|487:297|422:249,1,180,2|0,0:0|0:0,0:0:0:0:
291,331,101158,1,2,0:0:0:0:
140,64,101719,2,0,P|184:62|228:71,1,90,0|2,0:0|0:0,0:0:0:0:
376,115,102280,1,0,0:0:0:0:
454,246,102560,6,0,P|366:263|283:232,1,180,2|0,0:0|0:0,0:0:0:0:
205,101,103401,2,0,P|292:83|376:115,1,180,2|0,0:0|0:0,0:0:0:0:
454,246,104250,1,2,0:0:0:0:
300,247,104538,1,0,0:0:0:0:
376,25,104827,6,0,L|376:115,1,90,2|0,0:0|0:0,0:0:0:0:
172,344,105676,2,0,P|128:350|83:346,1,90,2|0,0:0|0:0,0:0:0:0:
123,198,106242,1,0,0:0:0:0:
268,245,106525,2,0,P|274:289|270:334,1,90,2|0,0:0|0:0,0:0:0:0:
126,280,107096,6,0,P|114:193|169:125,1,180,2|0,0:0|0:0,0:0:0:0:
268,245,107953,2,0,P|331:306|418:307,1,180,2|0,0:0|0:0,0:0:0:0:
497,209,108810,2,0,P|505:164|504:119,1,90,2|0,0:0|0:0,0:0:0:0:
499,2,109382,5,2,0:0:0:0:
369,38,109667,2,0,P|324:43|279:40,1,90
144,29,110239,2,0,P|156:115|228:165,1,180,2|0,0:0|0:0,0:0:0:0:
279,40,111096,1,2,0:0:0:0:
54,189,111667,6,0,B|8:233|5:294|5:294|30:317|60:317,1,180,2|2,0:0|0:0,0:0:0:0:
158,253,112500,1,0,0:0:0:0:
256,317,112778,1,2,0:0:0:0:
354,253,113061,1,0,0:0:0:0:
451,317,113344,2,0,P|469:275|471:230,1,90,2|0,0:0|0:0,0:0:0:0:
319,134,113938,6,0,P|298:219|345:293,1,180,2|2,0:0|0:0,0:0:0:0:
416,200,114787,1,0,0:0:0:0:
319,134,115070,1,2,0:0:0:0:
234,200,115345,1,0,0:0:0:0:
137,134,115651,2,0,P|133:86|142:44,1,90,2|0,0:0|0:0,0:0:0:0:
248,103,116216,6,0,P|252:136|250:169,2,67.5000025749208,2|0|0,0:0|0:0|0:0,0:0:0:0:
332,36,117063,2,0,L|365:36,2,33.7500012874604,0|0|2,0:0|0:0|0:0,0:0:0:0:
190,36,117732,1,0,0:0:0:0:
141,190,118160,1,0,0:0:0:0:
239,206,118446,6,0,P|272:215|301:232,2,67.5000025749208,2|0|0,0:0|0:0|0:0,0:0:0:0:
141,190,119317,1,2,0:0:0:0:
133,208,120166,1,0,0:0:0:0:
237,84,120732,6,0,P|238:117|234:151,2,67.5000025749208,2|0|0,0:0|0:0|0:0,0:0:0:0:
124,130,121604,1,0,0:0:0:0:
93,143,121735,1,0,0:0:0:0:
63,158,121865,2,0,P|50:207|55:257,1,101.250003862381,2|0,0:0|0:0,0:0:0:0:
202,218,122716,1,0,0:0:0:0:
202,218,123022,6,0,P|264:240|330:229,1,135.000005149842,2|0,0:0|0:0,0:0:0:0:
423,189,123871,1,2,0:0:0:0:
162,349,124720,1,0,0:0:0:0:
162,349,125275,6,0,P|195:354|228:354,2,67.5000025749208,2|0|0,0:0|0:0|0:0,0:0:0:0:
132,251,126128,1,0,0:0:0:0:
136,217,126267,1,0,0:0:0:0:
142,183,126406,2,0,P|191:190|242:183,1,101.250003862381,2|0,0:0|0:0,0:0:0:0:
389,145,127253,1,0,0:0:0:0:
407,244,127544,6,0,P|409:277|405:311,2,67.5000025749208,2|0|0,0:0|0:0|0:0,0:0:0:0:
389,145,128418,1,2,0:0:0:0:
163,349,129275,1,0,0:0:0:0:
163,349,129841,6,0,P|132:360|98:363,2,67.5000025749208,2|0|0,0:0|0:0|0:0,0:0:0:0:
109,263,130723,1,0,0:0:0:0:
139,248,130870,1,0,0:0:0:0:
172,241,131017,2,0,P|220:253|256:288,2,101.250003862381,2|0|0,0:0|0:0|0:0,0:0:0:0:
33,303,132353,6,0,P|19:238|47:178,1,135.000005149842,2|0,0:0|0:0,0:0:0:0:
215,55,133537,1,2,0:0:0:0:
418,280,134394,2,0,L|423:286,3,8.43750032186509,2|0|0|0,0:0|0:0|0:0|0:0,0:0:0:0:
172,298,139290,6,0,P|256:324|340:298,1,180,4|0,0:2|0:0,0:0:0:0:
434,227,139835,1,0,0:0:0:0:
318,212,140017,2,0,P|323:256|340:297,1,90,2|0,0:0|0:0,0:0:0:0:
434,227,140380,2,0,P|428:182|411:141,1,90
337,48,140744,6,0,P|377:30|422:27,2,90,2|0|0,0:0|0:0|0:0,0:0:0:0:
212,124,141290,2,0,P|132:159|45:140,1,180,10|4,0:0|0:3,0:0:0:0:
120,63,141835,1,4,0:3:0:0:
217,16,142017,1,4,0:3:0:0:
337,48,142199,6,0,P|400:108|398:195,1,180,4|0,0:0|0:0,0:0:0:0:
340,297,142744,1,0,0:0:0:0:
241,235,142926,2,0,P|196:233|151:241,1,90,2|0,0:0|0:0,0:0:0:0:
19,274,143290,2,0,P|13:229|20:184,1,90,2|0,0:3|0:0,0:0:0:0:
120,63,143653,5,2,0:0:0:0:
185,181,143835,1,0,3:0:0:0:
255,65,144017,1,10,0:0:0:0:
110,146,144199,1,0,3:0:0:0:
189,14,144380,1,10,0:0:0:0:
260,149,144562,1,0,3:0:0:0:
265,182,144653,1,0,0:0:0:0:
256,214,144744,1,10,0:3:0:0:
236,241,144835,1,0,0:0:0:0:
206,257,144926,1,0,0:0:0:0:
173,260,145017,1,0,0:0:0:0:
139,254,145108,6,0,P|57:279|41:363,1,180,4|10,0:0|0:3,0:0:0:0:
203,347,145653,1,2,0:0:0:0:
203,347,145744,1,0,0:0:0:0:
203,347,145835,2,0,P|160:333|115:331,1,90,2|0,0:3|0:0,0:0:0:0:
46,215,146199,2,0,P|90:212|133:199,1,90,10|0,0:3|0:0,0:0:0:0:
294,157,146562,6,0,P|291:247|331:326,1,180,2|10,0:3|0:3,0:0:0:0:
489,205,147108,2,0,P|491:115|451:36,1,180,2|0,0:3|0:0,0:0:0:0:
291,69,147653,2,0,P|247:70|202:63,1,90,10|0,0:3|0:0,0:0:0:0:
51,128,148017,6,0,P|117:185|200:161,1,180,2|10,0:3|0:3,0:0:0:0:
291,69,148562,1,2,0:0:0:0:
291,69,148653,1,0,0:0:0:0:
291,69,148744,2,0,L|380:73,1,90,2|0,0:3|0:0,0:0:0:0:
256,204,149108,2,0,L|345:200,1,90,10|0,0:3|0:0,0:0:0:0:
488,181,149471,6,0,P|491:91|451:12,1,180,2|10,0:3|0:3,0:0:0:0:
293,133,150017,2,0,P|291:223|331:302,1,180,2|0,0:3|0:0,0:0:0:0:
467,227,150562,2,0,P|424:212|380:206,1,90,10|0,0:3|0:0,0:0:0:0:
255,233,150926,6,0,P|169:247|97:198,1,180,4|10,0:0|0:3,0:0:0:0:
201,74,151471,1,2,0:0:0:0:
201,74,151562,1,0,0:0:0:0:
201,74,151653,2,0,P|202:118|190:162,1,90,2|0,0:3|0:0,0:0:0:0:
82,95,152017,2,0,P|80:50|92:6,1,90,10|0,0:3|0:0,0:0:0:0:
201,74,152380,6,0,P|279:114|366:98,1,180,2|10,0:3|0:3,0:0:0:0:
470,223,152926,2,0,P|383:207|304:247,1,180,2|0,0:3|0:0,0:0:0:0:
205,339,153471,1,10,0:3:0:0:
87,247,153653,1,0,0:0:0:0:
87,247,153744,1,0,0:0:0:0:
87,247,153835,6,0,P|66:161|111:86,1,180,4|10,0:0|0:3,0:0:0:0:
196,183,154380,1,2,0:0:0:0:
196,183,154471,1,0,0:0:0:0:
196,183,154562,2,0,P|240:186|283:173,1,90,2|0,0:3|0:0,0:0:0:0:
348,54,154926,2,0,L|258:42,1,90,10|0,0:3|0:0,0:0:0:0:
196,183,155290,5,10,0:3:0:0:
264,301,155471,1,8,0:0:0:0:
331,184,155653,1,10,0:3:0:0:
196,183,155835,1,8,0:0:0:0:
313,251,156017,1,10,0:3:0:0:
312,116,156199,1,8,0:0:0:0:
196,183,156380,1,10,0:3:0:0:
169,199,156471,1,0,0:0:0:0:
147,222,156562,1,0,0:0:0:0:
133,250,156653,1,0,0:0:0:0:
125,281,156744,6,0,P|124:325|140:367,1,90,4|0,0:0|0:0,0:0:0:0:
232,308,157108,1,8,0:0:0:0:
321,368,157290,1,0,0:0:0:0:
410,307,157471,2,0,P|416:263|409:219,1,90
383,113,157835,1,8,0:0:0:0:
307,190,158017,6,0,P|223:217|138:191,1,180
221,121,158562,1,8,0:0:0:0:
307,190,158744,1,0,0:0:0:0:
209,316,158926,2,0,P|200:272|205:228,1,90
308,269,159290,1,8,0:0:0:0:
118,283,159471,6,0,P|73:284|28:278,1,90
78,181,159835,1,0,0:0:0:0:
169,122,160017,2,0,P|213:120|258:126,1,90,8|0,0:0|0:0,0:0:0:0:
338,199,160380,2,0,P|382:205|427:203,2,90,0|0|8,0:0|0:0|0:0,0:0:0:0:
169,122,160926,6,0,P|142:205|181:283,1,180
247,197,161471,1,8,0:0:0:0:
169,122,161653,1,0,0:0:0:0:
55,220,161835,2,0,P|98:231|143:226,1,90
247,197,162199,1,8,0:0:0:0:
169,122,162380,1,0,0:0:0:0:
103,304,162562,6,0,B|157:360|227:347|227:347|232:304,1,180,4|8,0:0|0:0,0:0:0:0:
247,197,163108,1,0,0:0:0:0:
306,287,163290,1,0,0:0:0:0:
175,236,163471,2,0,P|131:236|87:247,1,90,0|8,0:0|0:0,0:0:0:0:
25,337,163835,1,0,0:0:0:0:
130,148,164199,6,0,P|174:148|218:137,1,90,0|8,0:0|0:0,0:0:0:0:
281,48,164562,1,0,0:0:0:0:
457,172,164926,2,0,P|462:216|458:261,1,90,0|8,0:0|0:0,0:0:0:0:
419,362,165290,1,0,0:0:0:0:
351,278,165471,6,0,P|271:239|183:252,1,180,4|8,0:0|0:0,0:0:0:0:
221,150,166017,1,0,0:0:0:0:
305,82,166199,2,0,P|311:126|328:167,2,90,8|0|8,0:0|0:0|0:0,0:0:0:0:
411,131,166744,6,0,P|401:217|327:262,1,180,8|0,0:0|0:0,0:0:0:0:
193,283,167290,2,0,L|184:193,1,90,8|0,0:0|0:0,0:0:0:0:
78,213,167653,2,0,L|69:123,1,90,8|0,0:0|0:0,0:0:0:0:
59,15,168017,1,8,0:0:0:0:
200,94,168199,1,0,0:0:0:0:
200,94,168290,1,0,0:0:0:0:
200,94,168380,6,0,P|197:138|199:183,1,90,4|0,0:0|0:0,0:0:0:0:
233,287,168744,2,0,P|277:293|321:286,1,90,8|0,0:0|0:0,0:0:0:0:
371,190,169108,2,0,P|326:183|282:190,1,90
233,287,169471,1,8,0:0:0:0:
336,316,169653,6,0,P|326:230|254:180,1,180,0|2,0:0|0:0,0:0:0:0:
233,287,170199,1,10,0:0:0:0:
336,317,170380,1,0,0:0:0:0:
415,231,170562,2,0,P|420:186|410:142,1,90,2|2,0:0|0:0,0:0:0:0:
359,46,170926,1,8,0:0:0:0:
262,92,171108,6,0,P|251:135|253:180,1,90
357,149,171471,1,0,0:0:0:0:
370,255,171653,2,0,P|372:300|362:344,1,90,8|0,0:0|0:0,0:0:0:0:
256,317,172017,2,0,P|211:314|167:323,2,90,0|0|8,0:0|0:0|0:0,0:0:0:0:
362,343,172562,6,0,P|341:258|268:210,1,180,0|2,0:0|0:0,0:0:0:0:
169,253,173108,1,10,0:0:0:0:
256,317,173290,1,0,0:0:0:0:
267,209,173471,1,2,0:0:0:0:
169,253,173653,2,0,P|124:254|80:242,1,90,2|8,0:0|0:0,0:0:0:0:
77,133,174017,1,0,0:0:0:0:
234,44,174199,6,0,P|320:25|402:58,1,180,4|8,0:0|0:0,0:0:0:0:
483,130,174744,1,0,0:0:0:0:
382,170,174926,1,0,0:0:0:0:
333,266,175108,2,0,P|327:310|333:355,1,90,0|8,0:0|0:0,0:0:0:0:
460,310,175471,6,0,P|460:221|407:151,1,180
296,88,176017,1,8,0:0:0:0:
247,204,176199,2,0,P|336:204|407:151,1,180
502,100,176744,2,0,P|508:144|505:189,1,90,8|0,0:0|0:0,0:0:0:0:
389,260,177108,6,0,L|389:350,2,90,10|0|10,0:3|0:0|0:3,0:0:0:0:
389,151,177653,1,0,0:0:0:0:
280,151,177835,2,0,L|190:151,2,90,10|0|10,0:3|0:0|0:3,0:0:0:0:
389,151,178380,6,0,P|416:234|372:309,1,180,10|0,0:3|0:0,0:0:0:0:
267,279,178926,2,0,P|222:277|177:284,1,90,10|0,0:3|0:0,0:0:0:0:
78,329,179290,1,10,0:3:0:0:
38,229,179471,2,0,P|34:186|41:139,1,90,0|10,0:0|0:3,0:0:0:0:
143,196,179835,1,2,0:0:0:0:
143,196,179926,1,8,0:0:0:0:
143,196,180017,6,0,P|227:223|309:190,1,180,4|8,0:0|0:0,0:0:0:0:
400,117,180562,1,0,0:0:0:0:
419,232,180744,2,0,P|424:276|417:320,2,90,2|0|10,0:0|0:0|0:0,0:0:0:0:
309,190,181290,1,0,0:0:0:0:
242,284,181471,6,0,P|154:296|79:249,1,180,2|8,0:0|0:0,0:0:0:0:
183,129,182017,2,0,P|183:173|173:217,1,90,2|0,0:0|0:0,0:0:0:0:
254,331,182380,2,0,P|253:286|263:242,1,90,0|10,0:0|0:0,0:0:0:0:
311,134,182744,1,0,0:0:0:0:
377,251,182926,6,0,L|466:243,1,90,2|0,0:0|0:0,0:0:0:0:
398,146,183290,2,0,L|487:138,1,90,10|0,0:0|0:0,0:0:0:0:
419,41,183653,2,0,L|508:33,2,90,2|0|10,0:0|0:0|0:0,0:0:0:0:
263,88,184199,6,0,P|178:97|137:23,1,180,2|2,0:0|0:0,0:0:0:0:
328,30,184744,2,0,P|343:71|345:116,1,90,10|2,0:0|0:0,0:0:0:0:
345,234,185108,1,2,0:0:0:0:
249,301,185290,2,0,P|233:259|231:214,1,90,0|10,0:0|0:0,0:0:0:0:
232,97,185653,1,2,0:0:0:0:
405,50,185835,6,0,P|462:115|448:201,1,180,4|10,0:0|0:0,0:0:0:0:
350,265,186380,1,0,0:0:0:0:
251,201,186562,2,0,P|206:208|162:204,2,90,2|0|10,0:0|0:0|0:0,0:0:0:0:
356,148,187108,1,0,0:0:0:0:
298,45,187290,6,0,P|243:113|251:201,1,180,2|8,0:0|0:0,0:0:0:0:
157,271,187835,2,0,P|113:279|68:272,1,90,2|0,0:0|0:0,0:0:0:0:
110,162,188199,1,0,0:0:0:0:
250,200,188380,2,0,P|294:207|338:203,1,90,10|0,0:0|0:0,0:0:0:0:
452,173,188744,5,4,0:0:0:0:
298,45,188926,2,0,P|291:89|294:133,1,90,2|8,0:0|0:0,0:0:0:0:
334,292,189290,2,0,P|414:252|452:173,1,180,2|0,0:0|0:0,0:0:0:0:
454,55,189835,1,8,0:0:0:0:
294,134,190017,6,0,P|206:146|131:101,1,180,2|0,0:0|0:0,0:0:0:0:
230,38,190562,1,8,0:0:0:0:
371,66,190744,2,0,P|383:153|338:228,1,180,2|0,0:0|0:0,0:0:0:0:
206,120,191290,2,0,P|250:122|294:134,1,90,10|0,0:0|0:0,0:0:0:0:
225,264,191653,6,0,P|182:275|137:277,1,90,4|0,0:0|0:0,0:0:0:0:
339,175,192017,2,0,P|370:206|394:244,1,90,8|0,0:0|0:0,0:0:0:0:
206,120,192380,2,0,P|217:76|238:37,1,90,8|0,0:0|0:0,0:0:0:0:
437,67,192744,1,8,0:0:0:0:
460,88,192835,1,0,0:0:0:0:
479,115,192926,1,2,0:0:0:0:
486,148,193017,1,0,0:0:0:0:
484,180,193108,5,10,0:3:0:0:
60,86,194199,2,0,P|59:130|67:175,1,90,12|0,0:0|0:0,0:0:0:0:
180,120,194562,6,0,P|272:93|355:143,1,198.000006042481,4|10,0:0|0:3,0:0:0:0:
247,286,195108,2,0,P|245:236|259:189,1,99.0000030212403,2|2,0:0|0:3,0:0:0:0:
319,42,195471,1,0,0:0:0:0:
463,107,195653,2,0,P|476:154|475:203,1,99.0000030212403,10|2,0:3|0:0,0:0:0:0:
259,188,196017,6,0,P|169:219|153:312,1,198.000006042481,2|10,0:3|0:3,0:0:0:0:
327,245,196562,1,2,0:0:0:0:
327,245,196653,1,0,0:0:0:0:
327,245,196744,2,0,P|341:197|335:149,1,99.0000030212403,2|0,0:3|0:0,0:0:0:0:
211,77,197108,2,0,L|112:83,1,99.0000030212403,10|0,0:3|0:0,0:0:0:0:
90,227,197471,6,0,L|188:234,1,99.0000030212403,2|0,0:3|0:0,0:0:0:0:
327,245,197835,1,10,0:3:0:0:
248,359,198017,1,2,0:0:0:0:
188,234,198199,1,2,0:3:0:0:
321,326,198380,1,2,0:0:0:0:
181,314,198562,2,0,P|132:311|88:289,1,99.0000030212403,10|2,0:3|0:0,0:0:0:0:
179,155,198926,6,0,P|226:165|259:201,2,99.0000030212403,2|0|10,0:3|0:0|0:3,0:0:0:0:
17,150,199471,1,2,0:0:0:0:
17,150,199562,1,0,0:0:0:0:
17,150,199653,1,2,0:3:0:0:
86,293,199835,1,0,0:0:0:0:
283,246,200017,2,0,P|293:294|282:342,1,99.0000030212403,10|0,0:3|0:0,0:0:0:0:
86,293,200380,6,0,P|83:196|146:122,1,198.000006042481,4|10,0:0|0:3,0:0:0:0:
283,246,200926,2,0,P|234:248|188:233,1,99.0000030212403,2|2,0:0|0:3,0:0:0:0:
17,150,201290,1,0,0:0:0:0:
150,18,201471,1,10,0:3:0:0:
188,233,201653,1,4,0:0:0:0:
188,233,202017,5,8,0:0:0:0:
311,332,202199,1,10,0:3:0:0:
336,176,202380,1,4,0:0:0:0:
40,291,202744,1,2,0:0:0:0:
40,291,202926,2,0,L|40:193,1,99.0000030212403,10|0,0:3|0:0,0:0:0:0:
121,83,203290,5,4,0:0:0:0:
258,145,203471,1,2,0:0:0:0:
107,109,203653,1,10,0:3:0:0:
272,119,203835,1,2,0:0:0:0:
94,135,204017,1,2,0:3:0:0:
285,93,204199,1,2,0:0:0:0:
82,162,204380,1,10,0:3:0:0:
296,66,204562,2,0,P|346:67|393:82,1,99.0000030212403,2|10,0:0|0:3,0:0:0:0:
505,163,204926,5,0,0:0:0:0:
361,228,205108,2,0,P|352:277|356:327,1,99.0000030212403,10|0,0:3|0:0,0:0:0:0:
467,283,205471,1,10,0:3:0:0:
278,278,205653,1,2,0:0:0:0:
245,278,205744,1,0,0:0:0:0:
215,267,205835,1,8,0:0:0:0:
191,246,205926,1,0,0:0:0:0:
175,219,206017,1,2,0:0:0:0:
170,187,206108,1,0,0:0:0:0:
175,156,206199,6,0,P|244:89|339:102,1,198.000006042481,4|8,0:0|0:0,0:0:0:0:
335,262,206744,2,0,P|299:229|277:184,1,99.0000030212403,2|2,0:0|0:3,0:0:0:0:
239,19,207108,1,0,0:0:0:0:
435,88,207290,2,0,P|387:101|338:101,1,99.0000030212403,10|0,0:3|0:0,0:0:0:0:
138,87,207653,6,0,P|44:105|-8:185,1,198.000006042481,2|8,0:3|0:0,0:0:0:0:
152,207,208199,1,2,0:0:0:0:
152,207,208290,1,0,0:0:0:0:
152,207,208380,2,0,P|199:193|235:158,1,99.0000030212403,2|0,0:3|0:0,0:0:0:0:
350,89,208744,2,0,L|340:188,1,99.0000030212403,10|0,0:3|0:0,0:0:0:0:
325,326,209108,5,2,0:3:0:0:
249,211,209290,1,0,0:0:0:0:
234,349,209471,1,10,0:3:0:0:
340,188,209653,1,2,0:0:0:0:
184,273,209835,2,0,P|227:295|276:294,1,99.0000030212403,2|2,0:3|0:0,0:0:0:0:
313,141,210199,2,0,P|272:167|249:211,1,99.0000030212403,10|2,0:3|0:0,0:0:0:0:
154,349,210562,6,0,P|106:358|57:355,2,99.0000030212403,2|0|10,0:3|0:0|0:3,0:0:0:0:
249,211,211108,1,2,0:0:0:0:
249,211,211199,1,0,0:0:0:0:
249,211,211290,2,0,P|298:207|346:217,1,99.0000030212403,2|0,0:3|0:0,0:0:0:0:
476,264,211653,2,0,P|480:214|472:166,1,99.0000030212403,10|0,0:3|0:0,0:0:0:0:
349,64,212017,6,0,P|254:44|173:96,1,198.000006042481,4|10,0:0|0:3,0:0:0:0:
110,218,212562,1,2,0:0:0:0:
249,309,212744,2,0,P|255:260|249:211,1,99.0000030212403,2|0,0:3|0:0,0:0:0:0:
173,96,213108,1,10,0:3:0:0:
110,315,213290,1,4,0:0:0:0:
110,315,213653,5,8,0:0:0:0:
227,207,213835,1,8,0:0:0:0:
75,159,214017,1,4,0:0:0:0:
391,259,214380,1,0,0:0:0:0:
391,259,214562,2,0,P|396:210|392:161,1,99.0000030212403,10|0,0:3|0:0,0:0:0:0:
217,248,214926,6,0,L|119:265,1,99.0000030212403,4|2,0:0|0:0,0:0:0:0:
295,180,215290,2,0,L|392:162,1,99.0000030212403,8|2,0:0|0:0,0:0:0:0:
217,115,215653,2,0,L|119:97,1,99.0000030212403,8|2,0:0|0:0,0:0:0:0:
295,313,216017,2,0,L|392:330,1,99.0000030212403,8|2,0:0|0:0,0:0:0:0:
217,248,216380,5,4,0:0:0:0:
217,115,216562,1,0,3:0:0:0:
350,181,216744,1,8,0:0:0:0:
171,181,216926,1,0,3:0:0:0:
318,80,217108,1,8,0:0:0:0:
318,280,217290,1,0,3:0:0:0:
304,309,217380,1,0,0:0:0:0:
282,333,217471,1,8,0:0:0:0:
254,349,217562,1,0,0:0:0:0:
223,356,217653,1,2,0:0:0:0:
191,354,217744,1,0,0:0:0:0:
161,342,217835,6,0,P|107:273|127:189,1,180,4|10,0:0|0:3,0:0:0:0:
293,204,218380,1,2,0:0:0:0:
293,204,218471,1,0,0:0:0:0:
293,204,218562,2,0,P|259:232|217:248,1,90,2|0,0:3|0:0,0:0:0:0:
85,213,218926,2,0,P|80:257|89:301,1,90,10|0,0:3|0:0,0:0:0:0:
254,349,219290,6,0,P|341:339|399:273,1,180,2|10,0:3|0:3,0:0:0:0:
230,137,219835,2,0,P|143:146|85:213,1,180,2|0,0:3|0:0,0:0:0:0:
158,292,220380,1,8,0:0:0:0:
230,137,220562,1,2,0:0:0:0:
230,137,220653,1,0,0:0:0:0:
230,137,220744,6,0,P|198:54|119:16,1,180,2|10,0:3|0:3,0:0:0:0:
103,141,221290,1,2,0:0:0:0:
103,141,221380,1,0,0:0:0:0:
103,141,221471,2,0,P|102:185|110:230,1,90,2|0,0:3|0:0,0:0:0:0:
235,214,221835,2,0,P|279:211|323:220,1,90,10|0,0:3|0:0,0:0:0:0:
462,262,222199,6,0,P|435:343|351:364,1,180,2|10,0:3|0:3,0:0:0:0:
277,175,222744,2,0,P|358:201|379:285,1,180,2|0,0:3|0:0,0:0:0:0:
239,320,223290,2,0,P|260:280|297:255,1,90,10|0,0:3|0:0,0:0:0:0:
445,185,223653,6,0,P|483:106|456:22,1,180,4|10,0:0|0:3,0:0:0:0:
313,47,224199,1,2,0:0:0:0:
313,47,224290,1,0,0:0:0:0:
313,47,224380,2,0,P|268:52|223:49,1,90,2|0,0:3|0:0,0:0:0:0:
179,188,224744,2,0,P|223:182|268:185,1,90,10|0,0:3|0:0,0:0:0:0:
428,210,225108,6,0,P|447:297|415:380,1,180,2|10,0:3|0:3,0:0:0:0:
191,276,225653,2,0,P|172:189|204:106,1,180,2|0,0:3|0:0,0:0:0:0:
347,131,226199,2,0,P|391:128|433:112,1,90,10|0,0:3|0:0,0:0:0:0:
273,29,226562,6,0,P|218:98|229:185,1,180,4|10,0:0|0:3,0:0:0:0:
350,264,227108,1,2,0:0:0:0:
350,264,227199,1,0,0:0:0:0:
350,264,227290,2,0,L|438:247,1,90,2|0,0:3|0:0,0:0:0:0:
317,169,227653,2,0,L|228:185,1,90,8|0,0:3|0:0,0:0:0:0:
96,210,228017,5,10,0:3:0:0:
141,82,228199,1,8,0:0:0:0:
228,185,228380,1,10,0:3:0:0:
128,270,228562,1,8,0:0:0:0:
104,138,228744,1,10,0:3:0:0:
228,185,228926,1,8,0:0:0:0:
96,210,229108,1,10,0:3:0:0:
65,199,229199,1,0,0:0:0:0:
40,180,229290,1,0,0:0:0:0:
21,155,229380,1,0,0:0:0:0:
8,126,229471,6,0,P|0:82|7:38,1,90,4|0,0:0|0:0,0:0:0:0:
104,85,229835,2,0,P|146:98|191:99,1,90,8|0,0:0|0:0,0:0:0:0:
292,58,230199,2,0,P|336:58|379:71,1,90
320,162,230562,1,8,0:0:0:0:
218,197,230744,6,0,P|222:110|292:58,1,180
320,162,231290,1,8,0:0:0:0:
300,267,231471,1,0,0:0:0:0:
198,303,231653,2,0,P|153:310|109:302,1,90
18,242,232017,1,8,0:0:0:0:
156,143,232199,6,0,P|163:187|155:231,1,90
122,334,232562,1,0,0:0:0:0:
228,312,232744,2,0,P|272:304|316:312,1,90,8|0,0:0|0:0,0:0:0:0:
411,365,233108,2,0,P|455:372|499:365,2,90,0|0|8,0:0|0:0|0:0,0:0:0:0:
228,312,233653,6,0,P|223:224|281:159,1,180
322,259,234199,1,8,0:0:0:0:
228,312,234380,1,0,0:0:0:0:
141,188,234562,2,0,P|185:188|228:203,1,90
322,259,234926,1,8,0:0:0:0:
228,312,235108,1,0,0:0:0:0:
228,203,235290,6,0,P|233:158|250:116,1,90,4|0,0:0|0:0,0:0:0:0:
307,24,235653,1,8,0:0:0:0:
359,118,235835,1,0,0:0:0:0:
415,26,236017,1,0,0:0:0:0:
249,116,236199,2,0,P|205:117|161:108,1,90,0|8,0:0|0:0,0:0:0:0:
64,63,236562,1,0,0:0:0:0:
117,272,236926,6,0,P|161:270|205:279,1,90,0|8,0:0|0:0,0:0:0:0:
304,326,237290,1,0,0:0:0:0:
495,226,237653,2,0,P|500:182|496:137,1,90,0|8,0:0|0:0,0:0:0:0:
457,36,238017,1,0,0:0:0:0:
397,127,238199,6,0,P|322:97|349:20,1,180,4|8,0:0|0:0,0:0:0:0:
457,36,238744,1,0,0:0:0:0:
495,136,238926,2,0,P|500:181|495:226,2,90,8|0|8,0:0|0:0|0:0,0:0:0:0:
457,36,239471,6,0,P|370:21|302:75,1,180,8|0,0:0|0:0,0:0:0:0:
213,153,240017,2,0,L|214:63,1,90,8|0,0:0|0:0,0:0:0:0:
100,193,240380,2,0,L|101:103,1,90,8|0,0:0|0:0,0:0:0:0:
213,153,240744,1,8,0:0:0:0:
301,229,240926,1,0,0:0:0:0:
301,229,241017,1,0,0:0:0:0:
301,229,241108,6,0,P|345:235|390:230,1,90,4|0,0:0|0:0,0:0:0:0:
392,68,241471,2,0,P|364:102|346:145,1,90,8|0,0:0|0:0,0:0:0:0:
485,228,241835,2,0,P|468:186|441:149,1,90
348,93,242199,1,8,0:0:0:0:
259,153,242380,6,0,P|175:179|97:138,1,180,0|2,0:0|0:0,0:0:0:0:
86,31,242926,1,10,0:0:0:0:
185,75,243108,1,0,0:0:0:0:
97,138,243290,2,0,P|55:151|10:154,1,90,2|2,0:0|0:0,0:0:0:0:
86,31,243653,1,8,0:0:0:0:
217,149,243835,6,0,P|230:192|233:237,1,90
216,344,244199,1,0,0:0:0:0:
133,275,244380,1,8,0:0:0:0:
233,237,244562,2,0,P|277:236|322:242,2,90
133,275,245108,1,8,0:0:0:0:
46,339,245290,6,0,P|31:252|81:180,1,180,0|2,0:0|0:0,0:0:0:0:
133,275,245835,2,0,P|150:316|152:360,1,90,10|0,0:0|0:0,0:0:0:0:
46,339,246199,1,2,0:0:0:0:
20,234,246380,2,0,P|13:189|20:145,1,90,2|8,0:0|0:0,0:0:0:0:
84,58,246744,1,0,0:0:0:0:
141,150,246926,6,0,P|185:158|230:155,1,90,4|0,0:0|0:0,0:0:0:0:
172,63,247290,2,0,P|128:54|84:58,1,90,8|0,0:0|0:0,0:0:0:0:
31,152,247653,1,0,0:0:0:0:
133,238,247835,2,0,P|142:194|141:150,1,90,0|8,0:0|0:0,0:0:0:0:
253,49,248199,6,0,P|338:25|420:59,1,180
510,150,248744,1,8,0:0:0:0:
410,226,248926,2,0,P|387:141|420:59,1,180
292,104,249471,2,0,P|247:110|202:108,1,90,8|0,0:0|0:0,0:0:0:0:
88,197,249835,6,0,L|88:287,2,90,10|0|10,0:3|0:0|0:3,0:0:0:0:
88,88,250380,1,0,0:0:0:0:
182,142,250562,2,0,L|182:232,2,90,10|0|10,0:3|0:0|0:3,0:0:0:0:
182,32,251108,6,0,P|264:60|290:142,1,180,10|0,0:3|0:0,0:0:0:0:
182,142,251653,2,0,P|137:137|93:145,1,90,10|0,0:3|0:0,0:0:0:0:
0,201,252017,1,10,0:3:0:0:
92,257,252199,2,0,P|93:301|80:344,1,90,0|10,0:0|0:3,0:0:0:0:
0,201,252562,1,2,0:0:0:0:
0,201,252653,1,8,0:0:0:0:
0,200,252744,6,0,P|13:114|84:63,1,180,4|8,0:0|0:0,0:0:0:0:
199,38,253290,1,0,0:0:0:0:
163,149,253471,2,0,P|121:162|77:152,2,90,2|0|10,0:0|0:0|0:0,0:0:0:0:
279,124,254017,1,0,0:0:0:0:
348,218,254199,6,0,P|418:272|506:269,1,180,2|8,0:0|0:0,0:0:0:0:
477,113,254744,2,0,P|455:151|441:194,1,90,2|0,0:0|0:0,0:0:0:0:
334,261,255108,2,0,P|346:217|348:172,1,90,0|10,0:0|0:0,0:0:0:0:
338,46,255471,1,0,0:0:0:0:
203,57,255653,6,0,L|113:65,1,90,2|0,0:0|0:0,0:0:0:0:
161,172,256017,2,0,L|72:180,1,90,10|0,0:0|0:0,0:0:0:0:
121,285,256380,2,0,L|32:293,2,90,2|0|10,0:0|0:0|0:0,0:0:0:0:
269,276,256926,6,0,P|353:263|373:181,1,180,2|2,0:0|0:0,0:0:0:0:
190,231,257471,2,0,P|183:275|190:319,1,90,10|2,0:0|0:0,0:0:0:0:
301,205,257835,1,2,0:0:0:0:
378,292,258017,2,0,P|422:300|466:292,1,90,0|10,0:0|0:0,0:0:0:0:
421,183,258380,1,2,0:0:0:0:
378,292,258562,6,0,P|322:357|239:337,1,180,4|8,0:0|0:0,0:0:0:0:
137,279,259108,1,0,0:0:0:0:
237,218,259290,2,0,P|276:237|304:273,2,90,2|0|10,0:0|0:0|0:0,0:0:0:0:
133,162,259835,1,0,0:0:0:0:
32,224,260017,6,0,P|21:310|75:379,1,180,2|8,0:0|0:0,0:0:0:0:
225,282,260562,2,0,P|181:274|137:279,1,90,2|0,0:0|0:0,0:0:0:0:
12,309,260926,1,0,0:0:0:0:
125,367,261108,2,0,P|136:323|137:278,1,90,10|0,0:0|0:0,0:0:0:0:
133,162,261471,5,4,0:0:0:0:
287,212,261653,2,0,P|330:200|368:176,1,90,2|8,0:0|0:0,0:0:0:0:
260,54,262017,2,0,P|178:86|133:162,1,180,2|0,0:0|0:0,0:0:0:0:
122,280,262562,1,8,0:0:0:0:
287,213,262744,6,0,P|375:208|446:260,1,180,2|0,0:0|0:0,0:0:0:0:
343,314,263290,1,8,0:0:0:0:
205,275,263471,2,0,P|200:187|251:116,1,180,2|0,0:0|0:0,0:0:0:0:
373,234,264017,2,0,P|329:228|287:213,1,90,10|0,0:0|0:0,0:0:0:0:
364,89,264380,6,0,L|440:40,1,90,4|0,0:0|0:0,0:0:0:0:
245,167,264744,2,0,L|165:125,1,90,8|0,0:0|0:0,0:0:0:0:
373,234,265108,2,0,L|377:323,1,90,8|0,0:0|0:0,0:0:0:0:
196,282,265471,1,8,0:0:0:0:
194,248,265562,1,0,0:0:0:0:
200,216,265653,1,2,0:0:0:0:
219,189,265744,1,0,0:0:0:0:
245,167,265835,5,10,0:3:0:0:
501,355,266926,2,0,P|502:311|494:266,1,90,12|0,0:0|0:0,0:0:0:0:
454,144,267290,6,0,P|362:117|279:167,1,198.000006042481,4|10,0:0|0:3,0:0:0:0:
183,267,267835,2,0,P|180:316|191:364,1,99.0000030212403,2|2,0:0|0:3,0:0:0:0:
338,302,268199,1,0,0:0:0:0:
243,175,268380,2,0,P|195:163|145:165,1,99.0000030212403,10|0,0:3|0:0,0:0:0:0:
21,306,268744,6,0,P|113:331|183:267,1,198.000006042481,2|10,0:3|0:3,0:0:0:0:
88,138,269290,1,2,0:0:0:0:
88,138,269380,1,0,0:0:0:0:
88,138,269471,2,0,P|80:186|90:235,1,99.0000030212403,2|0,0:3|0:0,0:0:0:0:
245,272,269835,2,0,P|252:223|242:174,1,99.0000030212403,8|0,0:3|0:0,0:0:0:0:
380,59,270199,6,0,P|427:48|477:50,1,99.0000030212403,2|0,0:3|0:0,0:0:0:0:
444,205,270562,1,10,0:3:0:0:
309,171,270744,1,2,0:0:0:0:
434,107,270926,2,0,P|446:155|444:205,1,99.0000030212403,2|2,0:3|0:0,0:0:0:0:
319,360,271290,2,0,P|311:311|317:262,1,99.0000030212403,10|2,0:3|0:0,0:0:0:0:
172,126,271653,6,0,P|122:130|74:120,2,99.0000030212403,2|0|10,0:3|0:0|0:3,0:0:0:0:
324,82,272199,1,2,0:0:0:0:
324,82,272290,1,0,0:0:0:0:
324,82,272380,1,2,0:3:0:0:
285,235,272562,1,0,0:0:0:0:
172,126,272744,2,0,P|163:77|174:29,1,99.0000030212403,10|0,0:3|0:0,0:0:0:0:
371,61,273108,6,0,P|451:112|460:208,1,198.000006042481,4|10,0:0|0:3,0:0:0:0:
285,235,273653,2,0,P|315:197|358:172,1,99.0000030212403,2|2,0:0|0:3,0:0:0:0:
512,129,274017,1,0,0:0:0:0:
408,285,274199,1,10,0:3:0:0:
371,61,274380,1,4,0:0:0:0:
371,61,274744,5,8,0:0:0:0:
361,219,274926,1,10,0:3:0:0:
228,132,275108,1,4,0:0:0:0:
492,305,275471,1,0,0:0:0:0:
492,305,275653,2,0,P|460:343|417:368,1,99.0000030212403,10|0,0:3|0:0,0:0:0:0:
361,219,276017,6,0,P|355:169|362:120,1,99.0000030212403,4|2,0:0|0:0,0:0:0:0:
406,0,276380,1,10,0:3:0:0:
512,103,276562,1,2,0:0:0:0:
362,120,276744,1,2,0:3:0:0:
495,17,276926,1,2,0:0:0:0:
442,197,277108,1,10,0:3:0:0:
288,287,277290,2,0,P|239:292|190:285,1,99.0000030212403,2|8,0:0|0:0,0:0:0:0:
241,156,277653,5,0,0:0:0:0:
359,22,277835,2,0,P|368:71|362:120,1,99.0000030212403,10|0,0:3|0:0,0:0:0:0:
288,287,278199,1,10,0:3:0:0:
241,156,278380,1,2,0:0:0:0:
389,287,278562,1,10,0:3:0:0:
163,213,278744,1,2,0:0:0:0:
299,328,278926,6,0,P|354:249|332:156,1,198.000006042481,4|10,0:0|0:3,0:0:0:0:
163,213,279471,2,0,P|208:232|257:233,1,99.0000030212403,2|2,0:0|0:3,0:0:0:0:
426,220,279835,1,0,0:0:0:0:
338,64,280017,2,0,P|290:78|250:106,1,99.0000030212403,10|0,0:3|0:0,0:0:0:0:
23,283,280380,6,0,P|5:187|52:103,1,198.000006042481,2|10,0:3|0:3,0:0:0:0:
163,213,280926,1,2,0:0:0:0:
163,213,281017,1,0,0:0:0:0:
163,213,281108,2,0,P|175:260|175:310,1,99.0000030212403,2|0,0:3|0:0,0:0:0:0:
23,283,281471,2,0,P|10:235|10:185,1,99.0000030212403,10|0,0:3|0:0,0:0:0:0:
143,69,281835,5,2,0:3:0:0:
246,201,282017,1,0,0:0:0:0:
226,57,282199,1,10,0:3:0:0:
163,213,282380,1,2,0:0:0:0:
277,123,282562,1,2,0:3:0:0:
112,147,282744,1,2,0:0:0:0:
325,190,282926,2,0,P|353:150|354:101,1,99.0000030212403,10|2,0:3|0:0,0:0:0:0:
143,69,283290,6,0,P|93:69|46:55,2,99.0000030212403,2|0|10,0:3|0:0|0:3,0:0:0:0:
321,73,283835,1,2,0:0:0:0:
321,73,283926,1,0,0:0:0:0:
321,73,284017,2,0,P|322:122|334:170,1,99.0000030212403,2|0,0:3|0:0,0:0:0:0:
458,251,284380,2,0,P|469:202|471:153,1,99.0000030212403,10|0,0:3|0:0,0:0:0:0:
321,73,284744,6,0,P|223:69|152:135,1,198.000006042481,4|10,0:0|0:3,0:0:0:0:
274,203,285290,1,2,0:0:0:0:
413,122,285471,2,0,P|417:72|409:24,1,99.0000030212403,2|0,0:3|0:0,0:0:0:0:
283,83,285835,1,10,0:3:0:0:
458,251,286017,1,4,0:0:0:0:
458,251,286380,5,8,0:0:0:0:
341,139,286562,1,8,0:0:0:0:
495,94,286744,1,4,0:0:0:0:
277,325,287108,1,0,0:0:0:0:
277,325,287290,2,0,P|325:333|374:326,1,99.0000030212403,10|0,0:3|0:0,0:0:0:0:
133,186,287653,6,0,P|83:180|34:185,1,99.0000030212403,4|2,0:0|0:0,0:0:0:0:
262,221,288017,2,0,P|311:226|360:221,1,99.0000030212403,8|2,0:0|0:0,0:0:0:0:
180,267,288380,2,0,P|173:317|179:366,1,99.0000030212403,8|2,0:0|0:0,0:0:0:0:
215,138,288744,2,0,P|220:89|215:40,1,99.0000030212403,8|2,0:0|0:0,0:0:0:0:
133,186,289108,5,8,0:0:0:0:
262,221,289290,1,0,3:0:0:0:
215,138,289471,1,8,0:0:0:0:
180,267,289653,1,0,3:0:0:0:
142,106,289835,2,0,P|137:73|137:40,2,66.0000020141602,8|0|0,0:0|0:0|0:0,0:0:0:0:
252,300,290199,2,0,P|257:333|256:366,2,66.0000020141602,8|0|0,0:0|0:0|0:0,0:0:0:0:
141,339,290562,6,0,P|71:286|71:199,1,180,4|8,0:0|0:3,0:0:0:0:
142,106,291108,1,0,0:0:0:0:
228,185,291290,2,0,P|271:195|316:191,2,90,8|0|8,0:0|0:0|0:0,0:0:0:0:
142,106,291835,6,0,P|221:68|303:97,1,180,8|0,0:0|0:0,0:0:0:0:
239,273,292380,2,0,P|227:229|228:185,1,90,8|0,0:0|0:0,0:0:0:0:
324,116,292744,2,0,P|336:159|336:203,1,90,8|0,0:0|0:0,0:0:0:0:
318,320,293108,1,8,0:0:0:0:
207,276,293290,1,2,0:0:0:0:
207,276,293380,1,0,0:0:0:0:
207,276,293471,6,0,P|200:188|258:123,1,180,8|8,0:0|0:0,0:0:0:0:
367,79,294017,1,0,0:0:0:0:
440,170,294199,2,0,P|449:213|449:258,2,90,8|0|8,0:0|0:0|0:0,0:0:0:0:
318,228,294744,6,0,P|230:235|164:177,1,180,8|0,0:0|0:0,0:0:0:0:
271,109,295290,1,8,0:0:0:0:
404,122,295471,1,0,0:0:0:0:
318,320,295653,1,6,0:0:0:0:
256,192,302199,12,0,307653,0:0:0:0:
318,320,308017,6,0,P|228:353|168:280,2,202.500007724762,2|2|2,0:3|0:0|0:0,0:0:0:0:
250,272,309290,1,0,0:0:0:0:
204,204,309471,6,0,P|200:171|204:137,1,67.5000025749208
231,60,309835,1,2,0:3:0:0:
303,96,310017,2,0,P|336:99|370:98,1,67.5000025749208
451,93,310380,1,0,0:0:0:0:
381,269,310744,1,0,0:0:0:0:
318,320,310926,6,0,P|228:353|168:280,2,202.500007724762,2|2|2,0:0|0:0|0:0,0:0:0:0:
250,272,312199,1,0,0:0:0:0:
267,193,312380,6,0,P|356:159|416:232,2,202.500007724762,2|0|2,0:3|0:0|0:0,0:0:0:0:
52,287,313835,6,0,P|26:201|46:114,1,180,4|8,0:0|0:0,0:0:0:0:
133,37,314380,1,0,0:0:0:0:
240,83,314562,2,0,P|246:127|243:172,1,90
137,126,314926,2,0,P|130:81|133:37,1,90,8|0,0:0|0:0,0:0:0:0:
240,83,315290,6,0,L|329:87,1,90
271,188,315653,2,0,L|181:183,1,90,8|0,0:0|0:0,0:0:0:0:
330,87,316017,2,0,L|419:91,1,90
361,193,316380,2,0,L|271:188,1,90,8|0,0:0|0:0,0:0:0:0:
115,168,316744,6,0,P|143:84|220:42,1,180,0|8,0:0|0:0,0:0:0:0:
330,87,317290,1,0,0:0:0:0:
238,158,317471,1,0,0:0:0:0:
220,42,317653,1,2,0:0:0:0:
220,42,317744,1,0,0:0:0:0:
220,42,317835,6,0,P|173:115|87:126,1,180,8|2,0:0|0:0,0:0:0:0:
120,31,318380,1,0,0:0:0:0:
270,61,318562,2,0,P|314:69|359:68,1,90,8|0,0:0|0:0,0:0:0:0:
494,52,318926,1,8,0:0:0:0:
361,145,319108,1,0,0:0:0:0:
422,20,319290,1,8,0:0:0:0:
424,203,319471,1,0,0:0:0:0:
270,61,319653,5,4,0:0:0:0:
270,61,320017,2,0,L|262:105,3,45,10|0|0|0,0:0|0:0|0:0|0:0,0:0:0:0:
173,90,320380,2,0,L|172:135,3,45,2|0|0|0,0:0|0:0|0:0|0:0,0:0:0:0:
82,123,320744,2,0,L|89:167,3,45,8|0|0|0,0:0|0:0|0:0|0:0,0:0:0:0:
26,233,321108,5,2,0:3:0:0:
34,263,321199,1,0,0:0:0:0:
52,288,321290,1,0,0:0:0:0:
79,302,321380,1,0,0:0:0:0:
110,303,321471,2,0,L|154:297,3,45,8|0|0|0,0:0|0:0|0:0|0:0,0:0:0:0:
221,242,321835,2,0,L|265:236,3,45,2|0|0|0,0:0|0:0|0:0|0:0,0:0:0:0:
329,177,322199,2,0,L|373:171,3,45,8|0|0|0,0:0|0:0|0:0|0:0,0:0:0:0:
444,115,322562,5,2,0:3:0:0:
432,85,322653,1,0,0:0:0:0:
410,62,322744,1,0,0:0:0:0:
381,48,322835,1,0,0:0:0:0:
349,44,322926,2,0,L|304:49,3,45,8|0|0|0,0:0|0:0|0:0|0:0,0:0:0:0:
226,86,323290,2,0,L|181:91,3,45,2|0|0|0,0:0|0:0|0:0|0:0,0:0:0:0:
103,128,323653,2,0,L|58:133,3,45,8|0|0|0,0:0|0:0|0:0|0:0,0:0:0:0:
92,217,324017,5,2,0:3:0:0:
110,242,324108,1,0,0:0:0:0:
135,260,324199,1,0,0:0:0:0:
165,268,324290,1,0,0:0:0:0:
196,268,324380,2,0,L|210:225,3,45,8|0|0|0,0:0|0:0|0:0|0:0,0:0:0:0:
279,173,324744,2,0,L|319:152,3,45,2|0|0|0,0:0|0:0|0:0|0:0,0:0:0:0:
402,175,325108,2,0,L|444:189,3,45,8|0|0|0,0:0|0:0|0:0|0:0,0:0:0:0:
402,269,325471,6,0,L|410:328,2,60,2|0|0,0:0|0:0|0:0,0:0:0:0:
302,245,325835,2,0,L|310:304,2,60,10|0|0,0:0|0:0|0:0,0:0:0:0:
202,221,326199,2,0,L|210:280,2,60,2|0|0,0:0|0:0|0:0,0:0:0:0:
102,197,326562,2,0,L|110:256,2,60,10|0|0,0:0|0:0|0:0,0:0:0:0:
102,94,326926,6,0,L|110:34,2,60,2|0|0,0:0|0:0|0:0,0:0:0:0:
180,139,327290,2,0,P|224:146|268:140,1,90,8|0,0:0|0:0,0:0:0:0:
316,33,327653,2,0,P|271:25|227:31,1,90,2|0,0:0|0:0,0:0:0:0:
180,139,328017,2,0,P|172:183|178:227,1,90,8|0,0:0|0:0,0:0:0:0:
297,185,328380,5,8,0:0:0:0:
316,33,328562,1,0,0:0:0:0:
316,33,328653,1,0,0:0:0:0:
316,33,328744,1,0,0:0:0:0:
180,139,328926,1,8,0:0:0:0:
330,112,329108,1,0,0:0:0:0:
330,112,329199,1,0,0:0:0:0:
330,112,329290,1,0,0:0:0:0:
423,230,329471,2,0,P|466:222|506:202,1,90,8|0,0:0|0:0,0:0:0:0:
405,37,329835,5,4,0:0:0:0:
85,150,330926,2,0,P|129:158|173:153,1,90,12|0,0:0|0:0,0:0:0:0:
329,181,331290,6,0,P|346:246|330:311,1,135.000005149842
209,250,331835,2,0,P|144:233|79:251,1,135.000005149842
21,130,332380,2,0,P|16:96|19:62,1,67.5000025749208
184,123,332744,2,0,P|249:137|309:107,1,135.000005149842
453,31,333290,2,0,P|454:98|465:164,1,135.000005149842
421,292,333835,2,0,P|387:294|354:302,1,67.5000025749208
91,92,335290,6,0,P|124:89|157:81,1,67.5000025749208
283,129,335653,2,0,P|284:162|283:196,1,67.5000025749208
100,311,336199,2,0,P|133:317|166:316,2,67.5000025749208
3,263,336744,1,0,0:0:0:0:
142,205,336926,1,0,0:0:0:0:
139,236,337653,6,0,P|202:255|267:237,1,135.000005149842
364,175,338199,1,0,0:0:0:0:
369,289,338380,1,0,0:0:0:0:
201,131,338744,1,0,0:0:0:0:
309,94,338926,2,0,P|312:127|309:161,1,67.5000025749208
179,330,339835,5,0,0:0:0:0:
94,252,340017,2,0,L|26:256,1,67.5000025749208
127,167,340380,2,0,L|59:171,1,67.5000025749208
160,80,340744,2,0,L|92:84,2,67.5000025749208
363,69,341290,2,0,P|362:137|342:201,1,135.000005149842
276,304,341835,1,0,0:0:0:0:
512,316,342199,1,0,0:0:0:0:
398,235,342380,1,0,0:0:0:0:
403,201,342926,6,0,P|337:187|274:208,1,135.000005149842
451,297,343471,2,0,P|495:247|508:181,1,135.000005149842
370,142,344017,2,0,P|384:173|403:201,1,67.5000025749208
376,333,344380,2,0,P|308:330|242:343,1,135.000005149842
120,237,344926,2,0,P|123:305|110:371,1,135.000005149842
16,263,345471,2,0,P|15:230|20:196,1,67.5000025749208
432,126,346926,6,0,L|398:128|364:130,1,67.5000025749208
234,93,347290,2,0,P|230:60|233:26,1,67.5000025749208
432,126,347835,1,0,0:0:0:0:
316,196,348017,2,0,P|349:198|383:194,1,67.5000025749208
512,149,348380,1,0,0:0:0:0:
411,58,348562,1,0,0:0:0:0:
120,329,349290,6,0,P|186:343|252:331,1,135.000005149842
368,302,349835,1,0,0:0:0:0:
296,213,350017,1,0,0:0:0:0:
449,41,350380,1,0,0:0:0:0:
339,74,350562,2,0,P|306:77|272:78,1,67.5000025749208
65,314,351653,6,0,B|128:356|192:318|192:318|255:356|320:318|320:318|393:356|447:313,1,405.000015449525
391,85,353108,6,0,L|389:129,3,45
301,151,353471,2,0,L|299:195,3,45
215,232,353835,1,0,0:0:0:0:
183,244,353926,1,0,0:0:0:0:
149,247,354017,1,0,0:0:0:0:
116,237,354108,1,0,0:0:0:0:
86,220,354199,2,0,L|89:175,3,45
105,53,354547,6,0,P|200:34|281:87,1,198.000006042481,4|10,0:0|0:0,0:0:0:0:
215,232,355092,2,0,P|213:282|227:329,1,99.0000030212403,2|2,0:0|0:3,0:0:0:0:
372,265,355456,1,0,0:0:0:0:
281,87,355637,2,0,P|233:75|183:77,1,99.0000030212403,10|0,0:3|0:0,0:0:0:0:
13,231,356016,6,0,P|69:308|163:299,1,198.000006042481,2|10,0:3|0:3,0:0:0:0:
139,132,356561,1,2,0:0:0:0:
139,132,356652,1,0,0:0:0:0:
139,132,356743,2,0,P|115:175|108:224,1,99.0000030212403,2|0,0:3|0:0,0:0:0:0:
245,339,357106,2,0,P|268:295|275:246,1,99.0000030212403,10|0,0:3|0:0,0:0:0:0:
261,67,357470,6,0,L|359:69,1,99.0000030212403,2|0,0:3|0:0,0:0:0:0:
362,209,357834,1,10,0:3:0:0:
446,99,358016,1,2,0:0:0:0:
274,176,358197,2,0,L|175:174,1,99.0000030212403,2|2,0:3|0:0,0:0:0:0:
362,25,358561,2,0,P|371:73|369:122,1,99.0000030212403,10|2,0:3|0:0,0:0:0:0:
237,259,358925,6,0,P|227:307|229:356,2,99.0000030212403,2|0|10,0:3|0:0|0:3,0:0:0:0:
296,90,359470,1,2,0:0:0:0:
296,90,359561,1,0,0:0:0:0:
296,90,359652,1,2,0:3:0:0:
362,209,359834,1,0,0:0:0:0:
191,102,360016,2,0,P|142:109|95:126,1,99.0000030212403,10|0,0:3|0:0,0:0:0:0:
78,320,360379,6,0,P|173:330|237:259,1,198.000006042481,4|10,0:0|0:3,0:0:0:0:
356,111,360925,2,0,P|362:159|362:209,1,99.0000030212403,2|2,0:0|0:3,0:0:0:0:
315,361,361288,1,0,0:0:0:0:
145,260,361470,1,10,0:3:0:0:
356,111,361652,1,4,0:0:0:0:
356,111,362016,5,8,0:0:0:0:
226,203,362197,1,10,0:3:0:0:
211,46,362379,1,4,0:0:0:0:
426,330,362743,1,0,0:0:0:0:
426,330,362925,2,0,L|426:231,1,99.0000030212403,10|0,0:3|0:0,0:0:0:0:
356,111,363288,5,4,0:0:0:0:
218,248,363470,1,2,0:0:0:0:
287,83,363652,1,10,0:3:0:0:
287,277,363834,1,2,0:0:0:0:
218,111,364016,1,2,0:3:0:0:
356,249,364197,1,2,0:0:0:0:
190,180,364379,1,10,0:3:0:0:
384,180,364561,1,2,0:0:0:0:
226,323,364743,5,10,0:3:0:0:
226,323,364834,1,0,0:0:0:0:
226,323,364925,1,0,0:0:0:0:
287,83,365106,1,10,0:3:0:0:
287,83,365197,1,0,0:0:0:0:
287,83,365288,1,0,0:0:0:0:
179,225,365470,1,10,0:3:0:0:
356,249,365652,1,2,0:0:0:0:
287,83,365834,1,10,0:3:0:0:
254,65,365925,1,0,0:0:0:0:
219,52,366016,1,2,0:0:0:0:
182,50,366106,1,0,0:0:0:0:
146,58,366197,6,0,P|70:117|66:213,1,198.000006042481,4|10,0:0|0:3,0:0:0:0:
259,247,366743,2,0,P|231:207|190:179,1,99.0000030212403,2|2,0:0|0:3,0:0:0:0:
37,134,367106,1,0,0:0:0:0:
92,261,367288,2,0,P|94:310|82:358,1,99.0000030212403,10|0,0:3|0:0,0:0:0:0:
0,199,367652,6,0,P|27:106|113:64,1,198.000006042481,2|10,0:3|0:3,0:0:0:0:
258,131,368197,1,2,0:0:0:0:
258,131,368288,1,0,0:0:0:0:
258,131,368379,2,0,P|306:138|355:130,1,99.0000030212403,2|0,0:3|0:0,0:0:0:0:
483,228,368743,2,0,P|434:220|385:228,1,99.0000030212403,10|0,0:3|0:0,0:0:0:0:
252,270,369106,5,2,0:3:0:0:
258,131,369288,1,0,0:0:0:0:
323,206,369470,1,10,0:3:0:0:
184,200,369652,1,2,0:0:0:0:
323,206,369834,2,0,P|343:250|344:299,1,99.0000030212403,2|2,0:3|0:0,0:0:0:0:
184,200,370197,2,0,P|163:155|162:106,1,99.0000030212403,10|2,0:3|0:0,0:0:0:0:
340,85,370561,6,0,P|382:61|431:53,2,99.0000030212403,2|0|10,0:3|0:0|0:3,0:0:0:0:
184,200,371106,1,2,0:0:0:0:
184,200,371197,1,0,0:0:0:0:
184,200,371288,2,0,P|178:249|188:297,1,99.0000030212403,2|0,0:3|0:0,0:0:0:0:
272,140,371652,2,0,P|232:110|185:94,1,99.0000030212403,10|0,0:3|0:0,0:0:0:0:
238,266,372016,6,0,P|333:253|394:178,1,198.000006042481,4|10,0:0|0:3,0:0:0:0:
241,86,372561,1,2,0:0:0:0:
124,234,372743,2,0,P|126:283|141:330,1,99.0000030212403,2|0,0:3|0:0,0:0:0:0:
302,340,373106,1,10,0:3:0:0:
241,86,373288,1,4,0:0:0:0:
241,86,373652,5,8,0:0:0:0:
278,240,373834,1,8,0:0:0:0:
393,131,374016,1,4,0:0:0:0:
48,219,374379,1,0,0:0:0:0:
48,219,374561,2,0,P|43:170|47:121,1,99.0000030212403,10|0,0:3|0:0,0:0:0:0:
241,86,374925,5,8,0:0:0:0:
278,240,375106,1,2,0:0:0:0:
393,131,375288,1,8,0:0:0:0:
208,174,375470,1,2,0:0:0:0:
333,58,375652,1,8,0:0:0:0:
370,223,375834,1,2,0:0:0:0:
186,268,376016,2,0,P|143:244|115:203,1,99.0000030212403,8|2,0:0|0:0,0:0:0:0:
333,58,376379,5,8,0:0:0:0:
278,240,376561,1,0,3:0:0:0:
241,86,376743,1,8,0:0:0:0:
186,268,376925,1,0,3:0:0:0:
141,83,377106,1,8,0:0:0:0:
323,138,377288,1,0,3:0:0:0:
131,185,377470,1,8,0:0:0:0:
122,150,377561,1,0,0:0:0:0:
125,115,377652,1,2,0:0:0:0:
141,83,377743,1,0,0:0:0:0:
160,57,377834,6,0,P|248:69|331:37,1,180,4|10,0:0|0:3,0:0:0:0:
472,65,378379,1,2,0:0:0:0:
472,65,378470,1,0,0:0:0:0:
472,65,378561,2,0,P|474:109|481:154,1,90,2|0,0:3|0:0,0:0:0:0:
356,244,378925,2,0,P|353:199|346:154,1,90,10|0,0:3|0:0,0:0:0:0:
183,75,379288,6,0,P|145:156|163:242,1,180,2|10,0:3|0:3,0:0:0:0:
427,337,379834,2,0,P|463:256|446:170,1,180,2|0,0:3|0:0,0:0:0:0:
365,31,380379,1,10,0:3:0:0:
282,170,380561,1,2,0:0:0:0:
282,170,380652,1,0,0:0:0:0:
282,170,380743,6,0,P|363:202|446:171,1,180,2|10,0:3|0:3,0:0:0:0:
365,31,381288,1,2,0:0:0:0:
365,31,381379,1,0,0:0:0:0:
365,31,381470,2,0,P|358:75|365:119,1,90,2|0,0:3|0:0,0:0:0:0:
446,260,381834,2,0,P|452:216|446:172,1,90,10|0,0:3|0:0,0:0:0:0:
365,31,382197,6,0,P|277:18|197:56,1,180,2|10,0:3|0:3,0:0:0:0:
148,267,382743,2,0,P|235:279|315:241,1,180,2|0,0:3|0:0,0:0:0:0:
419,140,383288,2,0,P|444:177|457:219,1,90,10|0,0:3|0:0,0:0:0:0:
281,328,383652,6,0,P|223:262|227:174,1,180,4|10,0:0|0:3,0:0:0:0:
288,42,384197,1,2,0:0:0:0:
288,42,384288,1,0,0:0:0:0:
288,42,384379,2,0,P|243:35|198:36,1,90,2|0,0:3|0:0,0:0:0:0:
138,169,384743,2,0,P|182:175|227:174,1,90,10|0,0:3|0:0,0:0:0:0:
411,139,385106,6,0,P|429:227|404:313,1,180,4|10,0:0|0:3,0:0:0:0:
129,342,385652,2,0,P|112:254|138:169,1,180,4|0,0:0|0:0,0:0:0:0:
233,60,386197,1,10,0:3:0:0:
361,125,386379,1,2,0:0:0:0:
361,125,386470,1,0,0:0:0:0:
361,125,386561,6,0,L|405:120,3,45,2|0|0|0,0:3|0:0|0:0|0:0,0:0:0:0:
268,177,386925,2,0,L|223:171,3,45,10|0|0|0,0:3|0:0|0:0|0:0,0:0:0:0:
361,226,387288,2,0,L|405:230,3,45,2|0|2|0,0:3|0:0|0:0|0:0,0:0:0:0:
268,288,387652,2,0,L|223:293,3,45,8|0|0|0,0:3|0:0|0:0|0:0,0:0:0:0:
396,239,388016,6,0,P|400:283|397:328,1,90,4|0,0:0|0:0,0:0:0:0:
268,288,388379,1,8,0:0:0:0:
315,161,388561,2,0,P|358:153|404:156,1,90,4|0,0:0|0:0,0:0:0:0:
268,288,388925,1,0,0:0:0:0:
203,170,389106,2,0,P|198:124|200:79,1,90,12|0,0:0|0:0,0:0:0:0:
268,288,389470,5,8,0:0:0:0:
268,288,389561,1,0,0:0:0:0:
268,288,389652,1,0,0:0:0:0:
132,320,389834,1,8,0:0:0:0:
132,320,389925,1,0,0:0:0:0:
132,320,390016,1,0,0:0:0:0:
172,187,390197,1,8,0:0:0:0:
268,288,390379,1,0,0:0:0:0:
331,138,390561,2,0,P|335:93|329:48,1,90,8|0,0:0|0:0,0:0:0:0:
203,98,390925,5,12,0:0:0:0:
268,288,391112,1,8,0:0:0:0:
331,138,391300,1,8,0:0:0:0:
132,320,391487,1,12,0:0:0:0:
