osu file format v5

[General]
AudioFilename: Biggest_dreamer_TVEdit.mp3
AudioLeadIn: 0
PreviewTime: -1
Countdown: 1
SampleSet: Normal
StackLeniency: 1
Mode: 0
LetterboxInBreaks: 1

[Metadata]
Title:Biggest Dreamer
Artist:Wada Kouji
Creator:Ekaru
Version:Normal
Source:Digimon Tamers
Tags:Digimon anime j-pop rock japanese

[Difficulty]
HPDrainRate:3
CircleSize:4
OverallDifficulty:6
SliderMultiplier:1.9
SliderTickRate:1

[Events]
//Background and Video events
0,0,"Background.jpg"
//Break Periods
//Storyboard Layer 0 (Background)
//Storyboard Layer 1 (Failing)
//Storyboard Layer 2 (Passing)
//Storyboard Layer 3 (Foreground)
//Storyboard Sound Samples
//Background Colour Transformations
3,100,163,162,255

[TimingPoints]
15035,447.961773928625,4,1,0,50,1

[Colours]
Combo1 : 0,0,0
Combo2 : 255,0,0
Combo3 : 0,145,0
Combo4 : 255,255,0

[HitObjects]
256,192,15035,1,4
449,189,15482,1,4
336,32,15930,1,4
238,32,16154,1,4
84,298,16826,5,0
131,110,17274,1,0
260,253,17722,1,0
348,81,18170,1,0
401,266,18618,5,0
221,194,19066,1,4
76,187,19402,1,4
69,331,19738,1,4
188,179,20186,1,4
91,179,20410,5,4
257,102,20858,1,0
450,104,21306,1,0
258,130,21754,1,0
81,52,22202,2,2,B|81:364|81:364|513:364|513:364|513:28|513:28|57:28,1,1520
216,32,26234,5,0
409,32,26682,1,0
295,188,27129,1,0
212,362,27577,1,0
63,238,28025,1,0
69,44,28473,1,0
455,46,29369,5,0
458,238,29817,1,0
294,134,30265,1,0
297,327,30713,1,0
103,329,31161,1,0
111,136,31609,1,0
192,311,32057,1,0
478,51,32953,5,0
474,243,33401,1,0
280,240,33849,1,0
146,99,34297,1,0
336,66,34745,2,4,B|371:134|414:188|435:252|412:315|259:294|219:300|153:251|267:177|267:177|152:87,1,570
49,32,36537,6,0,B|249:32,1,190
90,161,37433,1,0
264,245,37881,1,0
456,248,38329,2,0,B|72:136,1,380
464,192,40120,5,8
272,192,40568,1,8
440,96,41016,1,8
336,256,41464,1,8
200,122,41912,1,8
71,261,42360,1,8
113,76,42808,1,8
261,195,43256,1,8
405,71,43704,2,2,B|489:180|482:264|444:311|349:332|210:325|133:291|88:192|133:173,2,570,2|2|4
216,32,46840,1,0
408,32,47288,5,0
312,192,47736,1,0
150,298,48184,1,0
144,96,48632,1,0
323,158,49080,5,8
169,40,49528,1,8
37,182,49976,1,8
229,183,50423,1,8
229,183,50647,5,4
232,184,50871,2,4,B|202:213|253:234|286:214|334:185|396:198,1,190,4|4
340,110,51543,2,2,B|443:153|435:269|341:322|327:406|243:399|167:397|297:114,2,617.5
242,35,54791,6,4,B|82:232,1,237.5
272,200,55799,5,8
424,318,56247,1,8
272,200,56695,1,8
402,57,57143,1,8
272,200,57591,1,8
146,53,58039,1,8
272,200,58487,1,8
119,317,58935,1,8
272,200,59383,5,0
461,195,59831,1,0
272,200,60279,2,2,B|404:119,2,142.5
27,355,61623,1,0
25,161,62070,1,0
24,161,62406,2,2,B|112:25|112:25|124:40,1,142.5
196,61,62966,5,0
380,115,63414,1,0
261,210,63862,1,0
172,281,64198,2,2,B|280:295|284:110|256:89|232:64,1,237.5
208,242,65206,1,0
104,136,65654,1,0
104,136,65990,2,4,B|261:220,1,142.5
384,128,66774,5,0
384,128,66998,1,0
300,204,67334,1,0
144,80,67894,1,0
144,80,68230,2,2,B|299:122,1,142.5
386,130,68790,5,0
386,130,69014,1,0
386,130,69238,1,0
277,95,69574,2,0,B|103:141,1,142.5
182,195,70134,5,0
267,321,70582,1,0
434,300,71030,2,2,B|152:129,1,285
108,99,71926,5,0
291,39,72374,1,0
124,136,72822,2,2,B|205:176|187:222|150:247|85:308,2,190
220,124,73941,2,2,B|328:120,3,95
312,120,75061,2,0,B|182:204,2,142.5,0|2|0
433,112,75957,5,0
433,112,76181,5,0
433,112,76405,5,0
312,120,76741,6,2,B|244:280,1,142.5
339,232,77301,1,2
43,40,78197,5,8
234,63,78645,1,8
125,206,79093,1,8
316,181,79541,1,8
509,185,79989,5,8
419,355,80437,1,8
225,358,80885,1,8
151,179,81333,1,8
331,109,81781,1,8
141,73,82229,5,8
171,263,82677,1,8
358,309,83125,1,8
262,140,83573,1,8
443,74,84021,1,8
489,261,84469,1,8
489,67,84917,6,2,B|170:140,1,285
122,196,85812,2,2,B|501:300,1,380
379,164,87156,2,2,B|71:76,1,285
205,165,88164,1,2
246,286,88500,2,0,B|405:44,1,285
