osu file format v5

[General]
AudioFilename: Biggest_dreamer_TVEdit.mp3
AudioLeadIn: 0
PreviewTime: -1
Countdown: 1
SampleSet: Normal
StackLeniency: 1
Mode: 0
LetterboxInBreaks: 1

[Metadata]
Title:Biggest Dreamer
Artist:Wada Kouji
Creator:Ekaru
Version:Hard
Source:Digimon Tamers
Tags:Digimon anime j-pop rock japanese

[Difficulty]
HPDrainRate:3
CircleSize:5
OverallDifficulty:7
SliderMultiplier:1.9
SliderTickRate:1

[Events]
//Background and Video events
0,0,"800-by-600-9825-20040326164440.jpg"
//Break Periods
//Storyboard Layer 0 (Background)
//Storyboard Layer 1 (Failing)
//Storyboard Layer 2 (Passing)
//Storyboard Layer 3 (Foreground)
//Storyboard Sound Samples
//Background Colour Transformations
3,100,163,162,255

[TimingPoints]
15035,447.961773928625,4,1,0,50,1

[Colours]
Combo1 : 255,255,255
Combo2 : 255,0,0
Combo3 : 0,145,0
Combo4 : 255,255,0
Combo5 : 0,0,0

[HitObjects]
155,55,15035,5,0
306,56,15482,1,0
426,50,15818,1,0
426,50,15930,1,0
356,116,16154,2,4,B|393:152|357:217,1,95
256,95,16826,5,0
111,140,17274,1,0
43,231,17610,2,2,B|40:296|100:333|192:343|396:110,1,427.5
423,263,19066,5,0
309,267,19402,1,0
309,267,19514,1,0
348,202,19738,2,8,B|350:316,1,95
184,272,20410,5,0
184,120,20858,1,0
344,120,21306,1,0
344,272,21754,1,0
181,274,22202,5,0
179,159,22538,1,0
326,39,23098,5,0
331,152,23434,1,0
157,230,23994,6,2,B|267:199|250:101|136:46|70:90|70:90|80:91,1,285
77,166,24890,2,0,B|75:218|121:288|201:313|310:292,1,285
292,218,25786,5,4
179,219,26122,1,0
211,60,26682,1,0
250,123,26905,1,0
294,58,27129,1,0
250,123,27353,1,0
247,44,27577,1,0
168,42,27801,1,0
168,42,27913,1,0
170,158,28249,2,0,B|169:359,1,190,0|14
403,333,29369,6,8,B|376:289|393:220,1,95
388,241,29705,2,8,B|328:253|303:192,1,95
312,86,30265,1,0
261,145,30489,1,8
261,145,30601,1,8
261,145,30713,1,8
182,141,30937,1,0
183,215,31161,1,0
86,156,31497,1,0
106,47,31833,2,2,B|44:56|16:214,1,190
252,208,32953,6,0,B|364:206,1,95
346,206,33289,2,0,B|344:96,1,95
344,112,33625,1,0
424,112,33849,1,0
384,179,34073,1,0
443,229,34297,1,0
385,282,34521,1,0
328,228,34745,1,0
268,177,34969,1,0
268,177,35081,1,0
219,99,35305,1,0
219,99,35417,2,0,B|143:66|27:293,1,285
182,283,36537,5,0
216,216,36761,1,0
216,216,36873,2,0,B|274:212|262:85,1,142.5
340,112,37433,1,0
391,170,37657,1,0
328,216,37881,1,0
386,267,38105,1,0
336,327,38329,2,0,B|280:326|279:254,1,95
279,264,38664,2,2,B|244:333|211:340|124:310,1,142.5,2|6
113,74,39896,5,0
191,72,40120,1,0
113,74,40344,1,0
115,152,40568,1,0
272,152,41016,1,0
272,152,41128,1,0
243,222,41352,2,0,B|208:260|242:310|338:304,1,142.5
235,348,41912,5,0
173,299,42136,1,0
167,220,42360,1,0
221,164,42584,1,0
172,103,42808,1,0
172,103,42920,1,0
113,50,43144,2,0,B|88:92|178:168,1,142.5
230,114,43704,6,2,B|307:92|389:241,2,190
260,257,45048,1,2
337,257,45272,1,2
414,267,45496,2,2,B|364:326|289:308,1,95
293,316,45832,2,2,B|239:340|209:316|150:198|188:132,1,237.5
76,36,46840,5,8
75,113,47064,1,8
76,36,47288,1,8
75,113,47512,1,8
76,36,47736,1,8
144,74,47960,1,0
222,75,48184,1,0
222,75,48296,1,0
300,77,48520,2,0,B|352:77|399:116|352:182|322:172,1,142.5
261,171,49080,6,0,B|136:180,1,95,0|0
166,256,49528,1,0
88,264,49752,1,0
84,185,49976,1,0
84,185,50088,1,0
86,106,50311,2,0,B|235:92,1,142.5
297,91,50871,2,2,B|347:201,1,95
452,71,51543,5,0
456,149,51767,2,2,B|496:190|448:276,1,95
387,232,52215,1,0
309,219,52439,1,0
367,167,52663,2,2,B|397:95|372:49|316:45|230:52|136:79|100:128|97:177|100:220|144:260|437:352|451:340|451:338|440:208,1,760
256,192,54679,12,0,55351
69,71,55799,1,4
136,109,56023,1,4
214,109,56247,1,4
291,107,56471,1,4
369,110,56695,1,4
369,110,56807,1,4
447,110,57031,2,2,B|306:52,1,142.5
257,110,57591,5,0
257,188,57815,1,0
178,191,58039,1,0
135,125,58263,1,0
195,75,58487,1,0
195,75,58599,1,0
273,73,58823,2,2,B|331:116|426:72,1,142.5
413,157,59383,5,0
363,217,59607,1,0
285,223,59831,1,0
215,259,60055,1,0
152,216,60279,1,0
152,216,60391,1,0
115,127,60615,2,8,B|258:74,1,142.5
334,101,61175,5,0
334,101,61399,1,0
334,101,61623,1,0
339,179,61847,1,0
342,256,62070,1,0
342,256,62182,1,0
263,258,62406,1,0
317,358,62742,1,4
393,331,62966,5,0
439,267,63190,1,0
412,193,63414,1,0
333,196,63638,1,0
255,196,63862,2,0,B|158:199,1,95,0|2
161,161,64198,2,0,B|296:102,1,142.5,0|2
252,41,64758,5,0
252,41,64982,1,0
173,36,65206,1,0
103,71,65430,1,0
98,149,65654,1,0
157,198,65878,1,0
157,198,65990,2,0,B|210:265|200:304|16:249,1,237.5,0|2
34,173,66774,5,0
39,95,66998,1,0
116,88,67222,1,0
116,88,67334,2,0,B|264:128,1,142.5,0|6
247,201,67894,1,0
255,278,68118,1,0
255,278,68230,2,0,B|335:280|345:172,1,142.5,0|6
347,107,68790,5,0
268,106,69014,1,0
189,107,69238,1,0
189,107,69350,1,0
111,108,69574,2,0,B|111:270,1,142.5,0|6
189,244,70134,5,0
267,243,70358,1,0
345,245,70582,1,0
306,176,70806,1,0
227,176,71030,1,0
227,176,71142,1,0
149,176,71366,2,0,B|295:236,1,142.5,0|6
312,302,71926,5,0
233,302,72150,1,0
312,302,72374,1,0
355,237,72598,1,0
412,184,72822,1,0
412,184,72934,1,0
379,115,73158,2,8,B|120:112,1,237.5
158,34,73941,5,0
237,27,74165,1,0
315,25,74389,1,0
315,25,74501,2,0,B|478:27,1,142.5,0|12
472,104,75061,1,0
476,181,75285,1,0
476,181,75397,2,0,B|324:188,1,142.5,0|12
330,109,75957,5,0
251,106,76181,1,0
172,104,76405,1,0
172,104,76517,1,0
176,178,76741,2,2,B|325:178,1,142.5,2|4
470,348,77749,5,0
354,249,78197,1,0
251,299,78533,1,0
251,299,78645,1,0
175,306,78869,2,8,B|176:202,1,95
43,136,79541,5,0
195,132,79989,1,0
320,46,80437,1,0
168,45,80885,1,0
155,196,81333,5,0
151,348,81781,1,0
261,318,82117,1,0
261,318,82229,1,0
337,318,82453,2,2,B|408:333|424:249,1,95
427,128,83125,5,0
312,28,83573,1,0
313,180,84021,1,0
192,87,84469,1,0
192,87,84693,1,0
186,162,84917,5,0
87,277,85253,1,0
238,282,85812,1,0
256,192,86036,12,0,87604
256,192,87828,1,0
256,80,88164,1,0
368,80,88500,2,4,B|448:160|360:296|304:336,1,285
