osu file format v5

[General]
AudioFilename: 16 BIG TIME CHANGES.mp3
AudioLeadIn: 0
PreviewTime: -1
Countdown: 2
SampleSet: Normal
StackLeniency: 0.7
Mode: 0
LetterboxInBreaks: 1
EditorBookmarks: 75511

[Metadata]
Title:BIG TIME CHANGES
Artist:Wada Kouji
Creator:Constrictor
Version:Normal
Source:
Tags:

[Difficulty]
HPDrainRate:5
CircleSize:5
OverallDifficulty:5
SliderMultiplier:1.2
SliderTickRate:1

[Events]
//Background and Video events
0,0,"DigimonSaversFlashBack.png"
//Break Periods
2,18570,24858
2,60758,68303
//Storyboard Layer 0 (Background)
//Storyboard Layer 1 (Failing)
//Storyboard Layer 2 (Passing)
//Storyboard Layer 3 (Foreground)
//Storyboard Sound Samples
//Background Colour Transformations
3,100,163,162,255

[TimingPoints]
6558,375,4,1,0,100,1
68050,375,4,2,0,100,1
75550,375.5,4,2,0,100,1

[Colours]
Combo1 : 255,150,0
Combo2 : 5,240,5
Combo3 : 5,5,240
Combo4 : 240,5,5

[HitObjects]
256,192,6558,2,0,B|256:64,1,120
184,72,7308,1,2
104,72,7683,2,0,B|104:160,1,60
40,200,8058,1,0
104,200,8433,2,0,B|232:200,1,120
304,200,9183,1,6
400,200,9558,6,0,L|400:336|48:336,2,480
256,184,13683,5,0
256,184,13870,1,2
176,184,15183,5,0
176,184,15370,1,2
64,312,15933,6,0,B|-21:120|288:48,1,360
240,176,17620,1,0
168,176,18370,1,4
80,192,26058,6,0,B|264:192,1,180
320,192,27183,1,0
320,104,28683,1,0
272,104,28870,1,0
224,104,29058,1,2
176,104,29245,1,4
152,200,32058,6,0,B|352:200,2,180
152,200,33933,1,4
248,192,34683,2,0,B|248:256,2,60
256,248,35620,2,4,B|72:248,1,180
80,184,36370,1,4
80,112,37495,5,0
144,168,37682,1,0
216,112,37870,1,0
392,264,39089,5,0
320,208,39276,1,0
248,264,39464,1,0
88,104,40683,5,0
88,176,40870,1,0
88,176,41058,1,0
152,264,41433,1,0
152,264,41620,1,0
232,304,41995,1,0
320,304,42183,1,0
64,152,43683,5,0
64,152,44058,2,0,L|144:248|224:128|360:296,3,480
256,192,48933,12,0,53058
256,192,54558,5,0
64,96,56058,6,0,B|77:372|416:320,2,480
64,96,59433,5,0
128,96,59808,1,0
192,96,60183,1,0
224,96,60370,1,2
256,96,60558,1,4
256,160,69503,6,2,B|256:224,7,60
256,160,71005,5,0
160,160,71380,1,0
160,256,71756,1,0
256,256,72131,1,0
256,256,72507,2,4,B|320:256,6,60
256,256,74009,5,0
352,192,74384,1,0
448,96,74760,1,0
352,96,75135,1,0
256,96,75511,2,4,L|64:96|64:352|96:352,1,480
96,352,77765,5,0
160,288,78516,2,0,L|256:192,1,120
244,203,79267,2,0,L|352:96,1,120
329,118,80018,2,0,L|416:32,1,120
414,33,80769,2,0,L|288:32,1,120
294,32,81520,1,0
224,96,83022,5,0
160,160,83397,1,0
224,224,83773,1,0
288,160,84148,1,0
352,96,84524,1,0
416,160,84899,1,0
352,96,85275,1,0
480,224,85650,1,0
416,288,86026,5,0
352,224,86401,1,0
416,288,86777,1,0
288,160,87152,1,0
224,224,87528,1,0
288,160,87903,1,0
288,288,88279,1,0
224,224,88654,1,0
160,160,89030,5,0
96,96,89405,1,0
160,160,89781,1,0
32,160,90156,1,0
96,224,90532,1,0
32,160,90907,1,0
160,288,91283,1,0
256,288,91658,1,0
352,288,92034,1,0
256,192,92409,12,4,96540
