osu file format v5

[General]
AudioFilename: 16 BIG TIME CHANGES.mp3
AudioLeadIn: 0
PreviewTime: -1
Countdown: 2
SampleSet: Normal
StackLeniency: 0.7
Mode: 0
LetterboxInBreaks: 1
EditorBookmarks: 75511

[Metadata]
Title:BIG TIME CHANGES
Artist:Wada Kouji
Creator:Constrictor
Version:Hard
Source:
Tags:

[Difficulty]
HPDrainRate:6
CircleSize:6
OverallDifficulty:6
SliderMultiplier:1.2
SliderTickRate:2

[Events]
//Background and Video events
0,0,"DigimonSaversFlashBack.png"
//Break Periods
2,18570,24858
2,60758,68303
//Storyboard Layer 0 (Background)
//Storyboard Layer 1 (Failing)
//Storyboard Layer 2 (Passing)
//Storyboard Layer 3 (Foreground)
//Storyboard Sound Samples
//Background Colour Transformations
3,100,163,162,255

[TimingPoints]
6558,375,4,1,0,100,1
11050,375,4,2,0,100,1
12550,375,4,1,0,100,1
26050,375,4,1,0,100,1
68050,375,4,2,0,100,1
75550,375,4,2,0,100,1

[Colours]
Combo1 : 255,150,0
Combo2 : 5,240,5
Combo3 : 5,5,240
Combo4 : 240,5,5

[HitObjects]
256,192,6558,2,0,B|256:64,1,120
184,72,7308,1,8
104,72,7683,2,0,B|104:160,1,60,8|0
40,200,8058,1,8
104,200,8433,2,0,B|232:200,1,120,0|0
304,200,9183,1,12
304,248,9558,5,0
264,248,9745,1,8
224,248,9933,1,0
184,248,10120,1,8
144,248,10308,1,0
104,248,10495,1,8
64,248,10683,1,0
64,288,10870,1,8
104,288,11050,5,4
56,336,11240,1,8
104,336,11427,1,4
152,336,11615,1,8
192,336,11802,1,4
240,336,11990,1,8
288,336,12177,1,4
336,336,12365,1,8
240,256,12925,6,4,B|158:240|160:160,1,120
160,178,13487,1,0
160,120,13677,5,0
160,120,13865,1,2
224,120,14425,6,4,B|293:130|296:216,1,120
295,203,14987,1,0
240,264,15177,5,0
240,264,15365,1,2
64,312,15927,6,0,B|-21:120|288:48,1,360
239,60,17237,1,0
240,176,17615,1,0
168,120,17800,2,4,B|240:240,1,120
168,176,18365,1,4
80,192,26058,6,0,B|264:192,1,180
160,192,27175,2,4,B|232:288|329:296|400:200|256:192,1,300
320,104,28683,1,0
256,160,28870,1,0
256,104,29058,1,2
320,160,29245,1,4
256,192,29800,12,0,31112
152,200,32058,6,0,B|352:200,2,180
152,200,33933,1,4
152,200,34112,1,0
248,192,34683,2,0,B|248:256,2,60
256,248,35620,2,4,B|72:248,1,180
80,184,36370,1,4
80,112,37495,5,0
144,168,37682,1,0
216,112,37870,1,0
392,264,39089,5,0
320,208,39276,1,0
248,264,39464,1,0
88,104,40683,5,0
88,176,40870,1,0
88,176,41058,1,0
152,264,41433,1,0
152,264,41620,1,0
232,304,41995,1,0
320,304,42183,1,0
240,248,42550,5,0
208,224,42737,1,0
184,208,42925,1,0
152,184,43112,1,0
128,160,43300,1,0
64,152,43683,5,0
64,152,44058,2,0,L|144:248|224:128|360:296,2,480
64,152,47237,2,0,B|112:112,1,60
110,113,47612,1,0
176,112,47800,2,0,B|304:112,1,120
296,112,48550,1,0
256,192,48933,12,0,53058
96,192,53800,1,0
216,192,54362,1,0
256,192,54558,1,0
128,96,55300,1,0
128,96,55487,1,0
128,96,55675,1,0
64,96,56058,6,0,B|77:372|416:320,1,480
400,264,57925,2,0,B|336:264,1,60
340,264,58300,1,0
280,264,58487,2,0,B|344:264,1,60
184,192,59050,1,0
64,96,59433,5,0
128,96,59808,1,0
192,96,60183,1,0
224,96,60370,1,2
256,96,60558,1,4
256,160,69503,6,2,B|256:224,7,60
256,160,71005,5,0
160,160,71380,1,0
160,256,71756,1,0
256,256,72131,1,0
256,256,72507,2,4,B|320:256,6,60
256,256,74009,5,0
352,192,74384,1,0
448,96,74760,1,0
352,96,75135,1,0
256,96,75550,2,4,L|64:96|64:352|96:352,1,480
96,352,77765,5,0
160,288,78516,2,0,L|256:192,1,120
244,203,79267,2,0,L|352:96,1,120
329,118,80018,2,0,L|416:32,1,120
414,33,80769,2,0,L|288:32,1,120
294,32,81520,1,0
224,96,83022,5,0
160,160,83397,1,0
224,224,83773,1,0
288,160,84148,1,0
352,96,84524,1,0
416,160,84899,1,0
352,96,85275,1,0
480,224,85650,1,0
416,288,86026,5,0
352,224,86401,1,0
416,288,86777,1,0
288,160,87152,1,0
224,224,87528,1,0
288,160,87903,1,0
288,288,88279,1,0
224,224,88654,1,0
160,160,89030,5,0
96,96,89405,1,0
160,160,89781,1,0
32,160,90156,1,0
96,224,90532,1,0
32,160,90907,1,0
160,288,91283,1,0
256,288,91658,1,0
352,288,92034,1,0
256,192,92409,12,4,96540
256,192,96925,1,0
