osu file format v13

[General]
AudioFilename: Touhou Project Character theme Medley (Bad Apple!! Style) - HD.mp3
AudioLeadIn: 0
PreviewTime: 168279
Countdown: 0
SampleSet: Soft
StackLeniency: 0.8
Mode: 0
LetterboxInBreaks: 1
WidescreenStoryboard: 1

[Editor]
DistanceSpacing: 0.7
BeatDivisor: 4
GridSize: 4
TimelineZoom: 1

[Metadata]
Title:Touhou Character Medley (Bad Apple Style)
TitleUnicode:Touhou Character Medley (Bad Apple Style)
Artist:WU
ArtistUnicode:WU
Creator:Winek
Version:Normal
Source:Touhou
Tags:
BeatmapID:436839
BeatmapSetID:181757

[Difficulty]
HPDrainRate:4
CircleSize:3
OverallDifficulty:4
ApproachRate:5
SliderMultiplier:1.2
SliderTickRate:2

[Events]
//Background and Video events
0,0,"yuuka.png",0,0
Video,0,"touhouest.flv"
//Break Periods
//Storyboard Layer 0 (Background)
//Storyboard Layer 1 (Fail)
//Storyboard Layer 2 (Pass)
//Storyboard Layer 3 (Foreground)
//Storyboard Sound Samples
//Background Colour Transformations
3,100,163,162,255

[TimingPoints]
1323,434.782608695652,4,2,0,60,1,0
29149,-83.3333333333333,4,2,0,100,0,0
36106,-100,4,2,0,100,0,0
45671,-133.333333333333,4,1,0,75,0,0
46540,-100,4,2,0,100,0,0
55236,-133.333333333333,4,1,0,100,0,0
56106,-83.3333333333333,4,1,0,100,0,0
56758,-100,4,2,0,100,0,0
112627,-100,4,2,0,100,0,0
208062,-133.333333333333,4,2,0,100,0,0

[Colours]
Combo1 : 255,128,64
Combo2 : 62,62,62
Combo3 : 242,242,242
Combo4 : 0,128,255
Combo5 : 0,128,0
Combo6 : 253,66,202
Combo7 : 255,0,0
Combo8 : 255,255,0

[HitObjects]
72,194,1323,86,0,P|124:218|208:202,1,120,4|4,1:0|0:3,0:0:0:0:
197,296,2192,2,0,P|257:252|269:204,1,120,0|4,0:0|0:3,0:0:0:0:
267,168,2845,1,4,0:3:0:0:
267,126,3062,2,0,P|266:68|316:12,1,120,0|4,1:0|0:3,0:0:0:0:
349,88,3932,2,0,P|393:67|462:89,1,120,0|4,0:0|0:3,0:0:0:0:
405,151,4801,54,0,P|359:170|283:145,1,120,0|4,1:0|0:3,0:0:0:0:
209,140,5671,1,0,0:0:0:0:
217,223,6106,2,0,P|188:221|145:198,2,60,4|4|0,0:3|0:3|1:0,0:0:0:0:
254,298,6975,1,4,0:3:0:0:
317,242,7410,2,0,P|373:254|435:230,2,120,0|4|0,0:0|0:3|1:0,0:0:0:0:
278,167,8714,54,0,P|250:119|285:44,1,120,4|0,0:3|0:0,0:0:0:0:
336,106,9584,2,0,L|411:111,2,60,4|4|0,0:3|0:3|1:0,0:0:0:0:
365,27,10453,2,0,L|232:20,1,120,4|0,0:3|0:0,0:0:0:0:
184,79,11323,1,4,0:3:0:0:
132,145,11758,54,0,P|183:163|258:119,2,120,0|4|0,1:0|0:3|0:0,0:0:0:0:
49,158,13062,1,4,0:3:0:0:
63,197,13279,1,4,0:3:0:0:
95,224,13497,1,0,0:0:0:0:
256,192,13714,12,4,14801,1:0:0:0:
420,214,15236,102,0,P|374:239|293:207,1,120,4|0,0:0|0:0,0:0:0:0:
357,156,16106,1,2,0:0:0:0:
279,123,16540,1,2,0:0:0:0:
199,150,16975,2,0,P|199:88|257:43,2,120,2|0|2,0:3|0:0|0:3,0:0:0:0:
129,197,18279,1,2,0:3:0:0:
60,246,18714,6,0,P|109:281|185:256,1,120,4|0,0:0|0:0,0:0:0:0:
194,350,19584,2,0,P|224:332|246:298,3,60,0|0|2|0,0:0|0:0|0:0|0:0,0:0:0:0:
261,277,20453,2,0,P|281:221|269:135,1,120,2|0,0:3|0:0,0:0:0:0:
214,105,21323,1,2,0:3:0:0:
174,117,21540,2,0,P|130:127|55:108,1,120,0|0,0:0|0:0,0:0:0:0:
38,147,22192,101,4,0:0:0:0:
103,202,22627,2,0,L|103:342,1,120,0|2,0:0|0:0,0:0:0:0:
182,350,23497,2,0,L|182:214,1,120,2|2,0:0|0:3,0:0:0:0:
261,202,24367,2,0,L|261:334,2,120,0|2|2,0:0|0:3|0:3,0:0:0:0:
345,203,25671,5,4,0:0:0:0:
304,129,26106,2,0,B|320:90|285:44|315:6,1,120,0|2,0:0|0:0,0:0:0:0:
227,16,26975,2,0,B|200:48|235:94|219:133,1,120,2|2,0:0|0:3,0:0:0:0:
135,129,27845,2,0,B|151:90|116:44|142:11,2,120,0|0|0,0:0|0:0|0:0,0:0:0:0:
107,226,29149,54,0,P|195:216|259:155,1,143.999995605469,2|2,0:0|0:0,0:0:0:0:
234,285,30019,2,0,P|292:244|328:139,1,143.999995605469,2|4,0:0|0:0,0:0:0:0:
223,173,30888,2,0,P|159:184|42:155,1,143.999995605469,2|0,0:0|0:0,0:0:0:0:
83,273,31758,2,0,P|162:284|276:252,1,143.999995605469,2|4,0:0|0:0,0:0:0:0:
331,279,32627,6,2,P|244:280|277:16,2,431.999986816407,2|4|0,0:0|0:0|0:0,0:0:0:0:
380,190,35671,1,4,0:0:0:0:
432,124,36106,102,2,P|386:107|304:152,1,120,4|2,0:0|0:0,0:0:0:0:
290,157,36758,1,2,0:0:0:0:
253,177,36975,2,0,P|208:191|150:170,2,90,2|2|2,0:3|0:3|0:3,0:0:0:0:
201,62,38279,1,0,0:0:0:0:
120,39,38714,1,2,0:0:0:0:
60,97,39149,1,0,0:0:0:0:
51,138,39366,1,0,0:0:0:0:
55,179,39584,37,4,0:0:0:0:
65,262,40019,1,2,0:0:0:0:
101,282,40236,1,2,0:0:0:0:
140,297,40453,2,0,P|151:251|124:189,2,90,2|2|2,0:3|0:3|0:3,0:0:0:0:
266,292,41758,1,0,0:0:0:0:
256,192,42192,12,0,43062,1:0:0:0:
156,136,43497,6,0,L|85:136,2,60,2|2|0,0:0|0:0|1:0,0:0:0:0:
144,220,44366,2,0,L|267:220,1,120,2|0,0:0|1:0,0:0:0:0:
320,282,45236,2,0,L|402:282,1,60,2|2,0:0|0:0,0:0:0:0:
446,269,45671,6,2,L|456:209,1,45.0000017166138,2|2,1:0|1:0,0:0:0:0:
387,207,46106,2,2,L|364:157,1,45.0000017166138,2|2,1:0|1:0,0:0:0:0:
393,108,46540,102,0,L|448:50,2,60,0|0|2,1:0|1:0|0:0,0:0:0:0:
325,57,47410,1,0,1:0:0:0:
286,74,47627,1,0,1:0:0:0:
256,104,47845,1,2,0:0:0:0:
224,180,48279,2,0,P|186:151|180:71,1,120,0|2,1:0|0:0,0:0:0:0:
91,87,49149,5,2,1:0:0:0:
65,120,49366,1,2,1:0:0:0:
65,162,49584,1,2,1:0:0:0:
89,195,49801,1,2,1:0:0:0:
115,226,50019,70,4,P|177:284|230:285,1,120,4|4,0:0|0:0,0:0:0:0:
258,220,50888,2,4,P|213:171|155:161,1,120,4|4,0:0|0:0,0:0:0:0:
176,77,51758,1,4,0:0:0:0:
259,77,52192,2,0,L|328:77,2,60,6|2|6,0:0|0:0|0:0,0:0:0:0:
176,77,53062,2,0,L|45:77,1,120,4|6,0:0|0:0,0:0:0:0:
43,160,53932,2,4,L|43:286,2,120,6|6|6,0:0|0:0|0:0,0:0:0:0:
96,165,55019,1,2,0:0:0:0:
145,195,55236,102,2,P|189:204|243:192,1,90.0000034332277,0|0,0:0|0:0,0:0:0:0:
190,120,56106,102,2,L|190:351,1,215.999993408203,2|8,0:0|0:3,0:0:0:0:
231,338,56975,86,0,P|289:323|345:290,1,120,8|2,0:3|0:3,0:0:0:0:
278,237,57845,2,2,P|331:191|369:132,1,120,2|2,0:0|0:0,0:0:0:0:
385,117,58497,1,8,0:3:0:0:
343,117,58714,2,0,P|295:142|214:158,1,120,8|2,0:3|0:3,0:0:0:0:
141,155,59584,2,2,P|160:106|235:71,1,120,2|2,0:0|0:0,0:0:0:0:
251,49,60236,85,8,0:3:0:0:
289,64,60453,2,0,P|339:79|360:72,2,60,8|2|2,0:3|0:0|0:0,0:0:0:0:
270,146,61323,2,0,P|311:160|355:155,2,60,8|2|2,0:3|0:0|0:0,0:0:0:0:
224,215,62192,2,0,P|185:200|159:174,3,60,2|2|2|2,0:0|0:0|0:0|0:0,0:0:0:0:
147,153,63062,1,8,0:3:0:0:
55,109,63497,2,0,P|84:71|116:55,1,60,0|2,0:0|0:0,0:0:0:0:
132,47,63931,37,0,0:0:0:0:
207,84,64366,2,0,P|253:99|307:101,2,90,2|2|2,0:3|0:3|0:0,0:0:0:0:
195,124,65236,1,2,0:0:0:0:
210,206,65670,1,2,0:0:0:0:
223,288,66105,2,0,P|169:279|133:242,2,90,2|2|2,0:3|0:3|0:0,0:0:0:0:
264,295,66975,2,0,L|332:294,1,60,0|0,0:0|0:0,0:0:0:0:
365,292,67409,86,2,P|425:272|443:218,1,120,2|2,0:0|0:0,0:0:0:0:
360,207,68279,2,2,P|402:142|445:143,1,120,2|2,0:0|0:0,0:0:0:0:
480,143,68931,1,2,0:0:0:0:
256,192,69149,12,2,70888,0:0:0:0:
52,72,71323,38,2,P|88:112|164:120,1,120,0|2,0:0|0:0,0:0:0:0:
132,204,72192,1,0,0:0:0:0:
112,284,72627,2,2,P|164:280|212:228,2,120,2|2|2,0:0|0:0|0:0,0:0:0:0:
55,221,73932,1,0,0:0:0:0:
41,181,74149,1,2,0:0:0:0:
56,141,74366,70,2,P|112:96|160:89,1,120,2|2,0:0|0:0,0:0:0:0:
238,92,75236,2,2,L|376:92,1,120,2|2,0:0|0:0,0:0:0:0:
400,92,75888,1,2,0:0:0:0:
445,162,76323,2,2,P|436:217|378:254,1,120,2|2,0:0|0:0,0:0:0:0:
344,253,76975,1,2,0:0:0:0:
177,216,77845,6,0,P|109:219|51:193,2,120,2|2|4,0:0|0:0|0:1,0:0:0:0:
177,153,79040,1,4,0:1:0:0:
173,90,79366,2,0,P|245:71|311:74,1,120,4|2,0:1|0:0,0:0:0:0:
330,82,80019,1,2,0:0:0:0:
319,165,80453,2,4,P|371:154|402:121,2,90,4|4|4,0:1|0:1|0:1,0:0:0:0:
274,165,81323,101,2,0:0:0:0:
214,219,81758,1,2,0:0:0:0:
245,296,82192,2,4,P|196:301|145:269,2,90,4|4|4,0:1|0:1|0:1,0:0:0:0:
281,274,83062,1,2,0:0:0:0:
256,192,83279,12,0,84366,0:0:0:0:
32,69,84801,38,2,P|77:109|152:111,1,120,2|2,0:0|0:0,0:0:0:0:
108,35,85671,2,2,P|86:85|91:148,1,120,2|2,0:0|0:0,0:0:0:0:
91,232,86540,1,4,0:0:0:0:
146,294,86975,2,0,P|260:321|379:293,1,240,2|2,0:0|0:0,0:0:0:0:
331,223,88279,54,2,P|379:186|376:111,1,120,8|2,0:3|0:0,0:0:0:0:
384,87,88932,2,2,P|355:26|290:11,1,120,8|2,0:3|0:0,0:0:0:0:
266,13,89584,2,2,P|212:36|190:90,1,120,8|4,0:3|0:0,0:0:0:0:
88,340,91757,6,0,P|124:324|156:240,1,120,4|0,0:0|0:0,0:0:0:0:
160,212,92409,1,8,0:0:0:0:
152,172,92627,1,8,0:0:0:0:
71,195,93062,2,0,P|63:162|75:131,2,60,0|0|4,3:0|3:0|0:0,0:0:0:0:
147,161,93931,1,0,0:0:0:0:
184,142,94149,1,8,0:0:0:0:
219,119,94366,1,8,0:0:0:0:
266,178,94801,6,0,P|301:189|392:169,1,120,0|4,3:0|0:0,0:0:0:0:
407,255,95670,2,0,P|448:230|458:215,2,60,0|8|8,0:0|0:0|0:0,0:0:0:0:
467,313,96540,2,0,P|409:339|345:307,1,120,0|4,3:0|0:0,0:0:0:0:
274,317,97409,1,0,0:0:0:0:
233,305,97627,1,8,0:0:0:0:
196,284,97844,1,8,0:0:0:0:
105,142,98714,22,0,P|153:115|219:162,1,120,2|4,0:0|0:0,0:0:0:0:
284,180,99583,2,0,P|325:194|367:194,2,60,8|0|8,0:0|0:0|0:0,0:0:0:0:
328,108,100453,2,0,P|382:111|442:72,1,120,2|2,1:0|0:0,0:0:0:0:
456,115,101105,1,4,0:0:0:0:
479,149,101322,1,4,0:0:0:0:
448,227,101757,1,0,0:0:0:0:
366,247,102192,70,0,P|280:265|184:237,1,180,2|0,0:0|0:0,0:0:0:0:
167,322,103279,2,0,P|122:293|109:267,2,60,2|2|2,0:0|0:0|0:0,0:0:0:0:
194,242,104149,2,0,L|194:117,3,120,0|2|2|0,0:0|0:0|0:0|0:0,0:0:0:0:
245,131,105670,86,0,P|317:145|379:127,1,120,0|4,1:0|1:2,0:0:0:0:
340,235,106540,2,0,P|401:221|448:170,1,120,0|6,1:0|1:2,0:0:0:0:
443,98,107409,2,0,L|445:28,2,60,0|4|4,1:0|1:2|1:2,0:0:0:0:
358,98,108279,2,0,L|223:99,1,120,4|4,1:2|3:2,0:0:0:0:
217,180,109149,70,0,L|91:180,2,120,0|4|2,1:0|1:2|0:0,0:0:0:0:
218,264,110453,2,0,L|283:263,1,60,2|4,0:0|0:0,0:0:0:0:
309,120,112627,38,0,P|344:163|425:167,1,120,2|10,0:0|0:0,0:0:0:0:
391,90,113496,1,2,0:0:0:0:
326,35,113931,1,10,0:0:0:0:
243,51,114366,2,0,P|187:57|168:50,2,60,2|2|8,0:0|0:0|0:0,0:0:0:0:
244,135,115236,1,4,0:0:0:0:
205,209,115670,1,10,0:0:0:0:
127,177,116105,54,0,B|141:122|81:127|81:127|99:41|63:18,2,180,2|2|10,0:0|0:0|0:0,0:0:0:0:
59,226,117844,2,0,P|77:266|97:288,1,60,8|8,0:0|0:1,0:0:0:0:
121,302,118279,2,0,P|161:310|199:306,2,60,8|8|6,0:0|0:1|0:0,0:0:0:0:
159,227,119149,1,2,0:0:0:0:
239,182,119583,6,0,P|304:191|352:143,1,120,0|2,3:0|3:0,0:0:0:0:
433,150,120453,2,0,P|420:215|380:251,1,120,0|2,3:0|3:0,0:0:0:0:
312,294,121322,1,0,3:0:0:0:
271,303,121540,1,2,0:0:0:0:
229,309,121757,1,2,0:3:0:0:
146,295,122192,1,0,3:0:0:0:
76,247,122627,1,2,0:3:0:0:
89,164,123062,86,0,P|136:157|180:87,1,120,2|2,3:0|3:0,0:0:0:0:
249,146,123931,2,0,P|261:90|240:48,2,90,2|2|2,3:0|0:0|0:0,0:0:0:0:
237,184,124801,1,2,0:0:0:0:
256,192,125670,12,4,126540,0:0:0:0:
302,132,126975,22,0,L|373:131,2,60,2|0|4,0:0|0:0|0:0,0:0:0:0:
223,163,127844,1,0,0:0:0:0:
149,203,128279,2,0,B|110:217|30:208|113:121|-1:106|81:38,1,240,4|4,0:0|0:0,0:0:0:0:
166,34,129583,1,0,0:0:0:0:
227,91,130018,86,0,P|301:86|338:43,1,120,2|0,0:0|0:0,0:0:0:0:
414,42,130888,2,0,P|397:103|342:152,1,120,2|0,0:0|0:0,0:0:0:0:
282,179,131757,1,0,0:0:0:0:
158,283,133496,22,0,P|114:280|69:211,1,120,2|2,0:3|0:3,0:0:0:0:
150,198,134366,2,0,P|213:168|225:98,1,120,2|2,0:3|0:3,0:0:0:0:
145,111,135236,1,2,0:3:0:0:
72,69,135670,2,0,L|0:68,2,60,2|0|2,0:3|0:0|0:3,0:0:0:0:
145,26,136540,1,2,0:3:0:0:
215,72,136975,70,0,P|274:93|347:94,1,120,2|2,0:0|0:0,0:0:0:0:
377,166,137844,2,0,P|332:178|263:173,2,90,2|2|2,0:0|0:0|0:0,0:0:0:0:
417,153,138714,1,4,0:0:0:0:
256,192,139583,12,8,140453,0:0:0:0:
121,160,140888,37,8,0:1:0:0:
121,160,141105,1,8,0:1:0:0:
121,160,141322,1,8,0:1:0:0:
121,244,141757,1,8,0:0:0:0:
160,316,142192,2,0,B|200:280|200:280|200:216|200:216|324:216,1,240,0|2,0:0|0:0,0:0:0:0:
324,132,143496,1,0,0:0:0:0:
366,131,143714,70,0,P|425:117|458:47,1,120,8|8,0:0|0:0,0:0:0:0:
454,27,144366,1,8,0:1:0:0:
371,43,144801,1,8,0:1:0:0:
290,67,145236,2,0,P|222:91|158:67,1,120,8|0,0:0|0:0,0:0:0:0:
118,139,146105,1,2,0:0:0:0:
171,203,146540,1,2,0:0:0:0:
254,211,146975,1,2,0:0:0:0:
284,289,147409,22,0,P|325:265|341:239,2,60,2|2|2,0:3|0:3|0:3,0:0:0:0:
204,261,148279,2,0,P|181:231|177:205,2,60,2|2|2,0:3|0:3|0:3,0:0:0:0:
262,200,149149,2,0,L|300:17,2,180,2|2|2,0:0|0:0|0:0,0:0:0:0:
346,196,150888,85,2,0:3:0:0:
394,264,151322,1,2,0:3:0:0:
475,285,151757,2,0,P|454:326|436:340,2,60,2|2|2,0:3|0:3|0:0,0:0:0:0:
256,192,152627,12,4,154366,0:0:0:0:
161,151,154801,69,0,0:0:0:0:
175,233,155236,2,4,P|221:209|250:154,2,90,4|4|4,0:0|0:0|0:0,0:0:0:0:
132,234,156106,1,4,0:0:0:0:
80,169,156540,1,0,0:0:0:0:
75,85,156975,2,4,P|127:99|158:135,2,90,4|4|4,0:0|0:0|0:0,0:0:0:0:
75,85,157845,85,4,0:0:0:0:
40,161,158279,1,0,0:0:0:0:
58,242,158714,2,4,P|97:287|139:300,2,90,4|4|4,0:0|0:0|0:0,0:0:0:0:
96,225,159584,1,6,0:0:0:0:
427,283,161323,22,0,L|427:144,2,120,2|0|4,1:0|0:0|0:0,0:0:0:0:
368,224,162627,1,2,1:0:0:0:
368,224,163062,2,0,L|244:224,1,120,2|2,1:0|0:0,0:0:0:0:
164,224,163932,1,4,0:0:0:0:
164,308,164366,70,0,L|84:307,2,60,2|2|2,1:0|1:0|1:0,0:0:0:0:
248,308,165236,2,0,L|373:308,1,120,2|4,0:0|0:0,0:0:0:0:
368,228,166106,1,2,1:0:0:0:
368,228,166540,2,0,L|120:228,1,240,2|2,1:0|0:0,0:0:0:0:
84,228,167627,2,0,L|12:228,2,60,0|0|0,0:0|0:0|0:0,0:0:0:0:
80,184,168279,85,2,0:0:0:0:
140,128,168714,1,2,0:0:0:0:
216,104,169149,1,4,0:1:0:0:
256,96,169366,1,2,0:0:0:0:
300,88,169584,1,2,0:0:0:0:
392,80,170019,1,2,0:0:0:0:
431,153,170453,1,2,0:0:0:0:
400,231,170888,2,0,L|463:271,2,60,4|2|0,0:1|0:0|0:0,0:0:0:0:
322,263,171757,53,2,0:0:0:0:
238,274,172192,1,2,0:0:0:0:
154,284,172627,1,4,0:1:0:0:
160,242,172844,1,2,0:0:0:0:
181,205,173062,1,2,0:0:0:0:
261,180,173496,1,2,0:0:0:0:
341,157,173931,1,4,0:0:0:0:
365,122,174149,1,4,0:0:0:0:
264,306,175236,54,0,P|307:325|388:289,1,120,4|0,0:0|0:0,0:0:0:0:
457,296,176105,1,2,0:0:0:0:
455,254,176322,1,4,0:0:0:0:
420,229,176540,1,0,0:0:0:0:
336,219,176975,1,4,0:0:0:0:
259,184,177409,1,0,0:0:0:0:
208,251,177844,1,2,0:0:0:0:
137,205,178279,1,2,0:0:0:0:
84,270,178714,6,0,P|51:214|71:152,1,120,4|0,0:0|0:0,0:0:0:0:
123,104,179583,1,0,0:0:0:0:
162,89,179801,1,6,0:0:0:0:
200,97,180018,1,0,0:0:0:0:
271,136,180453,2,0,P|317:151|402:131,3,120,4|0|0|0,0:0|0:0|0:0|0:0,0:0:0:0:
342,68,182192,22,0,L|111:169,1,240,4|0,0:1|0:0,0:0:0:0:
115,81,183496,2,0,L|347:196,1,240,4|0,0:1|0:0,0:0:0:0:
364,110,184801,2,0,L|123:220,1,240,0|4,0:0|0:1,0:0:0:0:
96,277,186105,86,0,P|144:314|215:305,1,120,8|8,0:0|0:0,0:0:0:0:
243,314,186757,2,0,P|297:325|361:276,1,120,0|2,0:0|0:0,0:0:0:0:
256,192,187409,12,6,189149,0:0:0:0:
81,127,189583,70,0,L|26:60,2,60,2|2|2,0:0|0:0|0:0,0:0:0:0:
160,99,190453,2,0,L|239:210,1,120,0|2,0:0|0:0,0:0:0:0:
303,156,191322,2,0,L|372:258,1,120,2|2,0:0|0:0,0:0:0:0:
392,291,191975,2,0,L|441:357,2,60,2|2|0,0:0|0:0|0:0,0:0:0:0:
426,267,192627,6,0,L|347:162,1,120,4|2,0:0|0:0,0:0:0:0:
404,104,193496,1,2,0:0:0:0:
328,78,193931,2,0,L|276:21,2,60,2|2|4,0:0|0:0|0:0,0:0:0:0:
255,120,194801,2,0,L|307:167,2,60,0|0|4,0:0|0:0|0:0,0:0:0:0:
170,149,195670,1,0,0:0:0:0:
127,161,195888,1,0,0:0:0:0:
85,156,196105,53,4,0:0:0:0:
101,238,196540,1,2,0:0:0:0:
178,271,196975,2,0,P|142:312|83:319,2,90,2|2|2,0:0|0:0|0:0,0:0:0:0:
256,242,198062,1,2,0:0:0:0:
295,229,198279,1,2,0:0:0:0:
322,308,198714,2,0,L|424:258,2,90,0|0|2,0:0|0:0|0:0,0:0:0:0:
283,324,199583,6,0,P|230:348|150:374,2,120,4|2|2,0:0|0:0|0:0,0:0:0:0:
252,268,200779,1,2,0:0:0:0:
222,212,201105,1,2,0:0:0:0:
141,234,201540,2,0,P|136:197|147:164,1,60,2|2,0:0|0:0,0:0:0:0:
58,188,202192,2,0,P|77:124|102:98,2,90,2|2|2,0:0|0:0|0:0,0:0:0:0:
62,229,203062,5,4,0:0:0:0:
109,298,203496,1,2,0:0:0:0:
191,319,203931,2,0,P|250:328|393:309,1,180,2|2,0:0|0:0,0:0:0:0:
383,233,205018,1,2,0:0:0:0:
383,196,205236,1,2,0:0:0:0:
299,198,205670,2,0,L|300:87,2,90,2|2|2,0:0|0:0|0:0,0:0:0:0:
256,196,206540,1,2,0:0:0:0:
173,178,206975,1,2,0:0:0:0:
90,192,207409,2,0,P|108:230|144:244,2,60,2|2|2,0:0|0:0|0:0,0:0:0:0:
256,192,208062,12,0,210018,0:0:0:0:
256,192,210127,12,0,216757,0:0:0:0:
