osu file format v14

[General]
AudioFilename: Woodkid - Iron (pishifat) [Audio].mp3
AudioLeadIn: 0
PreviewTime: 29555
Countdown: 0
SampleSet: None
StackLeniency: 0.9
Mode: 0
LetterboxInBreaks: 1
WidescreenStoryboard: 1

[Editor]
Bookmarks: 60017,61863,63709,65555,67402,69248,70632,71094,104325,106171,107209,108017,109863,111709,113555,114940,115402,129132,154171,168940
DistanceSpacing: 1.4
BeatDivisor: 4
GridSize: 4
TimelineZoom: 1

[Metadata]
Title:Iron
TitleUnicode:Iron
Artist:WOODKID
ArtistUnicode:WOODKID
Creator:pishifat
Version:Easy
Source:Assassin's Creed: Revelations
Tags:golden age yoann lemoine french
BeatmapID:763130
BeatmapSetID:138489

[Difficulty]
HPDrainRate:3
CircleSize:3
OverallDifficulty:2
ApproachRate:3
SliderMultiplier:0.79999990463257
SliderTickRate:1

[Events]
//Background and Video events
0,0,"Woodkid - Iron (pishifat) [Background].jpg",0,0
//Break Periods
2,118486,124231
//Storyboard Layer 0 (Background)
//Storyboard Layer 1 (Fail)
//Storyboard Layer 2 (Pass)
//Storyboard Layer 3 (Foreground)
//Storyboard Sound Samples

[TimingPoints]
14902,461.538461538462,4,3,0,45,1,0
29671,-100,4,3,0,55,0,0
58286,-100,4,3,0,40,0,0
59209,-100,4,3,0,65,0,1
72132,-100,4,2,0,65,0,1
73978,-100,4,3,0,55,0,0
102594,-100,4,3,0,40,0,0
103517,-100,4,3,0,65,0,1
116440,-100,4,2,0,65,0,1
118286,-100,4,3,0,55,0,0
125671,-100,4,3,0,55,0,0
133055,-100,4,3,0,60,0,0
147825,-100,4,3,0,65,0,1
162132,-100,4,3,0,65,0,0
162594,-100,4,3,0,65,0,1
177363,-100,4,3,0,45,0,0

[Colours]
Combo1 : 183,162,134
Combo2 : 111,142,112
Combo3 : 129,145,150

[HitObjects]
292,95,14901,6,0,L|419:100,2,119.999985694885,8|8|8,0:0|0:0|0:0,0:0:0:0:
208,65,16748,1,8,0:0:0:0:
94,131,17440,1,8,0:0:0:0:
207,199,18132,1,4,0:0:0:0:
125,232,18594,6,0,P|95:285|100:357,2,119.999985694885,8|8|2,0:0|0:0|0:0,0:0:0:0:
207,199,20440,1,8,0:0:0:0:
338,207,21132,1,8,0:0:0:0:
469,215,21825,1,4,0:0:0:0:
422,140,22286,6,0,B|424:80|424:80|450:21,2,119.999985694885,8|8|2,0:0|0:0|0:0,0:0:0:0:
469,215,24132,1,8,0:0:0:0:
378,310,24825,1,8,0:0:0:0:
341,183,25517,1,4,0:0:0:0:
263,224,25978,6,0,L|137:231,2,119.999985694885,8|8|2,0:0|0:0|0:0,0:0:0:0:
341,183,27825,1,8,0:0:0:0:
313,53,28517,1,8,0:0:0:0:
212,138,29209,1,4,0:0:0:0:
153,72,29671,6,0,P|92:58|-7:105,1,159.999980926514,8|0,0:0|0:0,0:0:0:0:
36,175,31055,1,2,0:0:0:0:
1,255,31517,2,0,B|-5:315|-5:315|11:372,2,119.999985694885,8|8|4,0:0|0:0|0:0,0:0:0:0:
36,175,33363,6,0,B|77:161|119:167|106:176|153:186|201:171,1,159.999980926514,8|0,0:0|0:0,0:0:0:0:
257,112,34748,1,2,0:0:0:0:
343,124,35209,1,8,0:0:0:0:
335,299,36132,2,0,P|402:292|427:281,1,79.999990463257,0|4,0:0|0:0,0:0:0:0:
452,208,37055,6,0,L|443:40,1,159.999980926514,8|0,0:0|0:0,0:0:0:0:
362,13,38440,1,2,0:0:0:0:
288,60,38902,2,0,B|233:73|233:73|158:65,2,119.999985694885,8|8|4,0:0|0:0|0:0,0:0:0:0:
367,97,40748,6,0,P|376:153|316:240,1,159.999980926514,8|0,0:0|0:0,0:0:0:0:
234,231,42132,1,2,0:0:0:0:
151,262,42594,1,8,0:0:0:0:
180,88,43517,1,0,0:0:0:0:
95,62,43978,1,4,0:0:0:0:
23,113,44440,6,0,P|2:190|-8:283,1,159.999980926514,8|0,0:0|0:0,0:0:0:0:
49,336,45825,1,2,0:0:0:0:
132,309,46286,2,0,L|261:315,2,119.999985694885,8|8|4,0:0|0:0|0:0,0:0:0:0:
159,225,48132,6,0,P|225:212|330:204,1,159.999980926514,8|0,0:0|0:0,0:0:0:0:
381,148,49517,1,2,0:0:0:0:
297,119,49978,1,8,0:0:0:0:
452,36,50902,2,0,P|473:92|476:124,1,79.999990463257,0|4,0:0|0:0,0:0:0:0:
457,197,51825,6,0,B|450:248|450:248|468:300|468:300|459:370,1,159.999980926514,8|0,0:0|0:0,0:0:0:0:
377,378,53209,1,2,0:0:0:0:
310,319,53671,2,0,L|173:311,2,119.999985694885,8|8|4,0:0|0:0|0:0,0:0:0:0:
330,233,55517,6,0,P|252:208|173:200,1,159.999980926514,8|0,0:0|0:0,0:0:0:0:
90,224,56902,1,2,0:0:0:0:
270,31,58286,1,8,0:0:0:0:
279,118,58748,1,4,0:0:0:0:
291,205,59209,6,0,B|352:215|352:215|395:202|395:202|465:212,1,159.999980926514,8|2,0:0|0:0,0:0:0:0:
505,275,60594,1,2,0:0:0:0:
445,339,61055,2,0,L|282:350,1,159.999980926514,8|2,0:0|0:0,0:0:0:0:
205,313,62440,1,2,0:0:0:0:
164,234,62902,6,0,P|124:224|70:217,1,79.999990463257,8|2,0:0|0:0,0:0:0:0:
57,134,63825,2,0,P|94:122|145:119,1,79.999990463257,2|2,0:0|0:0,0:0:0:0:
218,92,64748,2,0,L|224:5,2,79.999990463257,4|2|2,0:0|0:0|0:0,0:0:0:0:
266,165,66132,1,2,0:0:0:0:
335,110,66594,6,0,P|382:98|486:145,1,159.999980926514,8|2,0:0|0:0,0:0:0:0:
492,226,67978,1,2,0:0:0:0:
430,288,68440,2,0,B|371:293|371:293|326:277|326:277|256:282,1,159.999980926514,8|2,0:0|0:0,0:0:0:0:
199,329,69825,1,2,0:0:0:0:
124,282,70286,6,0,P|112:218|110:188,1,79.999990463257,8|2,0:0|0:0,0:0:0:0:
181,150,71209,2,0,P|187:97|186:65,1,79.999990463257,2|2,0:0|0:0,0:0:0:0:
110,25,72132,2,0,L|284:13,1,159.999980926514,0|0,0:0|3:0,0:0:0:0:
355,34,73517,1,2,3:0:0:0:
295,98,73978,6,0,P|272:162|258:262,1,159.999980926514,8|0,0:0|0:0,0:0:0:0:
288,335,75363,1,2,0:0:0:0:
369,301,75825,2,0,L|501:294,2,119.999985694885,8|8|6,0:0|0:0|0:0,0:0:0:0:
288,335,77671,6,0,P|211:341|135:292,1,159.999980926514,8|0,0:0|0:0,0:0:0:0:
108,220,79055,1,2,0:0:0:0:
113,133,79517,1,8,0:0:0:0:
256,30,80440,2,0,L|340:35,1,79.999990463257,0|6,0:0|0:0,0:0:0:0:
420,59,81363,6,0,P|455:127|466:215,1,159.999980926514,8|0,0:0|0:0,0:0:0:0:
422,285,82748,1,2,0:0:0:0:
337,260,83209,2,0,B|320:203|320:203|325:133,2,119.999985694885,8|8|6,0:0|0:0|0:0,0:0:0:0:
359,345,85055,6,0,L|197:351,1,159.999980926514,8|0,0:0|0:0,0:0:0:0:
114,327,86440,1,2,0:0:0:0:
87,243,86902,1,8,0:0:0:0:
195,104,87825,1,0,0:0:0:0:
120,57,88286,1,6,0:0:0:0:
34,76,88748,6,0,P|0:180|-5:248,1,159.999980926514,8|0,0:0|0:0,0:0:0:0:
28,312,90132,1,2,0:0:0:0:
114,327,90594,2,0,L|250:317,2,119.999985694885,8|8|6,0:0|0:0|0:0,0:0:0:0:
89,242,92440,6,0,B|197:234|197:234|259:211,1,159.999980926514,8|0,0:0|0:0,0:0:0:0:
287,138,93825,1,2,0:0:0:0:
322,57,94286,1,8,0:0:0:0:
473,145,95209,2,0,P|485:198|489:234,1,79.999990463257,0|6,0:0|0:0,0:0:0:0:
432,291,96132,6,0,P|365:255|280:267,1,159.999980926514,8|0,0:0|0:0,0:0:0:0:
231,335,97517,1,2,0:0:0:0:
162,280,97978,2,0,L|158:151,2,119.999985694885,8|8|6,0:0|0:0|0:0,0:0:0:0:
109,350,99825,6,0,P|48:324|-22:318,2,119.999985694885,8|8|2,0:0|0:0|0:0,0:0:0:0:
301,170,102594,1,8,0:0:0:0:
213,182,103055,1,4,0:0:0:0:
125,193,103517,6,0,P|78:112|94:42,1,159.999980926514,8|2,0:0|0:0,0:0:0:0:
170,16,104902,1,2,0:0:0:0:
237,72,105363,2,0,B|295:77|295:77|341:68|341:68|407:73,1,159.999980926514,8|2,0:0|0:0,0:0:0:0:
468,121,106748,1,2,0:0:0:0:
398,174,107209,6,0,P|381:229|379:270,1,79.999990463257,8|2,0:0|0:0,0:0:0:0:
392,338,108132,2,0,L|306:344,1,79.999990463257,2|2,0:0|0:0,0:0:0:0:
230,310,109055,2,0,P|105:292|59:289,1,159.999980926514,4|2,0:0|0:0,0:0:0:0:
17,220,110440,1,2,0:0:0:0:
81,159,110902,6,0,B|121:146|168:151|149:159|197:169|254:152,1,159.999980926514,8|2,0:0|0:0,0:0:0:0:
285,81,112286,1,2,0:0:0:0:
197,75,112748,2,0,P|155:142|184:231,1,159.999980926514,8|2,0:0|0:0,0:0:0:0:
255,243,114132,1,2,0:0:0:0:
336,209,114594,6,0,L|427:203,1,79.999990463257,8|2,0:0|0:0,0:0:0:0:
424,292,115517,2,0,L|335:298,1,79.999990463257,2|2,0:0|0:0,0:0:0:0:
270,346,116440,2,0,P|203:351|115:302,1,159.999980926514,0|0,0:0|3:0,0:0:0:0:
89,227,117825,1,2,3:0:0:0:
94,139,118286,5,0,0:0:0:0:
125,165,125671,6,0,B|184:169|184:169|220:150|220:150|287:155,1,159.999980926514,8|0,0:0|0:0,0:0:0:0:
393,288,127517,2,0,P|314:271|248:327,1,159.999980926514,8|8,0:0|0:0,0:0:0:0:
82,354,129363,6,0,L|72:179,1,159.999980926514,8|0,0:0|0:0,0:0:0:0:
186,60,131209,2,0,P|218:116|238:218,1,159.999980926514,8|8,0:0|0:0,0:0:0:0:
215,293,132594,1,2,0:0:0:0:
284,347,133055,6,0,P|354:354|428:305,1,159.999980926514,8|0,0:0|0:0,0:0:0:0:
384,135,134902,2,0,B|325:127|325:127|284:142|284:142|210:133,1,159.999980926514,8|8,0:0|0:0,0:0:0:0:
156,83,136286,1,2,0:0:0:0:
82,131,136748,6,0,P|52:209|44:288,1,159.999980926514,8|0,0:0|0:0,0:0:0:0:
212,232,138594,2,0,L|382:221,1,159.999980926514,8|4,0:0|0:0,0:0:0:0:
458,235,139978,1,2,0:0:0:0:
509,163,140440,6,0,P|488:55|439:34,1,159.999980926514,8|0,0:0|0:0,0:0:0:0:
301,128,142286,2,0,L|139:121,1,159.999980926514,0|8,0:0|0:0,0:0:0:0:
62,80,143671,1,2,0:0:0:0:
3,145,144132,6,0,B|-6:227|-6:227|10:308,1,159.999980926514,0|0,0:0|0:0,0:0:0:0:
173,240,145978,2,0,P|212:231|267:229,1,79.999990463257,8|0,0:0|0:0,0:0:0:0:
327,274,146902,1,8,0:0:0:0:
414,266,147363,1,4,0:0:0:0:
474,202,147825,6,0,P|463:126|432:37,1,159.999980926514,8|2,0:0|0:0,0:0:0:0:
352,22,149209,1,2,0:0:0:0:
283,77,149671,2,0,B|221:84|221:84|187:68|187:68|118:75,1,159.999980926514,8|2,0:0|0:0,0:0:0:0:
56,126,151055,1,2,0:0:0:0:
134,165,151517,6,0,P|154:215|160:251,1,79.999990463257,8|2,0:0|0:0,0:0:0:0:
243,266,152440,2,0,L|329:259,1,79.999990463257,2|2,0:0|0:0,0:0:0:0:
312,347,153363,2,0,L|134:362,1,159.999980926514,4|2,0:0|0:0,0:0:0:0:
70,329,154748,1,2,0:0:0:0:
34,248,155209,6,0,P|48:159|79:97,1,159.999980926514,8|2,0:0|0:0,0:0:0:0:
162,69,156594,1,2,0:0:0:0:
210,142,157055,2,0,B|287:164|287:164|379:155,1,159.999980926514,8|2,0:0|0:0,0:0:0:0:
442,111,158440,1,2,0:0:0:0:
496,180,158902,6,0,P|511:241|513:275,1,79.999990463257,8|2,0:0|0:0,0:0:0:0:
453,323,159825,2,0,L|363:319,1,79.999990463257,2|2,0:0|0:0,0:0:0:0:
322,247,160748,2,0,P|252:233|177:286,1,159.999980926514,4|2,0:0|0:0,0:0:0:0:
159,364,162132,1,2,0:0:0:0:
77,330,162594,6,0,L|70:160,1,159.999980926514,8|2,0:0|0:0,0:0:0:0:
94,85,163978,1,2,0:0:0:0:
166,135,164440,2,0,B|219:143|219:143|261:134|261:134|296:137|337:158,1,159.999980926514,8|2,0:0|0:0,0:0:0:0:
350,234,165825,1,2,0:0:0:0:
378,317,166286,6,0,P|439:332|467:330,1,79.999990463257,8|2,0:0|0:0,0:0:0:0:
509,261,167209,2,0,L|503:171,1,79.999990463257,2|2,0:0|0:0,0:0:0:0:
471,98,168132,2,0,P|390:66|306:61,1,159.999980926514,4|2,0:0|0:0,0:0:0:0:
246,112,169517,1,2,0:0:0:0:
207,190,169978,6,0,B|149:198|149:198|108:184|108:184|36:193,1,159.999980926514,8|2,0:0|0:0,0:0:0:0:
16,272,171363,1,2,0:0:0:0:
85,325,171825,2,0,P|181:338|252:357,1,159.999980926514,8|2,0:0|0:0,0:0:0:0:
328,337,173209,1,2,0:0:0:0:
396,279,173671,6,0,P|409:225|410:186,1,79.999990463257,8|2,0:0|0:0,0:0:0:0:
336,153,174594,2,0,L|241:157,1,79.999990463257,2|2,0:0|0:0,0:0:0:0:
221,75,175517,2,0,P|291:57|385:51,1,159.999980926514,8|2,0:0|0:0,0:0:0:0:
459,85,176902,1,2,0:0:0:0:
491,166,177363,5,8,0:0:0:0:
321,213,178286,2,0,L|225:208,1,79.999990463257,2|2,0:0|0:0,0:0:0:0:
160,245,179209,1,8,0:0:0:0:
188,71,180132,2,0,P|230:60|280:61,1,79.999990463257,2|2,0:0|0:0,0:0:0:0:
342,103,181055,5,8,0:0:0:0:
243,249,181978,2,0,P|234:310|234:345,1,79.999990463257,2|2,0:0|0:0,0:0:0:0:
307,377,182902,1,8,0:0:0:0:
453,280,183825,1,8,0:0:0:0:
