osu file format v14

[General]
AudioFilename: A Certain Scientific Super Electromagnetic Trombone - Only my trombone.mp3
AudioLeadIn: 0
PreviewTime: 196863
Countdown: 1
SampleSet: Normal
StackLeniency: 0.1
Mode: 0
LetterboxInBreaks: 1
WidescreenStoryboard: 0

[Editor]
DistanceSpacing: 0.7
BeatDivisor: 4
GridSize: 4
TimelineZoom: 1.400001

[Metadata]
Title:ONLY MY TROMBONE
TitleUnicode:ONLY MY TROMBONE
Artist:WILLIAM0708
ArtistUnicode:WILLIAM0708
Creator:Ovoui
Version:ONLY MY SAUCCISE
Source:
Tags:saucisse railgun baja
BeatmapID:581733
BeatmapSetID:253385

[Difficulty]
HPDrainRate:6
CircleSize:3.8
OverallDifficulty:8
ApproachRate:9
SliderMultiplier:2.5
SliderTickRate:2

[Events]
//Background and Video events
0,0,"Konachan.com - 77625 blush brown_hair misaka_mikoto short_hair to_aru_kagaku_no_railgun to_aru_majutsu_no_index white.jpg",0,0
//Break Periods
2,23776,25704
//Storyboard Layer 0 (Background)
//Storyboard Layer 1 (Fail)
//Storyboard Layer 2 (Pass)
//Storyboard Layer 3 (Foreground)
//Storyboard Sound Samples

[TimingPoints]
13507,419.58041958042,4,1,0,45,1,0
26923,-90.9090909090909,4,1,0,45,0,1
45395,-133.333333333333,4,1,0,45,0,0
47073,-100,4,1,0,45,0,0
75604,-90.9090909090909,4,1,0,45,0,1
107493,-133.333333333333,4,1,0,45,0,0
109171,-100,4,1,0,45,0,0
137702,-76.9230769230769,4,1,0,45,0,1
169590,-100,4,1,0,45,0,0
181339,-133.333333333333,4,1,0,45,0,0
183017,-90.9090909090909,4,1,0,45,0,0
196444,-200,4,1,0,45,0,0
198122,-200,4,1,0,45,0,0
211548,-100,4,1,0,45,0,0
224975,-71.4285714285714,4,1,0,45,0,1
256863,-100,4,1,0,45,0,0
258541,-100,4,1,0,35,0,0
260230,-100,4,1,0,25,0,0
261898,-100,4,1,0,10,0,0

[HitObjects]
256,192,12772,5,0,0:0:0:0:
256,192,13507,12,0,14765,0:0:0:0:
256,192,15185,12,0,16444,0:0:0:0:
256,192,16653,5,0,0:0:0:0:
256,192,16863,12,0,18122,0:0:0:0:
256,192,18332,5,0,0:0:0:0:
256,192,18541,12,0,19800,0:0:0:0:
256,192,20220,12,0,23576,0:0:0:0:
224,224,26304,6,0,P|164:240|84:208,2,125
165,108,26933,6,0,P|117:160|105:232,1,137.500004196167
104,223,27248,1,0,0:0:0:0:
104,223,27353,2,0,P|132:312|204:360,1,137.500004196167
347,108,27772,6,0,P|395:160|407:232,1,137.500004196167
407,223,28087,1,0,0:0:0:0:
407,223,28192,2,0,P|380:308|308:356,1,137.500004196167
256,56,28611,5,0,0:0:0:0:
256,252,28821,2,0,L|256:332,2,68.7500020980836,0|0|0,0:0|0:0|0:0,0:0:0:0:
256,56,29241,5,0,0:0:0:0:
104,288,29451,1,0,0:0:0:0:
256,56,29660,1,0,0:0:0:0:
408,288,29870,1,0,0:0:0:0:
256,56,30080,1,0,0:0:0:0:
256,252,30290,6,0,P|120:296|80:152,1,275.000008392334,0|0,0:0|0:0,0:0:0:0:
256,56,30919,1,0,0:0:0:0:
256,56,31129,2,0,P|392:12|432:156,1,275.000008392334,0|0,0:0|0:0,0:0:0:0:
256,252,31758,1,0,0:0:0:0:
256,252,31968,2,0,B|184:280|184:280|128:260|128:260|20:300,2,206.250006294251,0|0|0,0:0|0:0|0:0,0:0:0:0:
344,96,32807,1,0,0:0:0:0:
344,96,33017,6,0,P|416:44|472:36,1,137.500004196167
256,252,33437,2,0,P|184:304|128:312,1,137.500004196167
112,108,33856,1,0,0:0:0:0:
112,108,33961,1,0,0:0:0:0:
112,108,34066,1,0,0:0:0:0:
256,252,34276,6,0,P|328:304|384:312,1,137.500004196167
400,108,34695,1,0,0:0:0:0:
400,108,34800,1,0,0:0:0:0:
400,108,34905,1,0,0:0:0:0:
256,252,35115,2,0,L|256:96,1,137.500004196167
256,252,35534,1,0,0:0:0:0:
256,252,35639,1,0,0:0:0:0:
256,252,35744,1,0,0:0:0:0:
156,320,35954,6,0,P|84:332|0:320,1,137.500004196167
356,320,36374,2,0,P|428:332|512:320,1,137.500004196167,0|0,0:0|0:0,0:0:0:0:
256,252,36793,1,0,0:0:0:0:
140,80,37003,2,0,P|256:20|384:100,2,275.000008392334,0|0|0,0:0|0:0|0:0,0:0:0:0:
256,252,38052,1,0,0:0:0:0:
462,252,38262,1,0,0:0:0:0:
50,252,38472,1,0,0:0:0:0:
256,252,38681,6,0,P|376:296|492:184,1,275.000008392334
256,252,39520,2,0,P|136:208|20:320,1,275.000008392334
256,252,40360,6,0,P|320:196|312:144,1,137.500004196167
300,136,40674,1,0,0:0:0:0:
284,124,40779,1,0,0:0:0:0:
256,252,40989,5,0,0:0:0:0:
256,252,41199,6,0,P|200:287|196:353,1,137.500004196167
212,369,41513,1,0,0:0:0:0:
228,381,41618,1,0,0:0:0:0:
256,252,41828,6,0,P|221:196|155:192,1,137.500004196167
256,252,42248,2,0,P|291:308|357:312,1,137.500004196167
256,252,42667,5,0,0:0:0:0:
256,252,42877,2,0,B|176:276|176:276|-12:152,1,275.000008392334
256,252,43507,1,0,0:0:0:0:
256,252,43716,2,0,B|336:276|336:276|524:152,1,275.000008392334
256,252,44346,1,0,0:0:0:0:
172,248,44555,2,0,P|248:336|340:232,2,275.000008392334,0|0|0,0:0|0:0|0:0,0:0:0:0:
292,188,45814,6,0,L|400:132,1,93.7500035762788,0|0,0:0|0:0,0:0:0:0:
220,188,46234,2,0,L|108:132,1,93.7500035762788
256,252,46653,2,0,L|256:360,1,93.7500035762788,0|0,0:0|0:0,0:0:0:0:
256,345,47073,6,0,P|452:228|328:40,1,500,0|0,0:0|0:0,0:0:0:0:
280,272,48122,2,0,P|360:244|372:192,1,125
372,212,48541,1,0,0:0:0:0:
372,212,48751,2,0,B|309:146|205:158|176:256|176:256|127:136|113:98|113:98|20:173,1,500
116,319,49800,6,0,P|175:344|239:315,1,125
372,212,50220,1,0,0:0:0:0:
372,212,50430,2,0,P|180:134|244:327,1,500
261,216,51479,6,0,P|192:191|133:221,1,125
75,342,51898,2,0,L|0:217,1,125
82,101,52318,2,0,L|157:226,1,125
451,339,52737,1,0,0:0:0:0:
436,80,52947,2,0,P|341:53|177:80,1,250
76,304,53786,6,0,P|171:331|335:304,1,250
319,311,54625,2,0,L|467:335,1,125
354,203,55045,2,0,P|287:193|217:235,1,125
115,306,55465,2,0,B|54:252|84:140|190:159|190:159|259:104|355:105|427:138|430:175|424:217,1,500
422,334,56513,6,0,L|278:342,1,125
82,276,56933,1,0,0:0:0:0:
82,276,57143,2,0,L|349:259,1,250
331,260,57982,6,0,P|406:231|436:168,1,125
325,138,58402,2,0,L|181:151,1,125
89,207,58821,2,0,P|81:111|252:53,1,250
451,129,59451,1,0,0:0:0:0:
451,129,59660,2,0,L|187:151,1,250
201,149,60500,6,0,P|148:204|80:192,1,125
124,132,60814,2,0,L|192:248,1,125
232,304,61129,2,0,P|268:232|132:180,1,250
55,256,61758,6,0,P|16:199|47:134,1,125
140,87,62178,2,0,P|258:92|351:204,1,250
420,347,62807,1,0,0:0:0:0:
420,347,62912,1,0,0:0:0:0:
420,347,63017,2,0,L|486:58,1,250
475,103,63646,5,0,0:0:0:0:
475,103,63751,1,0,0:0:0:0:
475,103,63856,1,0,0:0:0:0:
252,173,64066,1,0,0:0:0:0:
372,70,64276,1,0,0:0:0:0:
265,313,64486,1,0,0:0:0:0:
113,87,64695,5,0,0:0:0:0:
113,87,64800,1,0,0:0:0:0:
113,87,64905,2,0,L|257:97,1,125
445,214,65325,2,0,L|301:204,1,125
124,284,65849,1,0,0:0:0:0:
384,40,66164,1,0,0:0:0:0:
124,284,66374,2,0,P|204:348|360:292,1,250
339,317,67213,6,0,L|421:201,1,125
469,169,67527,2,0,P|399:141|353:173,1,125
311,220,67842,2,0,B|244:151|316:58|435:64,1,250
469,169,68472,5,0,0:0:0:0:
311,220,68681,1,0,0:0:0:0:
172,320,68891,2,0,P|72:344|-28:348,2,187.5,0|0|0,0:0|0:0|0:0,0:0:0:0:
312,220,69730,2,0,P|396:352|284:276,1,375
232,224,70569,6,0,B|244:120|400:100|444:156,1,250
480,332,71199,1,0,0:0:0:0:
430,143,71409,2,0,P|356:88|288:88,1,125
256,60,71723,2,0,P|264:120|280:132,1,62.5
348,208,72038,1,0,0:0:0:0:
472,200,72248,6,0,P|452:276|224:224,1,375
228,208,72982,1,0,0:0:0:0:
236,184,73087,2,0,B|256:128|344:104|344:104|308:184|364:224,1,250
452,344,73716,5,0,0:0:0:0:
452,344,73926,2,0,P|488:276|452:168,2,187.5
201,285,74975,5,0,0:0:0:0:
201,98,75185,1,0,0:0:0:0:
364,192,75395,1,0,0:0:0:0:
256,192,75604,6,0,L|92:192,1,137.500004196167
92,192,75919,1,0,0:0:0:0:
64,192,76024,2,0,B|32:192|32:192|32:80,1,137.500004196167
332,88,76444,6,0,B|364:88|364:88|364:200,1,137.500004196167
364,220,76758,1,0,0:0:0:0:
364,248,76863,1,0,0:0:0:0:
228,340,77073,5,0,0:0:0:0:
72,340,77283,1,0,0:0:0:0:
72,188,77493,2,0,L|72:120,2,68.7500020980836,0|0|0,0:0|0:0|0:0,0:0:0:0:
72,340,77912,5,0,0:0:0:0:
228,340,78122,1,0,0:0:0:0:
379,340,78332,2,0,L|516:340,2,137.500004196167,0|0|0,0:0|0:0|0:0,0:0:0:0:
228,340,78961,6,0,P|132:288|152:136,2,275.000008392334
416,104,80220,1,0,0:0:0:0:
228,340,80639,2,0,P|132:292|128:168,2,206.250006294251,0|0|0,0:0|0:0|0:0,0:0:0:0:
416,104,81688,5,0,0:0:0:0:
416,104,81793,1,0,0:0:0:0:
416,104,81898,2,0,L|416:256,1,137.500004196167
416,241,82318,1,0,0:0:0:0:
259,334,82527,1,0,0:0:0:0:
259,334,82632,1,0,0:0:0:0:
259,334,82737,1,0,0:0:0:0:
132,252,82947,5,0,0:0:0:0:
132,252,83157,1,0,0:0:0:0:
259,334,83367,1,0,0:0:0:0:
259,334,83472,1,0,0:0:0:0:
259,334,83576,1,0,0:0:0:0:
259,183,83786,1,0,0:0:0:0:
259,183,83996,1,0,0:0:0:0:
259,334,84206,1,0,0:0:0:0:
259,334,84311,1,0,0:0:0:0:
259,334,84416,1,0,0:0:0:0:
384,252,84625,5,0,0:0:0:0:
259,334,84835,1,0,0:0:0:0:
132,252,85045,1,0,0:0:0:0:
259,183,85255,1,0,0:0:0:0:
384,252,85465,1,0,0:0:0:0:
384,101,85674,2,0,B|344:64|344:64|184:64|184:64|104:0,2,275.000008392334,0|0|0,0:0|0:0|0:0,0:0:0:0:
384,252,86723,5,0,0:0:0:0:
276,359,86933,1,0,0:0:0:0:
168,251,87143,1,0,0:0:0:0:
276,20,87353,2,0,L|276:232,2,206.250006294251,0|0|0,0:0|0:0|0:0,0:0:0:0:
276,20,88402,5,0,0:0:0:0:
276,20,88611,1,0,0:0:0:0:
427,20,88821,1,0,0:0:0:0:
427,171,89031,1,0,0:0:0:0:
275,171,89241,1,0,0:0:0:0:
247,171,89346,1,0,0:0:0:0:
219,171,89451,1,0,0:0:0:0:
68,171,89660,5,0,0:0:0:0:
68,322,89870,1,0,0:0:0:0:
219,322,90080,1,0,0:0:0:0:
247,322,90185,1,0,0:0:0:0:
275,322,90290,1,0,0:0:0:0:
428,322,90500,1,0,0:0:0:0:
427,171,90709,1,0,0:0:0:0:
247,32,90919,2,0,L|247:124,2,68.7500020980836,0|0|0,0:0|0:0|0:0,0:0:0:0:
68,32,91339,6,0,L|67:188,1,137.500004196167
427,352,91758,2,0,L|428:196,1,137.500004196167
247,32,92178,1,0,0:0:0:0:
247,352,92388,1,0,0:0:0:0:
247,32,92807,1,0,0:0:0:0:
247,352,93227,1,0,0:0:0:0:
40,192,93646,1,0,0:0:0:0:
472,192,94066,2,0,B|424:192|424:192|312:152|312:152|264:152,2,206.250006294251,0|0|0,0:0|0:0|0:0,0:0:0:0:
472,192,95115,5,0,0:0:0:0:
336,348,95325,1,0,0:0:0:0:
272,152,95534,1,0,0:0:0:0:
272,152,95744,2,0,L|128:152,1,137.500004196167,0|0,0:0|0:0,0:0:0:0:
106,152,96059,1,0,0:0:0:0:
78,152,96164,1,0,0:0:0:0:
185,44,96374,5,0,0:0:0:0:
240,256,96583,2,0,L|384:256,1,137.500004196167
405,256,96898,1,0,0:0:0:0:
432,256,97003,1,0,0:0:0:0:
324,363,97213,1,0,0:0:0:0:
116,288,97423,1,0,0:0:0:0:
280,144,97632,1,0,0:0:0:0:
280,144,97737,1,0,0:0:0:0:
280,144,97842,1,0,0:0:0:0:
280,144,98052,6,0,L|436:144,1,137.500004196167
184,236,98472,2,0,L|40:236,1,137.500004196167
280,236,98891,1,0,0:0:0:0:
280,236,99101,2,0,B|372:236|372:236|440:160|440:160|440:48,1,275.000008392334
440,78,99940,5,0,0:0:0:0:
261,78,100150,1,0,0:0:0:0:
82,78,100360,1,0,0:0:0:0:
261,256,100569,1,0,0:0:0:0:
261,256,100779,2,0,B|308:316|308:316|377:316|377:316|416:268|416:268|500:268,3,275.000008392334,0|0|0|0,0:0|0:0|0:0|0:0,0:0:0:0:
268,52,102458,6,0,L|104:52,1,137.500004196167
102,52,102772,1,0,0:0:0:0:
74,52,102877,1,0,0:0:0:0:
200,178,103087,1,0,0:0:0:0:
200,178,103297,1,0,0:0:0:0:
326,304,103507,1,0,0:0:0:0:
326,304,103611,1,0,0:0:0:0:
326,304,103716,1,0,0:0:0:0:
452,177,103926,6,0,L|452:32,1,137.500004196167
288,112,104346,2,0,L|128:112,1,137.500004196167
23,238,104765,5,0,0:0:0:0:
50,238,104975,1,0,0:0:0:0:
77,238,105185,1,0,0:0:0:0:
104,238,105395,1,0,0:0:0:0:
131,238,105604,1,0,0:0:0:0:
336,242,105814,1,0,0:0:0:0:
336,242,106234,5,0,0:0:0:0:
336,242,106653,2,0,B|373:300|373:300|465:320,2,137.500004196167,0|0|0,0:0|0:0|0:0,0:0:0:0:
256,56,107283,1,0,0:0:0:0:
256,252,107493,1,0,0:0:0:0:
256,252,107912,6,0,L|256:360,1,93.7500035762788,0|0,0:0|0:0,0:0:0:0:
220,188,108332,2,0,L|108:132,1,93.7500035762788
292,188,108751,2,0,L|400:132,1,93.7500035762788,0|0,0:0|0:0,0:0:0:0:
372,66,109171,6,0,B|268:116|268:116|245:116|245:116|97:44,1,250
144,67,110010,5,0,0:0:0:0:
71,168,110220,1,0,0:0:0:0:
168,246,110430,1,0,0:0:0:0:
90,343,110639,1,0,0:0:0:0:
90,343,110849,2,0,P|192:360|284:224,1,250
283,259,111688,5,0,0:0:0:0:
400,212,111898,1,0,0:0:0:0:
396,88,112108,1,0,0:0:0:0:
272,60,112318,1,0,0:0:0:0:
204,164,112527,2,0,P|136:216|28:108,1,250
26,125,113367,5,0,0:0:0:0:
148,104,113576,1,0,0:0:0:0:
272,80,113786,1,0,0:0:0:0:
396,60,113996,1,0,0:0:0:0:
292,128,114206,1,0,0:0:0:0:
180,188,114416,1,0,0:0:0:0:
76,256,114625,1,0,0:0:0:0:
200,232,114835,1,0,0:0:0:0:
320,204,115045,6,0,P|404:208|456:304,1,187.5
476,348,115465,2,0,P|508:244|484:120,1,187.5
448,132,115884,2,0,B|428:136|428:136|388:120|332:118|280:136|280:136|180:116,1,250
202,120,116723,5,0,0:0:0:0:
100,192,116933,1,0,0:0:0:0:
212,248,117143,1,0,0:0:0:0:
308,168,117353,1,0,0:0:0:0:
296,44,117562,2,0,P|377:67|409:242,1,250
423,212,118402,5,0,0:0:0:0:
355,316,118611,1,0,0:0:0:0:
217,328,118821,1,0,0:0:0:0:
105,270,119031,1,0,0:0:0:0:
64,152,119241,2,0,P|104:68|244:88,1,250
241,85,120080,5,0,0:0:0:0:
352,144,120290,1,0,0:0:0:0:
348,20,120500,1,0,0:0:0:0:
241,85,120709,1,0,0:0:0:0:
136,152,120919,2,0,P|136:236|292:316,1,250
248,200,121548,1,0,0:0:0:0:
241,85,121758,2,0,P|345:131|343:271,1,250
353,254,122597,6,0,P|304:304|232:312,1,125
176,316,122912,2,0,P|152:268|220:288,1,125
253,314,123227,2,0,B|433:318|433:318|493:249,1,250
332,240,123856,2,0,L|180:236,1,125
60,264,124276,2,0,P|32:196|156:80,1,250
264,160,124905,1,0,0:0:0:0:
264,160,125010,1,0,0:0:0:0:
264,160,125115,2,0,P|368:104|288:40,1,250
300,38,125744,5,0,0:0:0:0:
300,38,125849,1,0,0:0:0:0:
300,38,125954,1,0,0:0:0:0:
160,132,126164,1,0,0:0:0:0:
424,56,126374,1,0,0:0:0:0:
240,300,126583,1,0,0:0:0:0:
312,144,126793,1,0,0:0:0:0:
312,144,126898,1,0,0:0:0:0:
312,144,127003,2,0,P|384:124|448:132,1,125
388,272,127423,5,0,0:0:0:0:
240,272,127632,2,0,P|156:224|160:124,2,187.5,0|0|0,0:0|0:0|0:0,0:0:0:0:
388,272,128472,2,0,P|412:216|252:200,1,250
277,154,129311,6,0,P|200:168|152:148,1,125
128,84,129625,2,0,P|80:148|104:200,1,125
148,232,129940,2,0,P|244:244|380:160,1,250
372,170,130569,5,0,0:0:0:0:
216,340,130779,1,0,0:0:0:0:
60,170,130989,2,0,P|44:104|164:80,2,187.5,0|0|0,0:0|0:0|0:0,0:0:0:0:
184,252,131828,2,0,L|456:276,1,250
512,144,132458,5,0,0:0:0:0:
512,144,132667,2,0,P|472:88|328:160,1,250
252,272,133297,1,0,0:0:0:0:
108,236,133507,1,0,0:0:0:0:
196,116,133716,1,0,0:0:0:0:
196,116,133821,1,0,0:0:0:0:
196,116,133926,1,0,0:0:0:0:
330,145,134136,1,0,0:0:0:0:
330,145,134346,6,0,P|424:216|344:332,1,250
228,328,134975,1,0,0:0:0:0:
228,328,135080,1,0,0:0:0:0:
228,328,135185,2,0,B|152:328|152:328|88:248|88:248|8:248,1,250
188,248,135814,1,0,0:0:0:0:
188,248,136024,2,0,B|296:248|296:248|356:320,2,187.5,0|0|0,0:0|0:0|0:0,0:0:0:0:
188,248,137073,5,0,0:0:0:0:
72,88,137283,1,0,0:0:0:0:
264,68,137493,1,0,0:0:0:0:
336,300,137702,5,0,0:0:0:0:
440,152,137912,2,0,P|468:124|512:112,2,81.2499962806703
336,300,138332,2,0,L|152:316,1,162.499992561341
40,196,138751,2,0,P|24:156|56:88,2,81.2499962806703
174,314,139171,2,0,L|336:300,1,162.499992561341
476,188,139590,2,0,P|488:152|488:104,2,81.2499962806703
335,300,140010,5,0,0:0:0:0:
264,136,140220,1,0,0:0:0:0:
174,314,140430,1,0,0:0:0:0:
84,96,140639,1,0,0:0:0:0:
8,328,140849,1,0,0:0:0:0:
476,188,141059,1,0,0:0:0:0:
8,328,141479,1,0,0:0:0:0:
8,328,141898,2,0,P|164:372|352:316,1,324.999985122681
476,188,142737,2,0,P|380:180|232:228,2,243.749988842011
319,335,143786,5,0,0:0:0:0:
172,236,143996,1,0,0:0:0:0:
24,336,144206,1,0,0:0:0:0:
319,335,144416,2,0,P|416:296|444:176,1,162.499992561341
448,200,144730,1,0,0:0:0:0:
432,156,144835,1,0,0:0:0:0:
272,188,145045,5,0,0:0:0:0:
225,335,145255,2,0,P|128:295|100:175,1,162.499992561341
96,200,145569,1,0,0:0:0:0:
112,156,145674,1,0,0:0:0:0:
272,188,145884,1,0,0:0:0:0:
272,188,146094,2,0,L|272:24,1,162.499992561341
272,20,146409,1,0,0:0:0:0:
272,12,146513,1,0,0:0:0:0:
356,152,146723,6,0,L|517:105,1,162.499992561341
429,247,147143,2,0,L|240:301,1,162.499992561341
96,76,147562,1,0,0:0:0:0:
24,304,147772,2,0,B|160:340|216:232|216:232|404:177|404:177|440:168|500:168|552:276|436:328,1,649.999970245363
236,360,148821,5,0,0:0:0:0:
24,304,149031,2,0,P|36:204|128:132,1,162.499992561341
216,236,149451,2,0,P|340:256|476:228,2,243.749988842011
216,236,150500,5,0,0:0:0:0:
94,129,150709,1,0,0:0:0:0:
247,75,150919,1,0,0:0:0:0:
368,183,151129,2,0,B|417:228|417:228|510:225|492:283|526:357|315:306,1,324.999985122681
216,236,151758,1,0,0:0:0:0:
60,183,151968,2,0,B|11:228|11:228|-82:225|-64:283|-98:357|113:306,1,324.999985122681
216,236,152597,5,0,0:0:0:0:
216,236,152807,1,0,0:0:0:0:
216,73,153017,2,0,L|216:-12,2,81.2499962806703
216,236,153437,5,0,0:0:0:0:
330,350,153646,1,0,0:0:0:0:
102,121,153856,1,0,0:0:0:0:
330,121,154066,1,0,0:0:0:0:
101,350,154276,1,0,0:0:0:0:
330,350,154486,1,0,0:0:0:0:
330,121,154905,5,0,0:0:0:0:
102,121,155325,1,0,0:0:0:0:
101,350,155744,1,0,0:0:0:0:
216,236,156164,1,0,0:0:0:0:
456,288,156479,1,0,0:0:0:0:
376,56,156793,1,0,0:0:0:0:
376,56,157213,6,0,L|184:64,1,162.499992561341
52,72,157632,1,0,0:0:0:0:
168,184,157842,2,0,P|196:279|144:345,1,162.499992561341
144,332,158157,1,0,0:0:0:0:
124,336,158262,1,0,0:0:0:0:
168,184,158472,1,0,0:0:0:0:
292,80,158681,6,0,P|376:52|468:96,1,162.499992561341
512,92,158996,2,0,P|464:144|424:140,1,81.2499962806703
300,188,159311,1,0,0:0:0:0:
144,140,159520,2,0,P|120:240|144:292,1,162.499992561341
212,336,159835,1,0,0:0:0:0:
288,308,159940,2,0,P|360:272|440:272,1,162.499992561341
440,272,160360,5,0,0:0:0:0:
500,120,160569,1,0,0:0:0:0:
441,271,160779,1,0,0:0:0:0:
284,228,160989,1,0,0:0:0:0:
441,272,161199,2,0,P|260:73|164:336,1,649.999970245363
284,228,162248,5,0,0:0:0:0:
441,271,162458,1,0,0:0:0:0:
158,328,162667,1,0,0:0:0:0:
284,228,162877,2,0,P|264:124|460:108,1,324.999985122681
284,228,163716,2,0,P|304:124|108:108,1,324.999985122681
284,228,164555,5,0,0:0:0:0:
424,312,164765,2,0,P|488:268|500:244,2,81.2499962806703
264,340,165185,1,0,0:0:0:0:
104,312,165395,2,0,P|48:240|48:160,1,162.499992561341
72,96,165709,1,0,0:0:0:0:
144,52,165814,2,0,P|200:124|200:204,1,162.499992561341
104,312,166234,2,0,L|284:344,1,162.499992561341
340,316,166548,1,0,0:0:0:0:
416,348,166653,6,0,L|484:180,1,162.499992561341
416,44,167073,2,0,L|355:194,1,162.499992561341
204,260,167493,2,0,L|272:92,1,162.499992561341
112,160,167912,2,0,L|51:310,1,162.499992561341
50,310,168332,5,0,0:0:0:0:
50,310,168541,1,0,0:0:0:0:
204,260,168751,1,0,0:0:0:0:
204,260,168961,1,0,0:0:0:0:
354,194,169171,1,0,0:0:0:0:
354,194,169381,1,0,0:0:0:0:
456,124,169590,6,0,B|364:36|248:84|240:188|240:188|136:312|-29:218|-16:52|76:-4|188:12,1,750
144,124,171059,1,0,0:0:0:0:
144,124,171269,2,0,B|120:192|50:186|50:186|88:240|168:268|240:188|240:188|264:315|360:316|452:304|460:200,1,625
354,194,172527,1,0,0:0:0:0:
354,194,172737,1,0,0:0:0:0:
276,128,172947,2,0,P|440:128|352:296,1,375
378,290,173681,5,0,0:0:0:0:
353,294,173786,1,0,0:0:0:0:
328,298,173891,1,0,0:0:0:0:
303,302,173996,1,0,0:0:0:0:
278,306,174101,1,0,0:0:0:0:
253,310,174206,1,0,0:0:0:0:
228,314,174311,1,0,0:0:0:0:
203,319,174416,2,0,L|140:376,2,62.5
212,284,174730,5,0,0:0:0:0:
208,248,174835,1,0,0:0:0:0:
184,216,174940,1,0,0:0:0:0:
152,196,175045,1,0,0:0:0:0:
116,200,175150,1,0,0:0:0:0:
88,224,175255,1,0,0:0:0:0:
76,188,175360,1,0,0:0:0:0:
64,152,175465,1,0,0:0:0:0:
52,116,175569,1,0,0:0:0:0:
40,80,175674,5,0,0:0:0:0:
76,84,175779,1,0,0:0:0:0:
112,84,175884,1,0,0:0:0:0:
148,80,175989,1,0,0:0:0:0:
184,68,176094,1,0,0:0:0:0:
216,48,176199,1,0,0:0:0:0:
244,24,176304,6,0,L|340:40,1,62.5
412,104,176513,2,0,L|332:88,1,62.5
232,128,176723,2,0,L|308:144,1,62.5
408,192,176933,2,0,L|376:276,1,62.5
284,324,177143,2,0,L|200:344,1,62.5
100,312,177353,6,0,L|144:260,1,62.5
256,216,177562,2,0,L|200:160,1,62.5
84,168,177772,2,0,L|128:116,1,62.5
232,56,177982,2,0,L|312:64,1,62.5
384,152,178192,2,0,L|296:140,1,62.5
408,236,178402,2,0,L|488:244,1,62.5
384,152,178611,2,0,L|296:140,1,62.5
212,204,178821,5,0,0:0:0:0:
154,225,178926,1,0,0:0:0:0:
94,212,179031,1,0,0:0:0:0:
52,167,179136,1,0,0:0:0:0:
41,106,179241,1,0,0:0:0:0:
67,50,179346,1,0,0:0:0:0:
119,17,179451,1,0,0:0:0:0:
180,19,179555,1,0,0:0:0:0:
231,55,179660,5,0,0:0:0:0:
245,83,179765,1,0,0:0:0:0:
258,110,179870,1,0,0:0:0:0:
272,137,179975,1,0,0:0:0:0:
296,118,180080,1,0,0:0:0:0:
321,99,180185,1,0,0:0:0:0:
336,126,180290,1,0,0:0:0:0:
351,153,180395,1,0,0:0:0:0:
366,180,180500,6,0,L|416:192,7,31.25
380,214,180919,2,0,L|430:226,8,31.25
220,188,181758,2,0,L|108:132,1,93.7500035762788
292,188,182178,2,0,L|400:132,1,93.7500035762788
256,252,182597,2,0,L|256:360,1,93.7500035762788
152,216,183017,6,0,P|264:140|360:215,2,275.000008392334
68,360,184066,2,0,L|16:216,1,137.500004196167
76,72,184486,1,0,0:0:0:0:
152,216,184695,2,0,P|252:256|352:112,1,275.000008392334
224,72,185325,1,0,0:0:0:0:
152,216,185534,2,0,P|196:304|392:296,1,275.000008392334
304,168,186164,1,0,0:0:0:0:
176,64,186374,2,0,P|28:116|16:268,1,275.000008392334
28,264,186898,5,0,0:0:0:0:
76,288,187003,1,0,0:0:0:0:
128,276,187108,1,0,0:0:0:0:
164,236,187213,1,0,0:0:0:0:
176,184,187318,1,0,0:0:0:0:
220,152,187423,1,0,0:0:0:0:
276,148,187527,1,0,0:0:0:0:
324,172,187632,5,0,0:0:0:0:
356,216,187737,1,0,0:0:0:0:
348,272,187842,1,0,0:0:0:0:
316,316,187947,1,0,0:0:0:0:
264,332,188052,2,0,P|176:324|164:144,1,275.000008392334
143,164,188681,1,0,0:0:0:0:
143,164,188891,2,0,P|288:156|296:52,2,275.000008392334
40,36,189940,6,0,P|8:140|228:320,1,412.500012588501
328,340,190779,1,0,0:0:0:0:
328,340,190884,2,0,B|288:324|288:324|287:274|228:240,1,137.500004196167
167,205,191199,2,0,P|162:272|206:323,1,137.500004196167
239,247,191513,5,0,0:0:0:0:
248,200,191618,1,0,0:0:0:0:
236,152,191723,1,0,0:0:0:0:
196,124,191828,5,0,0:0:0:0:
148,124,191933,1,0,0:0:0:0:
188,96,192038,1,0,0:0:0:0:
228,68,192143,1,0,0:0:0:0:
268,40,192248,1,0,0:0:0:0:
316,44,192353,1,0,0:0:0:0:
364,48,192458,6,0,L|504:68,1,137.500004196167
488,316,192877,1,0,0:0:0:0:
272,196,193087,5,0,0:0:0:0:
232,160,193192,1,0,0:0:0:0:
256,112,193297,1,0,0:0:0:0:
312,112,193402,1,0,0:0:0:0:
348,152,193507,1,0,0:0:0:0:
356,204,193611,1,0,0:0:0:0:
332,252,193716,1,0,0:0:0:0:
280,272,193821,1,0,0:0:0:0:
224,264,193926,5,0,0:0:0:0:
184,228,194031,1,0,0:0:0:0:
160,180,194136,1,0,0:0:0:0:
164,124,194241,1,0,0:0:0:0:
188,76,194346,2,0,P|268:32|416:160,1,275.000008392334
428,180,194870,5,0,0:0:0:0:
420,240,194975,1,0,0:0:0:0:
392,296,195080,1,0,0:0:0:0:
340,328,195185,1,0,0:0:0:0:
280,344,195290,1,0,0:0:0:0:
216,336,195395,1,0,0:0:0:0:
160,312,195500,1,0,0:0:0:0:
120,260,195604,1,0,0:0:0:0:
108,200,195709,1,0,0:0:0:0:
116,140,195814,6,0,B|176:24|314:35|314:35|240:112|284:240,1,412.500012588501
271,195,197493,6,0,P|304:188|352:216,1,62.5
300,268,197912,1,0,0:0:0:0:
224,260,198122,2,0,P|200:236|196:188,1,62.5
200,172,198437,1,0,0:0:0:0:
220,144,198541,1,0,0:0:0:0:
288,108,198751,6,0,L|360:116,1,62.5
412,156,199171,1,0,0:0:0:0:
412,156,199276,2,0,L|396:196,1,31.25
384,260,199590,2,0,L|476:260,1,62.5
464,332,200010,1,0,0:0:0:0:
464,332,200115,2,0,L|420:332,1,31.25
280,336,200430,6,0,L|192:336,1,62.5
148,360,200849,1,0,0:0:0:0:
160,284,201059,2,0,P|200:260|240:264,1,62.5
288,256,201479,2,0,P|264:204|200:188,1,125
160,332,202318,1,0,0:0:0:0:
288,256,202737,2,0,P|348:248|420:272,1,125
480,352,203472,2,0,P|515:293|506:244,1,93.75
508,192,203996,6,0,P|421:242|517:267,1,250
508,192,205045,1,0,0:0:0:0:
508,192,205150,2,0,L|504:143,1,31.25
468,95,205465,2,0,P|432:110|398:108,1,62.5
344,72,205884,1,0,0:0:0:0:
344,72,205989,2,0,L|323:126,1,31.25
271,144,206304,1,0,0:0:0:0:
337,178,206513,6,0,P|296:215|214:94,1,250
272,144,207562,1,0,0:0:0:0:
336,104,207772,1,0,0:0:0:0:
404,140,207982,1,0,0:0:0:0:
404,216,208192,6,0,P|331:282|176:264,1,250
116,244,209241,1,0,0:0:0:0:
120,168,209451,1,0,0:0:0:0:
196,148,209660,1,0,0:0:0:0:
232,212,209870,2,0,P|280:220|332:192,2,93.75
232,212,210919,5,0,0:0:0:0:
196,148,211129,1,0,0:0:0:0:
256,100,211339,1,0,0:0:0:0:
384,176,211548,6,0,P|392:248|364:308,1,125
373,295,211863,1,0,0:0:0:0:
373,295,211968,1,0,0:0:0:0:
240,224,212178,5,0,0:0:0:0:
240,224,212388,2,0,P|180:216|104:228,1,125
116,224,212702,1,0,0:0:0:0:
116,224,212807,1,0,0:0:0:0:
200,348,213017,5,0,0:0:0:0:
200,348,213227,2,0,L|340:332,1,125
324,333,213541,1,0,0:0:0:0:
324,333,213646,1,0,0:0:0:0:
444,244,213856,6,0,P|460:180|436:108,1,125
326,213,214276,2,0,P|310:277|334:349,1,125
444,244,214695,1,0,0:0:0:0:
143,244,214905,1,0,0:0:0:0:
444,244,215325,5,0,0:0:0:0:
300,40,215744,2,0,B|320:108|320:108|304:160|304:160|320:216|320:216|304:284,1,250
304,280,216583,2,0,P|216:320|176:256,2,187.5
304,280,217632,5,0,0:0:0:0:
376,148,217842,2,0,P|436:128|508:160,1,125
419,283,218262,2,0,P|363:303|291:267,1,125
316,208,218576,2,0,P|260:224|248:240,1,62.5
160,340,218891,5,0,0:0:0:0:
116,196,219101,2,0,P|128:132|208:104,1,125
188,176,219416,1,0,0:0:0:0:
172,248,219520,2,0,P|112:272|48:232,1,125
188,176,219940,6,0,P|248:152|312:192,1,125
244,228,220255,1,0,0:0:0:0:
172,248,220360,2,0,P|120:204|132:128,1,125
244,228,220779,2,0,P|296:272|284:348,1,125
148,344,221199,5,0,0:0:0:0:
244,228,221409,1,0,0:0:0:0:
336,112,221618,2,0,P|416:176|436:328,2,250
244,228,222667,1,0,0:0:0:0:
108,288,222877,2,0,P|92:224|132:144,1,125
244,228,223297,2,0,P|312:244|476:208,2,187.5
244,228,224346,5,0,0:0:0:0:
60,268,224555,1,0,0:0:0:0:
124,92,224765,1,0,0:0:0:0:
244,228,224975,6,0,P|304:292|392:200,1,174.999994659424
400,192,225290,2,0,P|348:196|300:240,1,87.499997329712
152,344,225604,5,0,0:0:0:0:
124,92,225814,1,0,0:0:0:0:
364,196,226024,1,0,0:0:0:0:
364,196,226129,1,0,0:0:0:0:
364,196,226234,2,0,P|468:172|516:120,1,174.999994659424
317,7,226653,5,0,0:0:0:0:
170,153,226863,1,0,0:0:0:0:
170,153,226968,1,0,0:0:0:0:
170,153,227073,2,0,P|197:255|251:301,1,174.999994659424
447,231,227493,5,0,0:0:0:0:
249,166,227702,1,0,0:0:0:0:
374,334,227912,1,0,0:0:0:0:
374,123,228122,1,0,0:0:0:0:
247,299,228332,6,0,P|125:253|268:184,2,349.999989318848
203,231,229590,1,0,0:0:0:0:
249,165,230010,2,0,P|285:238|130:263,2,262.499991989136
249,165,231059,6,0,P|172:128|72:120,1,174.999994659424
120,326,231479,1,0,0:0:0:0:
332,352,231688,2,0,P|399:300|451:214,1,174.999994659424
447,225,232003,1,0,0:0:0:0:
447,225,232108,1,0,0:0:0:0:
364,37,232318,6,0,P|297:89|245:175,1,174.999994659424
447,225,232737,1,0,0:0:0:0:
447,225,232842,1,0,0:0:0:0:
447,225,232947,1,0,0:0:0:0:
276,348,233157,5,0,0:0:0:0:
276,348,233367,2,0,L|76:336,1,174.999994659424
40,292,233681,1,0,0:0:0:0:
112,264,233786,2,0,P|164:252|168:136,1,174.999994659424
53,22,234206,5,0,0:0:0:0:
123,192,234416,1,0,0:0:0:0:
237,51,234625,1,0,0:0:0:0:
303,224,234835,1,0,0:0:0:0:
425,85,235045,2,0,P|499:151|417:371,2,349.999989318848
225,150,236094,6,0,P|193:205|275:225,1,174.999994659424
425,85,236513,1,0,0:0:0:0:
214,77,236723,2,0,P|132:138|170:295,2,262.499991989136
214,77,237772,5,0,0:0:0:0:
460,168,237982,1,0,0:0:0:0:
256,332,238192,1,0,0:0:0:0:
312,196,238402,5,0,0:0:0:0:
364,56,238611,2,0,P|408:52|456:72,2,87.499997329712
312,196,239031,5,0,0:0:0:0:
404,312,239241,1,0,0:0:0:0:
156,220,239451,2,0,P|128:152|140:116,2,87.499997329712
312,196,239870,5,0,0:0:0:0:
364,56,240080,1,0,0:0:0:0:
404,312,240290,2,0,P|380:348|312:364,2,87.499997329712
364,56,240709,5,0,0:0:0:0:
156,220,240919,1,0,0:0:0:0:
404,312,241129,1,0,0:0:0:0:
214,77,241339,1,0,0:0:0:0:
256,332,241548,1,0,0:0:0:0:
460,168,241758,1,0,0:0:0:0:
112,120,242178,5,0,0:0:0:0:
344,384,242597,1,0,0:0:0:0:
464,56,243017,1,0,0:0:0:0:
312,192,243437,2,0,B|284:204|252:200|252:200|252:216|252:216|236:208|236:208|236:224|236:224|220:216|220:216|220:232|220:232|204:224|204:224|204:240|204:240|188:232|188:232|148:260|160:328,2,262.499991989136
312,192,244486,1,0,0:0:0:0:
452,36,244695,6,0,B|368:84|368:84|328:64|268:80,1,174.999994659424
232,276,245115,2,0,P|312:308|404:264,1,174.999994659424
440,220,245430,2,0,P|392:204|336:224,1,87.499997329712
196,348,245744,6,0,P|152:268|220:196,1,174.999994659424
392,276,246164,1,0,0:0:0:0:
392,276,246269,1,0,0:0:0:0:
392,276,246374,2,0,P|436:196|368:124,1,174.999994659424
188,88,246793,5,0,0:0:0:0:
356,203,247003,1,0,0:0:0:0:
356,203,247108,1,0,0:0:0:0:
356,203,247213,2,0,B|304:276|304:276|200:276,1,174.999994659424
12,236,247632,6,0,B|76:236|76:236|120:192|120:192|200:192,1,174.999994659424
408,308,248052,1,0,0:0:0:0:
386,46,248262,1,0,0:0:0:0:
168,192,248472,2,0,P|100:204|180:72,1,349.999989318848
192,268,249311,5,0,0:0:0:0:
192,268,249520,2,0,P|72:276|12:240,1,174.999994659424
320,116,249940,1,0,0:0:0:0:
320,116,250150,2,0,P|440:108|500:144,1,174.999994659424
384,316,250569,5,0,0:0:0:0:
72,268,250989,1,0,0:0:0:0:
272,24,251409,1,0,0:0:0:0:
256,188,251828,6,0,P|348:204|420:160,1,174.999994659424
423,132,252143,1,0,0:0:0:0:
432,100,252248,2,0,L|500:292,1,174.999994659424
314,354,252667,2,0,L|255:189,1,174.999994659424
192,144,252982,1,0,0:0:0:0:
120,176,253087,2,0,P|140:280|212:296,1,174.999994659424
380,300,253507,6,0,P|453:261|455:177,1,174.999994659424
380,144,253821,1,0,0:0:0:0:
316,189,253926,2,0,L|257:353,1,174.999994659424
100,364,254346,2,0,L|158:199,1,174.999994659424
468,60,254765,1,0,0:0:0:0:
468,60,254975,2,0,L|409:224,1,174.999994659424
376,276,255290,5,0,0:0:0:0:
316,296,255395,1,0,0:0:0:0:
260,268,255500,1,0,0:0:0:0:
252,208,255604,5,0,0:0:0:0:
284,156,255709,1,0,0:0:0:0:
344,148,255814,1,0,0:0:0:0:
402,128,255919,1,0,0:0:0:0:
400,66,256024,5,0,0:0:0:0:
340,50,256129,1,0,0:0:0:0:
307,98,256234,1,0,0:0:0:0:
344,148,256339,1,0,0:0:0:0:
392,184,256444,5,0,0:0:0:0:
400,244,256548,1,0,0:0:0:0:
376,276,256653,1,0,0:0:0:0:
316,296,256758,1,0,0:0:0:0:
260,268,256863,1,0,0:0:0:0:
256,192,256968,12,0,262737,0:0:0:0:
