osu file format v9

[General]
AudioFilename: Redleaf.mp3
AudioLeadIn: 1224
PreviewTime: 57961
Countdown: 0
SampleSet: Soft
StackLeniency: 0.4
Mode: 0
LetterboxInBreaks: 0

[Editor]
DistanceSpacing: 1.5
BeatDivisor: 4
GridSize: 4

[Metadata]
Title:Kouyou (Short ver.)
Artist:WHITE-LIPS
Creator:Shinki
Version:Insane
Source:Kitto, Sumiwataru Asairo Yori mo
Tags:Tynwald music MisakaMikoto Kouyou Propeller

[Difficulty]
HPDrainRate:6
CircleSize:4
OverallDifficulty:6
ApproachRate:8
SliderMultiplier:1.79999990463257
SliderTickRate:2

[Events]
//Background and Video events
0,0,"BG.jpg"
Video,0,"Redleaf.flv"
//Break Periods
//Storyboard Layer 0 (Background)
//Storyboard Layer 1 (Fail)
//Storyboard Layer 2 (Pass)
//Storyboard Layer 3 (Foreground)
//Storyboard Sound Samples
//Background Colour Transformations
3,100,163,162,255

[TimingPoints]
731,461.538461538462,3,2,1,50,1,0
1077,-100,3,2,1,20,0,0
1538,-100,3,2,1,35,0,0
2000,-100,3,2,1,60,0,0
2231,-100,3,2,1,35,0,0
2692,-100,3,2,1,60,0,0
3384,-100,3,2,1,35,0,0
3615,-100,3,2,1,30,0,0
3845,-100,3,2,1,40,0,0
4307,-100,3,2,1,50,0,0
4768,-100,3,2,1,50,0,0
5230,-100,3,2,1,35,0,0
5922,-100,3,2,1,30,0,0
6153,-100,3,2,1,20,0,0
6615,-100,3,2,1,50,0,0
12153,-100,3,2,1,50,0,0
13076,-100,3,2,1,30,0,0
13307,-100,3,2,1,50,0,0
13769,-133.333333333333,3,2,1,50,0,0
14230,-100,3,2,1,50,0,0
15153,-100,3,2,1,40,0,0
15384,-100,3,2,1,50,0,0
15845,-100,3,2,1,40,0,0
16076,-100,3,2,1,50,0,0
17922,-100,3,2,1,40,0,0
18152,-100,3,2,1,50,0,0
18614,-100,3,2,1,40,0,0
18844,-100,3,2,1,50,0,0
20691,-100,3,2,1,40,0,0
20921,-100,3,2,1,50,0,0
21383,-100,3,2,1,40,0,0
21614,-100,3,2,1,50,0,0
23461,-100,3,2,1,40,0,0
23691,-100,3,2,1,50,0,0
24153,-100,3,2,1,40,0,0
24384,-100,3,2,1,50,0,0
25538,-100,3,2,1,35,0,0
26000,-100,3,2,1,50,0,0
26230,-100,3,2,1,40,0,0
26461,-100,3,2,1,50,0,0
26923,-100,3,2,1,40,0,0
27153,-100,3,2,1,50,0,0
29000,-100,3,2,1,40,0,0
29230,-100,3,2,1,50,0,0
29692,-100,3,2,1,40,0,0
29923,-100,3,2,1,35,0,0
30384,-100,3,2,1,50,0,0
31077,-133.333333333333,3,2,1,50,0,0
32231,-100,3,2,1,50,0,0
35461,-100,3,2,1,50,0,0
35692,-100,3,2,1,45,0,0
35923,-100,3,2,1,40,0,0
36154,-100,3,2,1,35,0,0
36384,-100,3,2,1,30,0,0
36615,-100,3,2,1,25,0,0
37077,-100,3,2,1,20,0,0
37538,-100,3,2,1,15,0,0
38000,-100,3,2,1,40,0,0
38461,-100,3,2,1,35,0,0
38692,-100,3,2,1,40,0,0
38923,-100,3,2,1,45,0,0
39154,-100,3,2,1,50,0,0
39385,-133.333333333333,3,2,1,50,0,0
40077,-133.333333333333,3,2,1,50,0,0
40307,-133.333333333333,3,2,1,30,0,0
40770,-133.333333333333,3,2,1,50,0,0
41462,-133.333333333333,3,2,1,50,0,0
41692,-133.333333333333,3,2,1,30,0,0
42154,-133.333333333333,3,2,1,50,0,0
42847,-133.333333333333,3,2,1,50,0,0
43077,-133.333333333333,3,2,1,30,0,0
43539,-200,3,2,1,40,0,0
44922,-100,3,2,1,40,0,0
45615,-100,3,2,1,45,0,0
45845,-100,3,2,1,50,0,0
46307,-100,3,2,1,60,0,0
46768,-100,3,2,1,50,0,0
49538,-133.333333333333,3,2,1,50,0,0
49999,-100,3,2,1,50,0,0
50460,-200,3,2,1,60,0,0
51844,-100,3,2,1,50,0,0
52536,-100,3,2,1,40,0,0
53228,-100,3,2,1,30,0,0
53690,-100,3,2,1,20,0,0
54382,-100,3,2,1,40,0,0
54614,-133.333333333333,3,2,1,50,0,0
56922,-100,3,2,1,50,0,0
57844,-100,3,2,1,35,0,0
58075,-100,3,2,1,40,0,0
58306,-100,3,2,1,45,0,0
58537,-100,3,2,1,50,0,0
58769,-100,3,2,1,80,0,0
58884,-100,3,2,1,80,0,1
58999,-100,3,2,1,55,0,1
64307,-133.333333333333,3,2,1,55,0,1
65692,-133.333333333333,3,2,1,55,0,1
66845,-100,3,2,1,50,0,1
67306,-100,3,2,1,45,0,1
67768,-100,3,2,1,40,0,1
68229,-100,3,2,1,35,0,1
68460,-100,3,2,1,30,0,1
68692,-100,3,2,1,25,0,1
68922,-100,3,2,1,20,0,1
69153,-100,3,2,1,40,0,1
69383,-100,3,2,1,45,0,1
69615,-100,3,2,1,55,0,1
69731,-100,3,2,1,55,0,0
69961,-100,3,2,1,80,0,1
70076,-100,3,2,1,55,0,1
78153,-100,3,2,1,50,0,1
78384,-100,3,2,1,45,0,1
78615,-100,3,2,1,35,0,1
78846,-133.333333333333,3,2,1,30,0,1
79538,-133.333333333333,3,2,1,40,0,1
79769,-133.333333333333,3,2,1,5,0,1
82423,-100,3,2,1,5,0,0

[Colours]
Combo1 : 254,179,163
Combo2 : 231,117,84
Combo3 : 186,126,86

[HitObjects]
176,336,1192,1,0
96,296,1423,1,2
56,216,1654,1,2
96,136,1884,1,0
176,96,2115,6,0,B|224:80|288:96,1,89.9999952316285,10|0
280,184,2577,1,0
352,128,2807,1,2
352,128,3269,5,6
432,184,3500,1,0
392,272,3731,1,0
296,272,3961,2,0,B|256:296|208:272,1,89.9999952316283,0|2
96,128,4423,2,0,B|142:104|182:128,1,89.9999952316283,0|0
296,272,4884,6,0,B|400:240|424:136,1,179.999990463257,8|0
376,72,5577,1,2
240,192,6038,1,0
208,280,6269,1,0
296,272,6500,1,0
344,200,6731,6,0,B|376:152|344:80,2,89.9999952316283,0|2|0
192,232,7423,1,0
96,112,7654,2,0,B|120:64|192:80,1,89.9999952316283,8|0
192,232,8115,6,0,B|158:278|79:274,2,89.9999952316283,0|2|0
344,200,8807,1,0
304,56,9038,2,0,B|248:40|213:101,1,89.9999952316283,8|0
192,232,9500,5,0
344,200,9731,1,2
304,56,9961,1,0
152,88,10192,1,0
192,232,10423,1,8
256,192,10538,12,4,11807
368,64,12269,5,0
280,80,12500,2,0,B|231:79|196:117,1,89.9999952316285,2|0
120,240,12961,2,0,B|168:240|203:202,1,89.9999952316283,0|8
272,152,13423,1,0
184,120,13654,1,0
256,56,13884,6,0,B|312:12|384:47,1,134.999995976687,2|0
424,128,14577,1,0
352,184,14807,1,0
280,128,15038,6,0,B|232:176|280:240,1,90,0|10
200,280,15500,1,0
288,304,15730,1,0
216,360,15961,2,0,B|176:400|120:376,1,90,8|0
144,288,16423,2,0,B|96:200,2,90,0|2|0
160,112,17115,2,0,B|203:191,2,90
216,48,17807,5,0
304,64,18038,2,0,B|352:96|328:184,1,90,10|0
304,224,18500,1,0
216,216,18731,2,0,B|208:272|264:304,1,90,8|0
312,360,19192,5,0
432,296,19423,1,2
440,160,19654,1,0
352,264,19884,1,0
440,160,20115,1,0
360,48,20346,1,0
360,184,20577,5,0
288,232,20807,2,0,B|248:272|176:256,1,90,10|0
120,240,21269,1,0
88,160,21500,2,0,B|96:112|144:96,1,90,8|0
304,176,21961,5,0
224,16,22192,1,2
192,192,22423,1,0
320,72,22654,1,2
144,96,22884,1,4
16,136,23346,6,0,B|72:120|104:176,1,90,0|10
32,224,23807,1,0
120,248,24038,1,0
64,320,24269,2,0,B|103:362|160:331,1,90,8|0
228,304,24731,1,0
260,172,24961,5,2
328,340,25192,1,0
328,340,25307,1,0
328,340,25423,1,0
328,248,25654,5,0
328,216,25884,1,0
328,184,26115,2,0,B|376:104,1,90,0|10
200,56,26577,2,0,B|152:136,1,90,0|0
136,224,27038,1,8
136,224,27500,5,0
200,288,27731,2,0,B|248:304|288:272,1,89.9999952316285,2|0
192,176,28192,1,0
288,80,28423,1,0
256,208,28654,1,4
232,120,28884,6,0,B|208:72|144:80,1,90,0|10
64,112,29346,2,0,B|88:159|152:151,1,90,0|0
72,216,29807,1,8
88,304,30038,1,0
128,328,30154,1,0
176,328,30269,1,0
264,320,30500,1,2
248,232,30731,1,0
280,152,30961,1,0
352,96,31192,6,0,B|408:56|480:64,1,134.99998882413,0|0
416,184,31884,2,0,B|360:224|288:216,1,134.99998882413,2|0
128,128,32577,5,0
304,96,32807,1,0
248,264,33038,1,0
192,104,33269,5,2
328,160,33500,1,0
200,224,33731,1,4
252,160,33961,5,0
448,112,35346,6,0,B|352:112,1,89.9999952316285,0|2
288,56,35807,1,0
184,144,36038,6,0,B|272:144,1,89.9999952316285,2|0
324,220,36500,1,2
260,284,36731,6,0,B|208:280|192:232,1,89.9999952316285,0|2
184,144,37192,2,0,B|236:148|252:196,1,89.9999952316285,0|2
112,176,37654,2,0,B|89:128|123:90,1,89.9999952316285,0|2
200,48,38115,1,10
376,304,38577,5,4
408,216,38807,1,0
328,168,39038,1,0
384,96,39269,1,0
304,48,39500,6,0,B|192:8|88:72,1,202.49999396503,2|0
44,136,40423,1,0
116,208,40654,1,0
68,296,40884,6,0,B|156:360|276:328,1,202.49999396503,2|0
360,348,41807,1,0
348,248,42038,1,0
388,156,42269,6,0,B|324:76|212:60,1,202.499983236194,2|0
160,148,43192,1,0
216,232,43423,1,0
168,304,43654,6,0,B|208:344|256:312,1,89.9999952316285,2|0
368,176,44577,1,0
368,176,45038,5,2
232,200,45269,1,0
112,88,45500,1,0
248,64,45731,5,2
278,73,45846,1,0
308,83,45961,1,2
339,93,46077,1,0
369,103,46192,1,2
152,216,46423,6,0,B|168:264|216:280,2,89.9999952316285,4|0|0
400,280,47346,1,0
256,169,47577,1,0
232,344,47807,1,2
400,280,48038,1,0
424,104,48269,1,0
256,168,48500,1,0
104,112,48731,2,0,B|200:112,1,89.9999952316285,0|0
280,80,49192,5,2
384,168,49423,1,0
376,296,49654,2,0,B|336:360|255:334,1,134.999995976687,0|0
136,216,50346,1,4
136,216,50577,6,8,B|180:159|257:178,1,135,2|0
312,248,51500,1,0
400,272,51731,1,0
440,192,51961,5,2
280,112,52423,1,0
280,112,52654,1,2
176,256,53115,1,0
176,256,53346,1,2
56,128,53807,1,2
216,40,54269,5,0
216,40,54500,1,0
216,40,54731,2,0,B|304:96|304:216,1,202.49999396503,2|0
240,320,55654,1,0
120,312,55884,1,0
64,200,56115,6,0,B|82:162|138:164,1,67.4999979883433,2|0
216,240,56577,2,0,B|296:248|358:187,1,134.99998882413,0|0
384,120,57269,1,0
384,120,57500,1,4
256,48,57961,5,0
256,136,58192,1,0
256,224,58423,1,0
256,312,58654,1,0
256,48,58884,5,4
256,224,59346,1,0
376,136,59577,1,8
376,136,59692,1,0
376,136,59807,1,8
392,288,60038,1,8
256,224,60269,1,10
256,224,60731,5,0
120,200,60961,1,8
256,224,61192,1,0
160,320,61423,1,8
296,320,61654,1,2
328,312,61769,1,0
360,304,61884,1,8
392,296,62000,1,0
424,288,62115,1,0
456,160,62346,5,8
344,240,62577,1,0
376,96,62807,1,12
272,184,63038,6,8,B|176:184,1,89.9999952316285,10|0
112,64,63500,2,0,B|216:64,1,90,8|8
376,96,63961,2,0,B|280:96,1,90,0|8
148,143,64423,2,0,B|219:134|282:193,1,134.99998882413,10|0
216,304,65115,1,8
216,304,65577,1,8
112,224,65807,6,0,B|128:112|216:40,1,202.499983236194,2|12
328,176,66961,1,8
322,263,67192,1,2
396,312,67423,1,8
401,225,67654,1,0
401,225,67884,1,8
216,96,68346,5,8
128,88,68577,2,0,B|72:80|56:128,1,89.9999952316285,2|8
24,288,69038,1,0
80,216,69269,5,0
172,212,69500,2,0,B|260:212,1,89.9999952316285
324,276,69961,2,0,B|372:332|452:312,2,134.999992847443,0|0|8
392,160,70884,6,0,B|420:115|388:59,1,89.9999952316285,0|8
312,108,71346,1,10
284,192,71577,1,0
304,280,71807,1,0
304,280,72038,2,0,B|264:299|216:275,2,89.9999952316285,8|0|0
360,208,72731,5,2
216,112,73192,1,0
216,112,73423,1,8
384,48,73884,1,8
384,48,74115,1,6
144,312,74577,5,0
80,248,74807,1,8
64,160,75038,1,0
104,80,75269,1,8
184,40,75500,2,0,B|232:24|288:40,1,89.9999952316285,2|8
232,184,75961,1,0
360,272,76192,1,8
456,216,76423,6,0,B|416:184|360:200,1,89.9999952316285,0|8
208,272,76884,2,0,B|243:304|293:292,1,89.9999952316285,2|8
232,184,77346,2,0,B|142:184,2,90,0|8|0
320,304,78038,5,8
304,152,78269,1,2
384,280,78500,1,8
408,128,78731,1,0
360,208,78961,2,0,B|309:262|232:234,1,134.99998882413,10|0
236,235,79654,1,4
256,192,79769,12,2,82423
