osu file format v9

[General]
AudioFilename: Redleaf.mp3
AudioLeadIn: 1224
PreviewTime: 57961
Countdown: 0
SampleSet: Soft
StackLeniency: 0.4
Mode: 0
LetterboxInBreaks: 0

[Editor]
DistanceSpacing: 1
BeatDivisor: 4
GridSize: 4

[Metadata]
Title:Kouyou (Short ver.)
Artist:WHITE-LIPS
Creator:Shinki
Version:Easy
Source:Kitto, Sumiwataru Asairo Yori mo
Tags:Tynwald music MisakaMikoto Kouyou Propeller

[Difficulty]
HPDrainRate:3
CircleSize:3
OverallDifficulty:3
ApproachRate:3
SliderMultiplier:1.00000000596046
SliderTickRate:2

[Events]
//Background and Video events
0,0,"BG.jpg"
Video,0,"Redleaf.flv"
//Break Periods
//Storyboard Layer 0 (Background)
//Storyboard Layer 1 (Fail)
//Storyboard Layer 2 (Pass)
//Storyboard Layer 3 (Foreground)
//Storyboard Sound Samples
//Background Colour Transformations
3,100,163,162,255

[TimingPoints]
731,461.538461538462,3,2,1,50,1,0
58884,-100,3,2,1,80,0,1
69731,-100,3,2,1,80,0,0
69961,-100,3,2,1,80,0,1
79654,-100,3,2,1,5,0,1
82423,-100,3,2,1,5,0,0

[Colours]
Combo1 : 254,179,163
Combo2 : 231,117,84
Combo3 : 186,126,86

[HitObjects]
56,80,1192,1,0
56,136,1423,2,0,B|80:184|136:192,1,100.000000596046,0|0
184,192,2115,1,2
256,264,2577,2,0,B|237:300|196:296,1,50.000000298023,0|2
456,336,3961,5,0
456,280,4192,2,0,B|432:232|376:224,1,100.000000596046,0|0
328,224,4884,1,2
256,152,5346,2,0,B|274:115|315:119,1,50.000000298023,0|2
184,208,6731,6,0,B|220:247|273:242,2,100.000000596046,0|0|2
160,112,8115,2,0,B|123:72|70:77,2,100.000000596046,0|0|2
256,192,9500,12,4,11807
416,136,13192,6,0,B|400:216|320:248,1,150.000000894069,0|2
208,152,14577,1,0
176,248,15038,6,0,B|240:248,2,50.000000298023,2|0|0
88,200,15961,2,0,B|48:144|88:88,1,100.000000596046,2|0
104,64,16654,1,2
248,32,17346,1,4
272,128,17807,6,0,B|320:112,2,50.000000298023,2|0|0
176,104,18731,2,0,B|131:173|175:245,2,150.000000894069,2|0|2
80,96,20577,6,0,B|-24:96,2,100.000000596046,0|0|2
48,192,21961,2,0,B|32:224|48:256,1,50.000000298023,0|2
128,296,22654,2,0,B|138:279|122:247,1,50.000000298023,0|4
184,168,23346,6,0,B|240:168,1,50.000000298023,0|0
320,216,24038,1,0
320,216,24269,2,0,B|320:280|384:312,1,100.000000596046,2|0
408,328,24961,1,2
472,192,25654,1,0
384,144,26115,6,0,B|312:144,1,50.000000298023,0|2
232,256,27038,1,2
232,104,27731,2,0,B|280:40|368:48,1,150.000000894069,2|4
456,88,28884,6,0,B|440:144|376:144,1,100.000000596046,2|0
312,216,29807,1,2
272,120,30269,1,0
80,56,31192,6,0,B|23:109|43:195,1,150.000000894069,2|0
104,328,32577,2,0,B|161:275|141:189,1,150.000000894069,2|0
176,48,33961,1,2
176,48,35346,6,0,B|256:56|280:144,1,150.000000894069,2|0
144,192,36731,1,2
256,288,37423,1,0
392,232,38115,1,4
392,136,38577,6,0,B|504:136,2,100.000000596046,0|0|2
280,40,40192,1,0
184,152,40884,6,0,B|221:194|295:173,2,100.000000596046,2|0|0
96,104,42269,1,2
168,240,42961,1,0
312,200,43654,1,2
240,64,44346,1,0
136,176,45038,2,0,B|112:264|184:304,1,150.000000894069,2|4
336,280,46423,6,0,B|368:232|344:184,1,100.000000596046,2|0
280,112,47346,2,0,B|240:80,2,50.000000298023,0|0|2
192,152,48269,2,0,B|152:200|176:256,1,100.000000596046,0|0
72,224,49192,1,4
104,320,49654,6,0,B|199:367|296:323,1,200.000001192092,0|2
408,224,51269,2,0,B|329:195|265:243,1,150.000000894069,0|8
116,244,52654,1,0
72,100,53346,1,8
72,100,54269,5,0
172,100,54731,2,0,B|220:196|340:196,1,200.000001192092,4|8
308,100,56115,2,0,B|420:100|471:203,1,200.000001192092,4|8
424,288,57500,1,8
257,39,58884,5,4
368,136,59577,1,2
256,232,60269,1,0
168,184,60731,2,0,B|120:144,2,50.000000298023,0|2|0
112,264,61654,2,0,B|112:352|208:368,1,150.000000894069,0|2
256,232,63038,1,0
344,272,63500,6,0,B|372:226|340:178,1,100.000000596046,4|0
232,128,64423,1,0
88,96,65115,1,2
128,240,65807,1,0
352,128,66961,5,0
352,128,67192,2,0,B|440:128|480:56,2,150.000000894069,2|0|0
312,272,69269,5,0
224,152,69961,2,0,B|186:84|98:84,2,150.000000894069,4|0|2
320,128,71807,1,0
416,160,72269,1,0
416,264,72731,6,0,B|384:336|292:340,1,150.000000894069,2|0
256,192,74115,1,2
120,128,74807,2,0,B|152:56|244:52,1,150.000000894069,0|2
368,136,76192,5,0
368,288,76884,1,2
240,216,77577,1,0
368,136,78269,2,0,B|416:112|472:136,2,100.000000596046,2|0|0
256,192,79654,12,2,82423
