osu file format v13

[General]
AudioFilename: uap - White Ash.MP3
AudioLeadIn: 2500
PreviewTime: 54550
Countdown: 0
SampleSet: Normal
StackLeniency: 0.7
Mode: 1
LetterboxInBreaks: 0
WidescreenStoryboard: 0

[Editor]
Bookmarks: 28388
DistanceSpacing: 0.6
BeatDivisor: 4
GridSize: 32
TimelineZoom: 0.9

[Metadata]
Title:Crowds (TV Size)
TitleUnicode:Crowds (TV Size)
Artist:WHITE ASH
ArtistUnicode:WHITE ASH
Creator:Teru21
Version:Muzukashii
Source:Gatchaman Crowds
Tags:opening ガッチャマン クラウズ
BeatmapID:285921
BeatmapSetID:109105

[Difficulty]
HPDrainRate:5
CircleSize:5
OverallDifficulty:5
ApproachRate:5
SliderMultiplier:1.4
SliderTickRate:2

[Events]
//Background and Video events
0,0,"Gatchaman-Crowds-OP-1-2 copy.jpg",0,0
Video,0,"Gatchaman Crowds OP [With Lyrics] (White Ash - Crowds) 720p HD.mp4.AVI"
//Break Periods
//Storyboard Layer 0 (Background)
//Storyboard Layer 1 (Fail)
//Storyboard Layer 2 (Pass)
//Storyboard Layer 3 (Foreground)
//Storyboard Sound Samples
//Background Colour Transformations
3,100,0,0,0

[TimingPoints]
164,350.877192982456,4,1,0,60,1,0
1568,350.877192982456,7,1,0,60,1,0
4024,350.877192982456,4,1,0,60,1,0
54550,-100,4,1,0,60,0,1
75602,-100,4,1,0,60,0,8

[Colours]
Combo1 : 255,255,0
Combo2 : 234,0,0
Combo3 : 0,128,192
Combo4 : 0,128,128
Combo5 : 255,128,255

[HitObjects]
256,192,164,5,0,0:0:0:0:
256,192,690,1,0,0:0:0:0:
256,192,1216,1,8,0:0:0:0:
256,192,1392,1,8,0:0:0:0:
256,192,1568,1,0,0:0:0:0:
256,192,2094,1,0,0:0:0:0:
256,192,2620,1,0,0:0:0:0:
256,192,3146,1,0,0:0:0:0:
256,192,3673,1,8,0:0:0:0:
256,192,3848,1,8,0:0:0:0:
256,192,4024,1,0,0:0:0:0:
256,192,4550,1,0,0:0:0:0:
256,192,5076,1,8,0:0:0:0:
256,192,5252,1,8,0:0:0:0:
256,192,5427,2,0,B|320:160|384:192|384:192|352:128|384:64|384:64|320:96|224:64,1,420
256,192,6831,1,4,0:0:0:0:
256,192,7006,1,0,0:0:0:0:
256,192,7181,1,8,0:0:0:0:
256,192,7357,1,0,0:0:0:0:
256,192,7532,1,0,0:0:0:0:
256,192,7708,1,8,0:0:0:0:
256,192,7883,1,0,0:0:0:0:
256,192,8234,1,0,0:0:0:0:
256,192,8409,1,0,0:0:0:0:
256,192,8585,1,8,0:0:0:0:
256,192,8760,1,0,0:0:0:0:
256,192,8936,1,0,0:0:0:0:
256,192,9111,1,8,0:0:0:0:
256,192,9287,1,8,0:0:0:0:
256,192,9638,1,0,0:0:0:0:
256,192,9813,1,0,0:0:0:0:
256,192,9988,1,8,0:0:0:0:
256,192,10164,1,0,0:0:0:0:
256,192,10339,1,0,0:0:0:0:
256,192,10515,1,8,0:0:0:0:
256,192,10690,1,0,0:0:0:0:
256,192,11041,1,12,0:0:0:0:
256,192,11392,1,4,0:0:0:0:
256,192,11743,1,12,0:0:0:0:
256,192,12094,1,12,0:0:0:0:
256,192,12445,5,4,0:0:0:0:
256,192,12795,1,8,0:0:0:0:
256,192,12971,1,0,0:0:0:0:
256,192,13322,1,8,0:0:0:0:
256,192,13497,1,0,0:0:0:0:
256,192,13848,1,0,0:0:0:0:
256,192,14111,1,8,0:0:0:0:
256,192,14374,1,8,0:0:0:0:
256,192,14550,1,0,0:0:0:0:
256,192,14725,1,8,0:0:0:0:
256,192,14901,1,0,0:0:0:0:
256,192,15076,1,8,0:0:0:0:
256,192,15427,1,0,0:0:0:0:
256,192,15602,1,8,0:0:0:0:
256,192,15953,1,0,0:0:0:0:
256,192,16129,1,8,0:0:0:0:
256,192,16480,1,8,0:0:0:0:
256,192,16655,1,0,0:0:0:0:
256,192,17006,1,8,0:0:0:0:
256,192,17181,1,0,0:0:0:0:
256,192,17532,1,8,0:0:0:0:
256,192,17708,1,0,0:0:0:0:
256,192,17883,1,0,0:0:0:0:
256,192,18059,1,8,0:0:0:0:
256,192,18409,1,8,0:0:0:0:
256,192,18585,1,0,0:0:0:0:
256,192,18936,1,0,0:0:0:0:
256,192,19111,1,8,0:0:0:0:
256,192,19287,1,8,0:0:0:0:
256,192,19462,1,0,0:0:0:0:
256,192,19813,1,8,0:0:0:0:
256,192,19988,1,0,0:0:0:0:
256,192,20339,1,8,0:0:0:0:
256,192,20515,1,0,0:0:0:0:
256,192,20690,1,0,0:0:0:0:
256,192,20866,1,8,0:0:0:0:
256,192,21216,1,8,0:0:0:0:
256,192,21392,1,0,0:0:0:0:
256,192,21743,1,0,0:0:0:0:
256,192,21918,1,8,0:0:0:0:
256,192,22094,1,8,0:0:0:0:
256,192,22269,1,0,0:0:0:0:
256,192,22620,1,8,0:0:0:0:
256,192,22971,1,0,0:0:0:0:
256,192,23146,1,8,0:0:0:0:
256,192,23322,1,8,0:0:0:0:
256,192,23497,1,8,0:0:0:0:
256,192,23673,1,4,0:0:0:0:
256,192,24023,1,8,0:0:0:0:
256,192,24199,1,0,0:0:0:0:
256,192,24374,1,8,0:0:0:0:
256,192,24725,1,0,0:0:0:0:
256,192,24901,1,8,0:0:0:0:
256,192,25076,1,0,0:0:0:0:
256,192,25339,1,8,0:0:0:0:
256,192,25602,1,8,0:0:0:0:
256,192,25778,1,0,0:0:0:0:
256,192,25953,1,8,0:0:0:0:
256,192,26129,1,0,0:0:0:0:
256,192,26304,1,8,0:0:0:0:
256,192,26655,1,0,0:0:0:0:
256,192,26831,1,8,0:0:0:0:
256,192,27181,1,0,0:0:0:0:
256,192,27357,1,8,0:0:0:0:
256,192,27708,1,8,0:0:0:0:
256,192,27883,1,0,0:0:0:0:
256,192,28234,1,0,0:0:0:0:
256,192,28409,1,8,0:0:0:0:
256,192,28760,1,8,0:0:0:0:
256,192,28936,1,0,0:0:0:0:
256,192,29111,1,8,0:0:0:0:
256,192,29287,1,0,0:0:0:0:
256,192,29638,1,8,0:0:0:0:
256,192,29813,1,0,0:0:0:0:
256,192,30164,1,8,0:0:0:0:
256,192,30339,1,0,0:0:0:0:
256,192,30515,1,0,0:0:0:0:
256,192,30690,1,8,0:0:0:0:
256,192,31041,1,8,0:0:0:0:
256,192,31216,1,0,0:0:0:0:
256,192,31567,1,0,0:0:0:0:
256,192,31743,1,8,0:0:0:0:
256,192,31918,1,8,0:0:0:0:
256,192,32094,1,0,0:0:0:0:
256,192,32445,1,8,0:0:0:0:
256,192,32620,1,0,0:0:0:0:
256,192,32971,1,8,0:0:0:0:
256,192,33146,1,0,0:0:0:0:
256,192,33497,1,4,0:0:0:0:
256,192,33848,1,4,0:0:0:0:
256,192,34199,1,12,0:0:0:0:
256,192,34550,1,12,0:0:0:0:
256,192,34901,1,4,0:0:0:0:
256,192,35252,1,8,0:0:0:0:
256,192,35427,1,0,0:0:0:0:
256,192,35602,1,0,0:0:0:0:
256,192,35778,1,8,0:0:0:0:
256,192,36129,1,8,0:0:0:0:
256,192,36304,1,0,0:0:0:0:
256,192,36655,1,8,0:0:0:0:
256,192,37006,1,0,0:0:0:0:
256,192,37181,1,0,0:0:0:0:
256,192,37357,1,8,0:0:0:0:
256,192,37708,1,4,0:0:0:0:
256,192,38059,1,8,0:0:0:0:
256,192,38234,1,0,0:0:0:0:
256,192,38585,1,8,0:0:0:0:
256,192,38760,1,0,0:0:0:0:
256,192,39111,1,12,0:0:0:0:
256,192,39462,1,0,0:0:0:0:
256,192,39638,1,8,0:0:0:0:
256,192,39988,1,0,0:0:0:0:
256,192,40164,1,8,0:0:0:0:
256,192,40515,1,4,0:0:0:0:
256,192,40866,1,8,0:0:0:0:
256,192,41041,1,0,0:0:0:0:
256,192,41392,1,8,0:0:0:0:
256,192,41743,1,8,0:0:0:0:
256,192,41918,1,0,0:0:0:0:
256,192,42269,1,8,0:0:0:0:
256,192,42620,1,0,0:0:0:0:
256,192,42971,1,8,0:0:0:0:
256,192,43146,1,0,0:0:0:0:
256,192,43322,1,0,0:0:0:0:
256,192,43497,1,8,0:0:0:0:
256,192,43848,1,8,0:0:0:0:
256,192,44023,1,0,0:0:0:0:
256,192,44287,1,8,0:0:0:0:
256,192,44550,1,8,0:0:0:0:
256,192,44725,1,0,0:0:0:0:
256,192,45076,1,8,0:0:0:0:
256,192,45252,1,0,0:0:0:0:
256,192,45602,1,8,0:0:0:0:
256,192,45953,1,8,0:0:0:0:
256,192,46129,1,4,0:0:0:0:
256,192,46480,1,8,0:0:0:0:
256,192,46655,1,0,0:0:0:0:
256,192,46831,1,0,0:0:0:0:
256,192,47006,1,8,0:0:0:0:
256,192,47357,1,8,0:0:0:0:
256,192,47532,1,0,0:0:0:0:
256,192,47883,1,8,0:0:0:0:
256,192,48234,1,0,0:0:0:0:
256,192,48409,1,0,0:0:0:0:
256,192,48585,1,8,0:0:0:0:
256,192,48936,1,4,0:0:0:0:
256,192,49287,1,8,0:0:0:0:
256,192,49462,1,0,0:0:0:0:
256,192,49813,1,8,0:0:0:0:
256,192,49988,1,0,0:0:0:0:
256,192,50339,1,12,0:0:0:0:
256,192,50690,1,0,0:0:0:0:
256,192,50866,1,8,0:0:0:0:
256,192,51216,1,0,0:0:0:0:
256,192,51392,1,8,0:0:0:0:
256,192,51743,1,12,0:0:0:0:
256,192,52006,1,0,0:0:0:0:
256,192,52269,1,8,0:0:0:0:
256,192,52620,1,8,0:0:0:0:
256,192,52795,1,0,0:0:0:0:
256,192,53146,1,4,0:0:0:0:
256,192,53497,1,4,0:0:0:0:
256,192,53848,1,12,0:0:0:0:
256,192,54199,1,12,0:0:0:0:
256,192,54550,1,4,0:0:0:0:
256,192,54901,1,8,0:0:0:0:
256,192,55076,1,0,0:0:0:0:
256,192,55252,1,0,0:0:0:0:
256,192,55427,1,8,0:0:0:0:
256,192,55778,1,8,0:0:0:0:
256,192,55953,1,0,0:0:0:0:
256,192,56304,1,8,0:0:0:0:
256,192,56655,1,0,0:0:0:0:
256,192,56831,1,0,0:0:0:0:
256,192,57006,1,8,0:0:0:0:
256,192,57357,1,4,0:0:0:0:
256,192,57532,1,0,0:0:0:0:
256,192,57708,1,8,0:0:0:0:
256,192,57883,1,0,0:0:0:0:
256,192,58234,1,8,0:0:0:0:
256,192,58409,1,0,0:0:0:0:
256,192,58760,1,12,0:0:0:0:
256,192,58936,1,0,0:0:0:0:
256,192,59111,1,0,0:0:0:0:
256,192,59287,1,8,0:0:0:0:
256,192,59638,1,0,0:0:0:0:
256,192,59813,1,8,0:0:0:0:
256,192,59901,1,8,0:0:0:0:
256,192,59988,1,8,0:0:0:0:
256,192,60164,1,4,0:0:0:0:
256,192,60515,1,8,0:0:0:0:
256,192,60690,1,0,0:0:0:0:
256,192,61041,1,8,0:0:0:0:
256,192,61392,1,8,0:0:0:0:
256,192,61567,1,0,0:0:0:0:
256,192,61918,1,8,0:0:0:0:
256,192,62269,1,0,0:0:0:0:
256,192,62620,1,8,0:0:0:0:
256,192,62795,1,0,0:0:0:0:
256,192,62971,1,0,0:0:0:0:
256,192,63146,1,8,0:0:0:0:
256,192,63497,1,8,0:0:0:0:
256,192,63673,1,0,0:0:0:0:
256,192,63936,1,8,0:0:0:0:
256,192,64199,1,8,0:0:0:0:
256,192,64374,1,0,0:0:0:0:
256,192,64550,1,0,0:0:0:0:
256,192,64638,1,0,0:0:0:0:
256,192,64725,1,0,0:0:0:0:
256,192,64901,1,0,0:0:0:0:
256,192,65252,1,8,0:0:0:0:
256,192,65602,1,8,0:0:0:0:
256,192,65778,1,4,0:0:0:0:
256,192,66129,1,8,0:0:0:0:
256,192,66304,1,0,0:0:0:0:
256,192,66480,1,0,0:0:0:0:
256,192,66655,1,8,0:0:0:0:
256,192,67006,1,8,0:0:0:0:
256,192,67181,1,0,0:0:0:0:
256,192,67532,1,8,0:0:0:0:
256,192,67883,1,0,0:0:0:0:
256,192,68234,1,8,0:0:0:0:
256,192,68585,1,0,0:0:0:0:
256,192,68760,1,8,0:0:0:0:
256,192,68936,1,8,0:0:0:0:
256,192,69111,1,0,0:0:0:0:
256,192,69462,1,8,0:0:0:0:
256,192,69638,1,0,0:0:0:0:
256,192,69988,1,8,0:0:0:0:
256,192,70164,1,0,0:0:0:0:
256,192,70339,1,0,0:0:0:0:
256,192,70515,1,8,0:0:0:0:
256,192,70866,1,8,0:0:0:0:
256,192,71041,1,0,0:0:0:0:
256,192,71392,1,12,0:0:0:0:
256,192,71655,1,0,0:0:0:0:
256,192,71918,1,8,0:0:0:0:
256,192,72269,1,8,0:0:0:0:
256,192,72445,1,0,0:0:0:0:
256,192,72532,1,0,0:0:0:0:
256,192,72620,1,0,0:0:0:0:
256,192,72795,1,8,0:0:0:0:
256,192,73146,1,8,0:0:0:0:
256,192,73322,1,0,0:0:0:0:
256,192,73673,1,0,0:0:0:0:
256,192,73848,1,8,0:0:0:0:
256,192,73936,1,8,0:0:0:0:
256,192,74023,1,8,0:0:0:0:
256,192,74199,1,4,0:0:0:0:
256,192,74725,1,4,0:0:0:0:
256,192,75252,1,4,0:0:0:0:
256,192,75427,1,0,0:0:0:0:
256,192,75602,1,4,0:0:0:0:
