osu file format v12

[General]
AudioFilename: crowdstvsize.mp3
AudioLeadIn: 1500
PreviewTime: 33804
Countdown: 0
SampleSet: Soft
StackLeniency: 0.7
Mode: 0
LetterboxInBreaks: 0
WidescreenStoryboard: 0

[Editor]
Bookmarks: 647,5910,7314,12928,24156,35384,46612,55033,66261,74682,77664
DistanceSpacing: 1
BeatDivisor: 2
GridSize: 4
TimelineZoom: 1

[Metadata]
Title:Crowds (TV Size)
TitleUnicode:Crowds (TV Size)
Artist:WHITE ASH
ArtistUnicode:WHITE ASH
Creator:Damnae
Version:Normal
Source:Gatchaman Crowds
Tags:ガッチャマン クラウズ hajime ichinose opening
BeatmapID:356464
BeatmapSetID:142735

[Difficulty]
HPDrainRate:4
CircleSize:3
OverallDifficulty:4
ApproachRate:5
SliderMultiplier:1
SliderTickRate:2

[Events]
//Background and Video events
0,0,"bg.png",0,0
//Break Periods
//Storyboard Layer 0 (Background)
//Storyboard Layer 1 (Fail)
//Storyboard Layer 2 (Pass)
//Storyboard Layer 3 (Foreground)
//Storyboard Sound Samples
//Background Colour Transformations
3,100,0,0,0

[TimingPoints]
296,350.877192982456,4,2,2,40,1,0
822,-100,4,2,2,20,0,0
1173,-100,4,2,2,40,0,0
2752,-100,4,2,2,20,0,0
3103,-100,4,2,2,40,0,0
3278,-100,4,2,2,20,0,0
3629,-100,4,2,2,40,0,0
5910,-100,4,2,2,30,0,0
6085,-100,4,2,2,20,0,0
6962,-100,4,2,2,50,0,0
35383,-100,4,2,1,50,0,1
36085,-100,4,2,2,50,0,1
36260,-100,4,2,1,50,0,1
36436,-100,4,2,2,50,0,1
36611,-100,4,2,1,50,0,1
37488,-100,4,2,2,50,0,1
37664,-100,4,2,1,50,0,1
38541,-100,4,2,2,50,0,1
38717,-100,4,2,1,50,0,1
38892,-100,4,2,2,50,0,1
39067,-100,4,2,1,50,0,1
39945,-100,4,2,2,50,0,1
40120,-100,4,2,1,50,0,1
40295,-100,4,2,2,50,0,1
40471,-100,4,2,1,50,0,1
41699,-100,4,2,2,50,0,1
41874,-100,4,2,1,50,0,1
42050,-100,4,2,2,50,0,1
42225,-100,4,2,1,50,0,1
43103,-100,4,2,2,50,0,1
43278,-100,4,2,1,50,0,1
44155,-100,4,2,2,50,0,1
44331,-100,4,2,1,50,0,1
45559,-100,4,2,2,50,0,1
45734,-100,4,2,1,50,0,1
47313,-100,4,2,2,50,0,1
47488,-100,4,2,1,50,0,1
47664,-100,4,2,2,50,0,1
47839,-100,4,2,1,50,0,1
49769,-100,4,2,2,50,0,1
49945,-100,4,2,1,50,0,1
50120,-100,4,2,2,50,0,1
50295,-100,4,2,1,50,0,1
51173,-100,4,2,2,50,0,1
51348,-100,4,2,1,50,0,1
51524,-100,4,2,2,50,0,1
51699,-100,4,2,1,50,0,1
52927,-100,4,2,2,50,0,1
53103,-100,4,2,1,50,0,1
53629,-100,4,2,1,50,0,0
55032,-100,4,2,1,50,0,1
55734,-100,4,2,2,50,0,1
55910,-100,4,2,1,50,0,1
56085,-100,4,2,2,50,0,1
56260,-100,4,2,1,50,0,1
57138,-100,4,2,2,50,0,1
57313,-100,4,2,1,50,0,1
58190,-100,4,2,2,50,0,1
58366,-100,4,2,1,50,0,1
58541,-100,4,2,2,50,0,1
58717,-100,4,2,1,50,0,1
59594,-100,4,2,2,50,0,1
59769,-100,4,2,1,50,0,1
59945,-100,4,2,2,50,0,1
60120,-100,4,2,1,50,0,1
61348,-100,4,2,2,50,0,1
61524,-100,4,2,1,50,0,1
61699,-100,4,2,2,50,0,1
61874,-100,4,2,1,50,0,1
62752,-100,4,2,2,50,0,1
62927,-100,4,2,1,50,0,1
63804,-100,4,2,2,50,0,1
63980,-100,4,2,1,50,0,1
65208,-100,4,2,2,50,0,1
65383,-100,4,2,1,50,0,1
66962,-100,4,2,2,50,0,1
67138,-100,4,2,1,50,0,1
67313,-100,4,2,2,50,0,1
67488,-100,4,2,1,50,0,1
69418,-100,4,2,2,50,0,1
69594,-100,4,2,1,50,0,1
69769,-100,4,2,2,50,0,1
69945,-100,4,2,1,50,0,1
70822,-100,4,2,2,50,0,1
70997,-100,4,2,1,50,0,1
71173,-100,4,2,2,50,0,1
71348,-100,4,2,1,50,0,1
72576,-100,4,2,2,50,0,1
72752,-100,4,2,1,50,0,1
73980,-100,4,2,2,50,0,1
74155,-100,4,2,1,50,0,1
74682,-100,4,2,2,50,0,0
75910,-100,4,2,2,40,0,0
76085,-100,4,2,2,50,0,0
77664,-100,4,2,2,5,0,0

[Colours]
Combo1 : 255,94,55
Combo2 : 173,255,95
Combo3 : 17,254,176
Combo4 : 255,88,100

[HitObjects]
8,196,646,6,0,B|46:225|72:233|72:233|99:233|144:217,1,150,0|2,1:0|1:2,0:0:0:0:
252,324,1699,2,0,P|229:333|204:340,2,50,0|2|0,1:0|1:2|1:0,0:0:0:0:
256,172,2576,6,0,B|217:142|191:134|191:134|164:134|119:150,2,150,2|0|2,1:2|1:0|1:2,0:0:0:0:
396,228,4155,2,0,P|418:218|444:212,2,50,0|2|0,1:0|1:2|1:0,0:0:0:0:
256,284,5032,5,2,1:2:0:0:
116,229,5559,2,0,L|61:237,1,50,0|0,1:0|1:0,0:0:0:0:
17,243,5910,6,0,P|45:116|189:133,1,300,4|0,1:2|3:0,0:0:0:0:
280,96,7313,5,4,1:0:0:0:
372,132,7664,2,0,P|360:180|349:279,1,150,8|0,2:0|1:0,0:0:0:0:
308,308,8366,2,0,P|252:320|208:337,1,100,8|0,2:0|1:0,0:0:0:0:
216,236,9067,2,0,P|104:232|52:224,1,150,8|0,2:0|1:0,0:0:0:0:
28,192,9769,1,8,0:0:0:0:
96,120,10120,5,0,1:0:0:0:
196,140,10471,2,0,P|244:136|343:117,1,150,8|0,2:0|1:0,0:0:0:0:
392,124,11173,2,0,P|404:172|408:224,1,100,8|6,2:0|2:0,0:0:0:0:
344,300,11874,2,0,P|324:300|244:312,2,100,4|2|6,1:0|1:2|2:0,0:0:0:0:
440,328,12927,6,0,P|448:272|468:176,1,150,0|4,1:0|0:3,0:0:0:0:
408,100,13804,1,2,0:3:0:0:
312,132,14155,1,0,1:0:0:0:
312,132,14331,2,0,P|220:128|140:136,1,150,0|4,1:0|3:0,0:0:0:0:
64,152,15208,1,2,1:3:0:0:
64,152,15383,2,0,P|64:216|60:268,2,100,0|2|0,0:0|0:3|1:0,0:0:0:0:
164,40,16611,5,0,1:0:0:0:
252,160,17138,2,0,P|244:216|224:312,1,150,0|4,1:0|0:3,0:0:0:0:
316,352,18015,2,0,P|380:352|504:308,1,150,0|2,1:0|3:0,0:0:0:0:
432,236,18892,2,0,P|424:172|432:88,1,150,0|4,1:0|0:3,0:0:0:0:
340,44,19769,5,0,1:0:0:0:
340,44,19945,1,0,1:0:0:0:
252,88,20295,1,0,1:0:0:0:
252,88,20471,2,0,P|252:152|248:196,1,100,4|8,0:3|3:0,0:0:0:0:
144,296,21348,1,0,1:0:0:0:
68,228,21699,1,0,1:0:0:0:
68,228,21874,2,0,P|84:152|80:40,1,150,4|2,3:0|3:0,0:0:0:0:
176,120,22752,2,0,P|248:104|340:104,1,150,4|4,1:3|3:0,0:0:0:0:
364,196,23629,1,0,1:0:0:0:
364,196,23804,1,8,0:0:0:0:
464,212,24155,6,0,P|452:286|437:359,1,150,0|4,1:0|0:3,0:0:0:0:
348,316,25032,1,2,0:3:0:0:
248,332,25383,1,0,1:0:0:0:
248,332,25559,2,0,P|156:336|76:328,1,150,0|4,1:0|3:0,0:0:0:0:
124,236,26436,1,2,1:3:0:0:
124,236,26611,2,0,P|124:172|120:120,2,100,0|2|0,0:0|0:3|1:0,0:0:0:0:
272,216,27839,5,0,1:0:0:0:
292,68,28366,2,0,P|236:60|140:40,1,150,0|4,1:0|0:3,0:0:0:0:
64,100,29243,2,0,P|43:171|42:246,1,150,0|2,1:0|3:0,0:0:0:0:
84,336,30120,2,0,P|158:327|232:335,1,150,0|4,1:0|0:3,0:0:0:0:
316,280,30997,5,0,1:0:0:0:
316,280,31173,1,0,1:0:0:0:
412,256,31523,1,0,1:0:0:0:
412,256,31699,2,0,P|412:192|416:148,1,100,4|8,0:3|3:0,0:0:0:0:
440,60,32401,1,2,3:0:0:0:
440,60,32576,1,0,1:0:0:0:
344,40,32927,1,0,1:0:0:0:
344,40,33102,2,0,P|272:52|220:48,1,100,4|2,3:0|3:0,0:0:0:0:
196,36,33629,1,0,1:0:0:0:
100,60,33980,6,0,P|108:152|108:160,1,100,4|4,1:3|3:0,0:0:0:0:
168,240,34681,2,0,P|168:248|160:340,1,100,8|4,1:3|1:0,0:0:0:0:
256,364,35383,5,4,1:2:0:0:
348,328,35734,2,0,P|368:272|424:180,2,150,8|2|0,0:0|1:2|1:0,0:0:0:0:
268,268,37138,2,0,P|206:258|113:256,1,150,8|10,0:0|1:2,0:0:0:0:
71,271,37839,1,2,1:2:0:0:
31,179,38190,6,0,P|51:119|210:38,1,250,4|10,1:2|1:2,0:0:0:0:
257,48,39243,1,0,1:2:0:0:
332,113,39594,2,0,P|353:172|280:335,1,250,4|10,1:2|1:2,0:0:0:0:
234,321,40646,1,0,1:0:0:0:
135,304,40997,5,4,1:2:0:0:
136,204,41348,2,0,P|71:165|1:138,2,150,8|2|0,0:0|1:2|1:0,0:0:0:0:
236,188,42752,2,0,P|216:132|176:44,1,150,8|2,0:0|1:2,0:0:0:0:
276,20,43629,5,10,0:0:0:0:
276,20,43804,2,0,P|340:44|428:56,1,150,0|10,1:0|0:2,0:0:0:0:
384,148,44681,1,2,1:2:0:0:
384,148,44857,1,8,0:0:0:0:
424,240,45208,2,0,P|332:268|268:300,1,150,4|10,1:0|0:2,0:0:0:0:
212,224,46085,1,2,1:2:0:0:
212,224,46260,1,8,2:0:0:0:
112,240,46611,5,4,1:0:0:0:
96,340,46962,2,0,P|164:344|248:372,2,150,8|2|0,0:0|1:2|1:0,0:0:0:0:
68,244,48366,1,8,0:0:0:0:
68,244,48541,1,2,1:2:0:0:
40,148,48892,1,10,2:2:0:0:
40,148,49067,1,0,1:0:0:0:
116,84,49418,6,0,P|168:120|360:20,1,300,4|0,1:2|1:0,0:0:0:0:
456,52,50822,2,0,P|440:128|460:312,1,250,4|2,1:2|1:2,0:0:0:0:
476,344,51874,1,8,0:0:0:0:
376,332,52225,6,0,P|300:328|252:320,1,100,0|8,1:0|0:0,0:0:0:0:
232,304,52752,2,0,P|172:296|128:296,1,100,2|2,1:2|1:2,0:0:0:0:
84,304,53278,1,8,0:0:0:0:
16,232,53629,5,4,1:0:0:0:
48,136,53980,1,4,1:3:0:0:
148,116,54331,1,4,3:0:0:0:
212,192,54681,1,8,3:0:0:0:
184,288,55032,5,4,1:2:0:0:
280,260,55383,2,0,P|332:244|440:232,2,150,8|2|0,0:0|1:2|1:0,0:0:0:0:
228,173,56787,2,0,P|273:137|368:91,1,150,8|10,0:0|1:2,0:0:0:0:
380,52,57488,1,0,1:2:0:0:
284,28,57839,6,0,P|163:48|88:145,1,250,4|10,1:2|1:2,0:0:0:0:
81,194,58892,1,0,1:2:0:0:
105,291,59243,2,0,P|277:273|353:215,1,250,4|10,1:2|1:2,0:0:0:0:
386,242,60295,6,0,P|434:246|450:250,2,50,0|10|4,1:0|0:0|1:2,0:0:0:0:
387,141,60997,2,0,P|426:76|453:6,2,150,8|2|0,0:0|1:2|1:0,0:0:0:0:
296,184,62401,2,0,P|240:204|152:244,1,150,8|2,0:0|1:2,0:0:0:0:
84,308,63278,5,10,0:2:0:0:
84,308,63453,2,0,P|108:244|120:156,1,150,0|10,1:0|0:2,0:0:0:0:
172,80,64330,1,2,1:2:0:0:
172,80,64506,1,8,0:0:0:0:
272,96,64857,2,0,P|302:164|323:236,1,150,4|10,1:0|0:2,0:0:0:0:
229,272,65734,1,2,1:2:0:0:
229,272,65910,1,8,1:2:0:0:
255,368,66260,5,4,1:0:0:0:
352,346,66611,2,0,P|404:342|504:354,2,150,8|2|0,0:0|1:2|1:0,0:0:0:0:
376,248,68015,1,8,0:0:0:0:
376,248,68190,1,2,1:2:0:0:
356,150,68541,1,10,2:2:0:0:
356,150,68716,1,0,1:0:0:0:
340,48,69067,6,0,P|256:132|356:252,1,300,4|0,1:2|1:0,0:0:0:0:
360,352,70471,2,0,P|284:336|100:356,1,250,4|2,1:2|1:2,0:0:0:0:
64,364,71523,1,8,0:0:0:0:
8,280,71874,6,0,P|12:204|20:156,1,100,0|8,1:0|0:0,0:0:0:0:
44,140,72401,2,0,P|104:148|148:148,1,100,2|10,1:2|0:2,0:0:0:0:
192,136,72927,1,8,0:0:0:0:
248,216,73278,2,0,P|324:220|372:228,1,100,0|8,1:0|0:0,0:0:0:0:
388,192,73805,2,0,P|380:132|380:88,1,100,2|2,1:2|1:2,0:0:0:0:
404,48,74331,1,8,0:0:0:0:
308,28,74681,5,4,1:2:0:0:
256,168,75208,1,4,1:2:0:0:
308,308,75734,1,4,1:2:0:0:
308,308,75910,1,2,1:2:0:0:
308,308,76085,1,6,3:2:0:0:
256,192,76173,12,0,77664,3:0:0:0:
