osu file format v12

[General]
AudioFilename: crowdstvsize.mp3
AudioLeadIn: 1500
PreviewTime: 33804
Countdown: 0
SampleSet: Soft
StackLeniency: 0.7
Mode: 0
LetterboxInBreaks: 0
WidescreenStoryboard: 0

[Editor]
Bookmarks: 647,5910,7314,12928,24156,35384,46612,55033,66261,74682,77664
DistanceSpacing: 1.2
BeatDivisor: 4
GridSize: 4
TimelineZoom: 1

[Metadata]
Title:Crowds (TV Size)
TitleUnicode:Crowds (TV Size)
Artist:WHITE ASH
ArtistUnicode:WHITE ASH
Creator:Damnae
Version:Insane
Source:Gatchaman Crowds
Tags:ガッチャマン クラウズ hajime ichinose opening
BeatmapID:355325
BeatmapSetID:142735

[Difficulty]
HPDrainRate:7
CircleSize:4
OverallDifficulty:7
ApproachRate:9
SliderMultiplier:1.4
SliderTickRate:2

[Events]
//Background and Video events
0,0,"bg.png",0,0
//Break Periods
//Storyboard Layer 0 (Background)
//Storyboard Layer 1 (Fail)
//Storyboard Layer 2 (Pass)
//Storyboard Layer 3 (Foreground)
//Storyboard Sound Samples
//Background Colour Transformations
3,100,0,0,0

[TimingPoints]
296,350.877192982456,4,2,2,40,1,0
646,-66.6666666666667,4,2,2,40,0,0
822,-66.6666666666667,4,2,2,20,0,0
1173,-100,4,2,2,40,0,0
2576,-66.6666666666667,4,2,2,40,0,0
2752,-66.6666666666667,4,2,2,20,0,0
3103,-100,4,2,2,40,0,0
3804,-100,4,2,2,20,0,0
4155,-100,4,2,2,40,0,0
4681,-100,4,2,2,20,0,0
5032,-100,4,2,2,40,0,0
5910,-133.333333333333,4,2,2,30,0,0
6085,-133.333333333333,4,2,2,20,0,0
6962,-100,4,2,2,50,0,0
12927,-133.333333333333,4,2,2,50,0,0
16085,-100,4,2,2,50,0,0
16436,-133.333333333333,4,2,2,50,0,0
17664,-100,4,2,2,50,0,0
18015,-133.333333333333,4,2,2,50,0,0
19067,-100,4,2,2,50,0,0
19418,-133.333333333333,4,2,2,50,0,0
19945,-100,4,2,2,50,0,0
20295,-133.333333333333,4,2,2,50,0,0
23103,-66.6666666666667,4,2,2,50,0,0
24155,-133.333333333333,4,2,2,50,0,0
27313,-100,4,2,2,50,0,0
27664,-133.333333333333,4,2,2,50,0,0
28892,-100,4,2,2,50,0,0
29243,-133.333333333333,4,2,2,50,0,0
30295,-100,4,2,2,50,0,0
30646,-133.333333333333,4,2,2,50,0,0
31173,-100,4,2,2,50,0,0
31524,-133.333333333333,4,2,2,50,0,0
34331,-66.6666666666667,4,2,2,50,0,0
35383,-66.6666666666667,4,2,1,50,0,1
35910,-100,4,2,1,50,0,1
38190,-66.6666666666667,4,2,1,50,0,1
38541,-100,4,2,1,50,0,1
39594,-66.6666666666667,4,2,1,50,0,1
39945,-100,4,2,1,50,0,1
41524,-66.6666666666667,4,2,1,50,0,1
42576,-100,4,2,1,50,0,1
44155,-100,4,2,2,50,0,1
44243,-100,4,2,1,50,0,1
45734,-66.6666666666667,4,2,1,50,0,1
46085,-100,4,2,1,40,0,1
46260,-100,4,2,1,50,0,1
46611,-66.6666666666667,4,2,1,50,0,1
46962,-100,4,2,1,50,0,1
49418,-66.6666666666667,4,2,1,50,0,1
49769,-100,4,2,1,50,0,1
50822,-66.6666666666667,4,2,1,50,0,1
51173,-100,4,2,1,50,0,1
52225,-66.6666666666667,4,2,1,50,0,1
52576,-100,4,2,1,50,0,1
53629,-133.333333333333,4,2,2,50,0,0
53980,-100,4,2,2,50,0,0
54331,-66.6666666666667,4,2,2,50,0,0
54681,-133.333333333333,4,2,2,50,0,0
55032,-66.6666666666667,4,2,1,50,0,1
55383,-100,4,2,1,50,0,1
57839,-66.6666666666667,4,2,1,50,0,1
58190,-100,4,2,1,50,0,1
59243,-66.6666666666667,4,2,1,50,0,1
59594,-100,4,2,1,50,0,1
61173,-66.6666666666667,4,2,1,50,0,1
62225,-100,4,2,1,50,0,1
63804,-100,4,2,2,50,0,1
63892,-100,4,2,1,50,0,1
66260,-66.6666666666667,4,2,1,50,0,1
66611,-100,4,2,1,50,0,1
69067,-66.6666666666667,4,2,1,50,0,1
69418,-100,4,2,1,50,0,1
70471,-66.6666666666667,4,2,1,50,0,1
70822,-100,4,2,1,50,0,1
71874,-66.6666666666667,4,2,1,50,0,1
72225,-100,4,2,1,50,0,1
73278,-66.6666666666667,4,2,1,50,0,1
73980,-66.6666666666667,4,2,2,50,0,1
74155,-100,4,2,1,50,0,1
74682,-100,4,2,2,50,0,0
75910,-100,4,2,2,40,0,0
76085,-100,4,2,2,50,0,0
77664,-100,4,2,2,5,0,0

[Colours]
Combo1 : 255,94,55
Combo2 : 173,255,95
Combo3 : 17,254,176
Combo4 : 255,88,100

[HitObjects]
24,151,646,22,0,B|34:245|98:284|98:284|172:284|231:211,1,315.000012016297,0|2,1:2|1:2,0:0:0:0:
231,211,1699,1,0,1:2:0:0:
327,201,1874,1,2,1:2:0:0:
423,189,2050,1,0,1:2:0:0:
423,189,2576,6,0,B|341:140|272:168|272:168|227:227|250:318,1,315.000012016297,2|0,1:2|1:2,0:0:0:0:
251,318,3629,2,0,L|284:110,1,210,2|0,1:2|1:0,0:0:0:0:
256,16,4331,1,2,1:2:0:0:
120,122,4506,6,0,L|154:329,1,210,0|2,1:2|1:2,0:0:0:0:
154,329,5559,1,0,1:0:0:0:
380,287,5734,1,0,1:0:0:0:
297,366,5910,6,0,P|269:262|429:182,1,315.000012016297,6|0,1:2|3:3,0:0:0:0:
427,181,7313,5,0,1:0:0:0:
408,88,7488,1,0,1:0:0:0:
259,213,7664,1,8,2:0:0:0:
427,181,7839,2,2,L|438:263,1,70,0|0,1:0|1:0,0:0:0:0:
408,88,8190,1,0,1:0:0:0:
190,204,8366,2,2,L|260:214,1,70,8|2,2:0|1:0,0:0:0:0:
259,213,8717,5,0,1:0:0:0:
159,297,8892,1,0,1:0:0:0:
95,223,9068,1,8,2:0:0:0:
221,111,9243,2,2,L|303:100,1,70,0|2,1:0|2:0,0:0:0:0:
126,130,9594,1,0,1:0:0:0:
254,278,9770,2,2,L|244:348,1,70,10|2,2:0|1:0,0:0:0:0:
408,86,10120,5,0,1:0:0:0:
126,130,10295,1,0,1:0:0:0:
260,214,10471,1,8,2:0:0:0:
334,150,10646,5,2,1:0:0:0:
190,204,10821,1,0,1:0:0:0:
254,278,10997,1,0,1:0:0:0:
334,150,11173,5,10,2:0:0:0:
126,130,11348,1,2,1:0:0:0:
408,86,11524,1,6,2:0:0:0:
408,86,11874,1,4,1:0:0:0:
408,86,12225,1,2,1:2:0:0:
408,86,12576,1,6,2:0:0:0:
408,86,12927,6,0,L|338:96,1,52.5000020027161,4|0,1:0|2:0,0:0:0:0:
226,156,13278,2,0,L|296:166,1,52.5000020027161,2|8,3:3|2:3,0:0:0:0:
277,163,13629,1,0,2:0:0:0:
161,215,13804,2,0,P|140:167|148:116,1,105.000004005432,2|4,3:0|1:3,0:0:0:0:
147,116,14243,1,0,1:0:0:0:
147,116,14331,1,0,1:0:0:0:
256,281,14506,6,0,L|186:291,1,52.5000020027161,0|2,2:0|3:0,0:0:0:0:
74,351,14857,2,0,L|144:361,1,52.5000020027161,4|0,2:3|3:0,0:0:0:0:
125,358,15208,1,2,1:3:0:0:
438,211,15383,2,0,L|368:221,1,52.5000020027161,0|0,3:0|2:0,0:0:0:0:
256,281,15734,2,0,L|326:291,1,52.5000020027161,2|0,3:3|2:0,0:0:0:0:
307,288,16085,6,0,P|251:291|201:355,1,140,0|2,1:0|3:0,0:0:0:0:
55,176,16611,2,0,L|65:246,1,52.5000020027161,4|0,1:3|2:0,0:0:0:0:
125,358,16962,2,0,L|135:288,2,52.5000020027161,2|0|0,3:0|1:0|0:0,0:0:0:0:
173,233,17488,1,2,3:0:0:0:
125,26,17664,6,0,P|127:82|191:132,1,140,8|0,1:3|1:0,0:0:0:0:
355,163,18190,2,0,L|285:173,1,52.5000020027161,0|0,1:0|2:0,0:0:0:0:
173,233,18541,2,0,L|243:243,1,52.5000020027161,2|0,3:3|2:0,0:0:0:0:
224,240,18892,1,0,1:0:0:0:
157,150,19067,6,0,P|101:188|93:256,1,140,4|2,1:3|2:3,0:0:0:0:
356,163,19594,1,0,2:0:0:0:
224,240,19769,2,0,L|261:245,1,26.2500010013581,0|0,1:3|1:0,0:0:0:0:
372,246,19945,2,0,P|427:207|435:139,1,140,0|2,1:0|2:3,0:0:0:0:
293,208,20471,6,0,P|286:259|306:307,1,105.000004005432,4|0,3:0|1:0,0:0:0:0:
435,139,20997,2,0,L|427:87,1,52.5000020027161,2|0,3:0|2:0,0:0:0:0:
79,74,21348,2,0,P|127:54|179:61,1,105.000004005432,0|2,1:0|0:3,0:0:0:0:
348,111,21874,1,8,3:0:0:0:
139,138,22050,1,0,3:0:0:0:
348,111,22225,2,0,L|356:163,1,52.5000020027161,0|0,1:0|3:0,0:0:0:0:
418,293,22576,5,0,1:0:0:0:
418,293,22664,1,0,1:0:0:0:
418,293,22752,2,0,L|428:223,1,52.5000020027161,4|0,1:3|3:3,0:0:0:0:
304,270,23103,2,0,B|251:303|176:244|148:275,1,157.500006008148,4|0,3:0|0:0,0:0:0:0:
151,272,23453,1,8,3:0:0:0:
348,111,23629,1,8,0:0:0:0:
325,191,23804,2,0,P|216:190|158:106,1,210.000008010865,4|4,1:0|0:0,0:0:0:0:
348,111,24331,5,0,0:0:0:0:
368,32,24506,2,0,L|438:42,1,52.5000020027161,2|8,3:3|2:3,0:0:0:0:
476,104,24857,1,0,2:0:0:0:
379,264,25032,2,0,P|319:285|261:267,1,105.000004005432,2|4,3:0|1:3,0:0:0:0:
280,277,25471,1,0,1:0:0:0:
280,277,25559,1,0,1:0:0:0:
307,95,25734,6,0,L|256:103,1,52.5000020027161,0|2,2:0|3:0,0:0:0:0:
438,33,26085,2,0,L|386:25,1,52.5000020027161,4|0,2:3|3:0,0:0:0:0:
320,198,26436,1,2,1:3:0:0:
171,110,26611,2,0,L|120:118,1,52.5000020027161,0|0,3:0|2:0,0:0:0:0:
269,205,26962,2,0,L|339:195,1,52.5000020027161,2|0,3:3|2:0,0:0:0:0:
320,198,27313,6,0,P|264:195|214:131,1,140,0|2,1:0|3:0,0:0:0:0:
449,156,27839,2,0,L|457:208,1,52.5000020027161,4|0,1:3|2:0,0:0:0:0:
113,66,28190,1,2,1:3:0:0:
113,66,28278,1,0,1:0:0:0:
113,66,28366,2,0,L|123:136,1,52.5000020027161,0|0,1:0|0:0,0:0:0:0:
339,151,28716,1,2,3:0:0:0:
198,348,28892,6,0,P|254:346|304:282,1,140,8|0,1:3|1:0,0:0:0:0:
157,221,29418,2,0,L|227:211,1,52.5000020027161,0|0,1:0|2:0,0:0:0:0:
339,151,29769,2,0,L|269:141,1,52.5000020027161,2|0,3:3|2:0,0:0:0:0:
288,144,30120,1,0,1:0:0:0:
355,234,30295,6,0,P|411:196|419:128,1,140,4|2,1:3|2:3,0:0:0:0:
156,221,30822,1,0,2:0:0:0:
239,229,30997,2,0,L|276:224,1,26.2500010013581,0|0,1:3|1:0,0:0:0:0:
387,223,31173,2,0,P|442:262|450:330,1,140,0|2,1:0|2:3,0:0:0:0:
253,125,31699,6,0,P|246:177|267:225,1,105.000004005432,4|0,3:0|1:0,0:0:0:0:
156,221,32225,2,0,L|104:229,1,52.5000020027161,2|0,3:0|2:0,0:0:0:0:
479,235,32576,2,0,P|485:183|465:135,1,105.000004005432,0|2,1:0|0:3,0:0:0:0:
294,216,33102,1,8,3:3:0:0:
402,195,33278,1,0,3:0:0:0:
208,72,33453,2,0,L|200:124,1,52.5000020027161,0|0,1:0|3:0,0:0:0:0:
82,126,33804,5,0,1:0:0:0:
82,126,33892,1,0,1:0:0:0:
82,126,33980,2,0,L|94:49,1,78.7500030040742,4|0,1:3|3:3,0:0:0:0:
208,72,34331,2,0,B|261:39|336:98|364:67,1,157.500006008148,4|0,3:0|0:0,0:0:0:0:
361,70,34681,1,8,3:0:0:0:
78,211,34857,1,10,1:2:0:0:
186,151,35032,2,0,P|263:137|332:172,1,157.500006008148,4|0,1:0|2:0,0:0:0:0:
332,246,35383,6,0,P|332:172|442:96,1,210.000008010865,4|8,1:2|0:0,0:0:0:0:
186,151,35910,1,2,1:2:0:0:
246,294,36085,2,0,P|226:266|198:247,1,70,0|2,0:0|1:2,0:0:0:0:
329,90,36436,2,0,P|300:109|281:138,1,70,8|2,0:0|0:0,0:0:0:0:
186,151,36787,6,0,L|47:129,1,140,4|8,1:0|0:0,0:0:0:0:
255,220,37313,2,0,L|269:308,1,70,2|0,1:2|0:0,0:0:0:0:
329,90,37664,2,0,L|240:76,1,70,2|8,1:2|0:0,0:0:0:0:
342,276,38015,1,2,0:0:0:0:
255,220,38190,6,0,P|173:236|119:346,1,210.000008010865,4|8,1:2|0:0,0:0:0:0:
49,129,38717,1,2,1:2:0:0:
194,91,38892,2,0,P|175:120|146:140,1,70,0|2,0:0|1:2,0:0:0:0:
2,273,39243,2,0,P|23:245|52:226,1,70,8|2,0:0|2:2,0:0:0:0:
194,91,39594,6,0,P|166:170|235:271,1,210.000008010865,4|8,1:2|0:0,0:0:0:0:
13,223,40121,1,2,1:2:0:0:
53,79,40296,2,0,P|68:110|70:144,1,70,0|2,3:3|1:2,0:0:0:0:
115,336,40647,2,0,P|100:304|98:269,1,70,8|2,0:0|2:2,0:0:0:0:
349,203,40997,6,0,P|363:234|328:340,1,140,4|8,1:0|2:2,0:0:0:0:
275,262,41524,2,0,B|249:247|249:247|171:256,1,105.000004005432,2|0,1:2|0:0,0:0:0:0:
260,168,41874,2,0,B|261:138|261:138|213:74,1,105.000004005432,2|8,1:2|0:0,0:0:0:0:
334,109,42225,2,0,B|361:94|361:94|391:21,2,105.000004005432,2|0|2,0:0|1:0|0:0,0:0:0:0:
121,190,42752,6,0,L|260:168,1,140,8|0,2:2|2:0,0:0:0:0:
353,195,43278,1,2,1:2:0:0:
264,326,43454,1,8,2:0:0:0:
357,292,43629,1,2,1:2:0:0:
121,190,43804,1,4,1:0:0:0:
282,29,43980,6,0,L|265:132,1,105,4|0,2:3|2:0,0:0:0:0:
265,132,44331,2,0,P|234:147|199:151,1,70,2|8,1:2|3:0,0:0:0:0:
353,195,44681,2,0,P|384:180|419:176,2,70,2|8|2,1:2|0:0|0:0,0:0:0:0:
189,233,45208,6,0,P|155:242|93:334,1,140,4|8,1:0|2:2,0:0:0:0:
212,130,45734,2,0,P|267:193|389:182,1,210.000008010865,4|4,1:2|1:0,0:0:0:0:
471,70,46260,5,8,0:0:0:0:
445,75,46347,1,8,0:0:0:0:
419,79,46435,1,8,0:0:0:0:
393,83,46523,1,8,0:0:0:0:
367,88,46611,6,0,L|333:299,1,210.000008010865,4|8,1:0|0:0,0:0:0:0:
228,280,47138,1,2,1:2:0:0:
145,237,47313,2,0,P|166:209|196:190,1,70,0|2,0:0|1:2,0:0:0:0:
484,296,47664,2,0,P|455:277|435:248,1,70,8|2,0:0|0:0,0:0:0:0:
228,280,48015,6,0,L|89:302,1,140,4|8,1:0|0:0,0:0:0:0:
305,211,48541,2,0,L|319:123,1,70,2|0,1:2|0:0,0:0:0:0:
344,341,48892,1,2,1:2:0:0:
276,69,49067,1,8,0:0:0:0:
397,119,49243,1,2,0:0:0:0:
305,211,49418,6,0,P|223:195|169:85,1,210.000008010865,4|8,1:2|0:0,0:0:0:0:
99,302,49945,1,2,1:2:0:0:
244,340,50120,2,0,P|225:311|196:291,1,70,0|2,0:0|1:2,0:0:0:0:
52,158,50471,2,0,P|73:186|102:205,1,70,8|2,0:0|2:2,0:0:0:0:
355,197,50822,6,0,P|264:240|244:340,1,210.000008010865,4|8,1:2|0:0,0:0:0:0:
140,139,51349,1,2,1:2:0:0:
111,285,51524,2,0,P|138:264|155:234,1,70,0|2,3:3|1:2,0:0:0:0:
283,84,51875,2,0,P|255:105|237:135,1,70,8|2,0:0|2:2,0:0:0:0:
448,256,52225,6,0,P|456:155|379:88,1,210.000008010865,4|8,1:2|0:0,0:0:0:0:
356,196,52752,1,0,1:0:0:0:
231,15,52927,1,0,1:0:0:0:
116,91,53103,1,0,1:0:0:0:
147,15,53278,1,8,0:0:0:0:
200,91,53454,1,4,2:0:0:0:
116,91,53629,6,0,L|128:168,1,78.7500030040742,4|0,1:3|3:0,0:0:0:0:
200,91,53980,6,0,L|216:194,1,105,4|0,3:0|3:0,0:0:0:0:
280,91,54331,6,0,L|304:246,1,157.500006008148,8|0,3:3|3:0,0:0:0:0:
356,297,54681,2,0,P|394:288|431:297,1,78.7500030040742,4|0,1:0|3:3,0:0:0:0:
275,371,55032,6,0,P|249:272|311:193,1,210.000008010865,4|8,1:2|0:0,0:0:0:0:
92,239,55559,1,2,1:2:0:0:
132,383,55734,2,0,P|147:352|149:318,1,70,0|2,3:3|1:2,0:0:0:0:
194,126,56085,2,0,P|179:158|177:193,1,70,8|2,0:0|2:2,0:0:0:0:
356,297,56436,6,0,L|378:158,1,140,4|8,1:0|0:0,0:0:0:0:
189,289,56962,2,0,L|259:279,1,70,2|0,1:2|0:0,0:0:0:0:
183,56,57313,2,0,L|194:126,1,70,2|8,1:2|0:0,0:0:0:0:
378,159,57664,1,2,1:2:0:0:
114,206,57839,6,0,P|213:180|292:242,1,210.000008010865,4|8,1:2|0:0,0:0:0:0:
424,291,58366,1,2,1:2:0:0:
378,159,58541,2,0,P|346:144|311:142,1,70,0|2,3:0|1:2,0:0:0:0:
183,57,58892,2,0,P|214:72|248:74,1,70,8|2,2:0|2:2,0:0:0:0:
378,159,59243,6,0,P|275:164|219:248,1,210.000008010865,4|8,1:2|0:0,0:0:0:0:
109,335,59770,1,2,1:2:0:0:
112,195,59945,2,0,P|137:170|170:158,1,70,0|2,3:0|1:2,0:0:0:0:
266,38,60296,1,8,0:0:0:0:
255,58,60382,1,8,0:0:0:0:
244,79,60470,1,8,0:0:0:0:
233,100,60558,1,8,0:0:0:0:
208,74,60646,6,0,P|239:60|345:95,1,140,4|8,1:0|2:2,0:0:0:0:
267,148,61173,2,0,B|252:174|252:174|260:248,1,105.000004005432,2|0,1:2|0:0,0:0:0:0:
83,206,61523,2,0,B|143:162|143:162|173:163,1,105.000004005432,2|8,1:2|0:0,0:0:0:0:
114,89,61874,2,0,B|99:62|99:62|30:33,2,105.000004005432,2|0|2,0:0|1:0|0:0,0:0:0:0:
261,248,62401,6,0,L|400:226,1,140,8|0,2:2|2:0,0:0:0:0:
320,322,62927,1,2,1:2:0:0:
261,248,63103,1,8,0:0:0:0:
479,165,63278,5,2,1:2:0:0:
458,298,63453,1,0,1:0:0:0:
261,248,63629,6,0,L|278:145,1,105,4|0,3:3|2:0,0:0:0:0:
278,145,63980,2,0,P|309:130|344:126,1,70,2|8,1:2|3:0,0:0:0:0:
320,322,64330,2,0,P|289:337|254:341,2,70,2|8|2,1:2|0:0|0:0,0:0:0:0:
256,192,64857,5,8,0:0:0:0:
256,192,64944,1,0,1:0:0:0:
256,192,65032,1,0,1:0:0:0:
256,192,65120,1,8,0:0:0:0:
256,192,65207,5,0,1:0:0:0:
256,192,65295,1,0,1:0:0:0:
256,192,65383,1,8,0:0:0:0:
256,192,65471,1,0,1:0:0:0:
256,192,65558,5,0,1:0:0:0:
256,192,65646,1,8,0:0:0:0:
256,192,65734,1,8,0:0:0:0:
256,192,65821,1,8,0:0:0:0:
256,192,65909,5,4,3:0:0:0:
256,192,65997,1,4,3:0:0:0:
256,192,66085,1,8,2:0:0:0:
256,192,66172,1,4,3:0:0:0:
256,192,66260,6,0,P|312:208|272:112,1,210.000008010865,4|8,0:0|0:0,0:0:0:0:
116,172,66787,1,2,1:2:0:0:
76,267,66962,2,0,P|46:248|26:221,1,70,0|2,0:0|1:2,0:0:0:0:
295,106,67313,2,0,P|323:125|343:155,1,70,8|2,0:0|0:0,0:0:0:0:
256,192,67664,6,0,L|117:170,1,140,4|8,1:0|0:0,0:0:0:0:
365,177,68190,2,0,L|379:265,1,70,2|0,1:2|0:0,0:0:0:0:
436,108,68541,1,2,1:2:0:0:
336,319,68716,1,8,0:0:0:0:
457,269,68892,1,2,0:0:0:0:
365,177,69067,6,0,P|283:193|229:303,1,210.000008010865,4|8,1:2|0:0,0:0:0:0:
56,336,69594,1,2,1:2:0:0:
124,268,69769,2,0,P|136:228|132:184,1,70,0|0,3:3|1:0,0:0:0:0:
84,44,70120,2,0,P|72:84|76:128,1,70,8|2,0:0|2:0,0:0:0:0:
136,200,70471,6,0,P|230:161|258:64,1,210.000008010865,4|8,1:2|0:0,0:0:0:0:
94,371,70997,1,2,1:2:0:0:
231,315,71173,2,0,P|198:304|164:304,1,70,0|0,3:3|1:0,0:0:0:0:
392,316,71524,1,8,0:0:0:0:
393,299,71611,1,8,0:0:0:0:
395,281,71699,1,8,0:0:0:0:
396,264,71787,1,8,0:0:0:0:
398,247,71874,6,0,P|297:239|230:316,1,210.000008010865,4|8,1:2|0:0,0:0:0:0:
270,109,72401,1,0,1:0:0:0:
368,112,72576,1,0,1:0:0:0:
316,195,72752,1,0,1:0:0:0:
182,70,72927,1,8,0:0:0:0:
280,13,73103,5,4,1:2:0:0:
280,13,73190,1,8,2:0:0:0:
280,13,73278,2,0,P|288:114|211:181,1,210.000008010865,0|8,1:2|0:0,0:0:0:0:
60,333,73804,2,0,P|52:232|129:165,1,210.000008010865,2|10,1:2|0:0,0:0:0:0:
382,181,74331,1,8,0:0:0:0:
383,198,74418,1,8,0:0:0:0:
384,215,74506,1,8,0:0:0:0:
386,233,74594,1,8,0:0:0:0:
387,250,74681,5,4,1:2:0:0:
395,254,75208,1,4,1:2:0:0:
403,258,75734,5,4,1:2:0:0:
256,283,75910,1,2,1:2:0:0:
109,258,76085,1,6,3:2:0:0:
256,192,76173,12,0,77664,3:3:0:0:
