osu file format v12

[General]
AudioFilename: crowdstvsize.mp3
AudioLeadIn: 1500
PreviewTime: 33804
Countdown: 0
SampleSet: Soft
StackLeniency: 0.7
Mode: 0
LetterboxInBreaks: 0
WidescreenStoryboard: 0

[Editor]
Bookmarks: 647,5910,7314,12928,24156,35384,46612,55033,66261,74682,77664
DistanceSpacing: 1.35
BeatDivisor: 4
GridSize: 4
TimelineZoom: 1

[Metadata]
Title:Crowds (TV Size)
TitleUnicode:Crowds (TV Size)
Artist:WHITE ASH
ArtistUnicode:WHITE ASH
Creator:Damnae
Version:Hard
Source:Gatchaman Crowds
Tags:ガッチャマン クラウズ hajime ichinose opening
BeatmapID:356113
BeatmapSetID:142735

[Difficulty]
HPDrainRate:6
CircleSize:4
OverallDifficulty:6
ApproachRate:8
SliderMultiplier:1.2
SliderTickRate:2

[Events]
//Background and Video events
0,0,"bg.png",0,0
//Break Periods
//Storyboard Layer 0 (Background)
//Storyboard Layer 1 (Fail)
//Storyboard Layer 2 (Pass)
//Storyboard Layer 3 (Foreground)
//Storyboard Sound Samples
//Background Colour Transformations
3,100,0,0,0

[TimingPoints]
296,350.877192982456,4,2,2,40,1,0
646,-83.3333333333333,4,2,2,40,0,0
822,-83.3333333333333,4,2,2,20,0,0
1173,-100,4,2,2,40,0,0
2576,-83.3333333333333,4,2,2,40,0,0
2752,-83.3333333333333,4,2,2,20,0,0
3103,-100,4,2,2,40,0,0
3804,-100,4,2,2,20,0,0
4155,-100,4,2,2,40,0,0
4681,-100,4,2,2,20,0,0
5032,-100,4,2,2,40,0,0
5910,-133.333333333333,4,2,2,30,0,0
6085,-133.333333333333,4,2,2,20,0,0
6962,-100,4,2,2,50,0,0
12927,-133.333333333333,4,2,2,50,0,0
16085,-100,4,2,2,50,0,0
16436,-133.333333333333,4,2,2,50,0,0
17664,-100,4,2,2,50,0,0
18015,-133.333333333333,4,2,2,50,0,0
19067,-100,4,2,2,50,0,0
19418,-133.333333333333,4,2,2,50,0,0
19945,-100,4,2,2,50,0,0
20295,-133.333333333333,4,2,2,50,0,0
23103,-83.3333333333333,4,2,2,50,0,0
23804,-100,4,2,2,50,0,0
24155,-133.333333333333,4,2,2,50,0,0
27313,-100,4,2,2,50,0,0
27664,-133.333333333333,4,2,2,50,0,0
28892,-100,4,2,2,50,0,0
29243,-133.333333333333,4,2,2,50,0,0
30295,-100,4,2,2,50,0,0
30646,-133.333333333333,4,2,2,50,0,0
31173,-100,4,2,2,50,0,0
31524,-133.333333333333,4,2,2,50,0,0
34331,-83.3333333333333,4,2,2,50,0,0
35383,-83.3333333333333,4,2,1,50,0,1
35910,-100,4,2,1,50,0,1
38190,-83.3333333333333,4,2,1,50,0,1
38541,-100,4,2,1,50,0,1
39594,-83.3333333333333,4,2,1,50,0,1
39945,-100,4,2,1,50,0,1
41524,-83.3333333333333,4,2,1,50,0,1
42576,-100,4,2,1,50,0,1
44155,-100,4,2,2,50,0,1
44331,-100,4,2,1,50,0,1
45734,-83.3333333333333,4,2,1,50,0,1
45910,-83.3333333333333,4,2,2,50,0,1
46085,-100,4,2,1,40,0,1
46260,-100,4,2,1,50,0,1
46611,-83.3333333333333,4,2,1,50,0,1
46962,-100,4,2,1,50,0,1
49418,-83.3333333333333,4,2,1,50,0,1
49769,-100,4,2,1,50,0,1
50822,-83.3333333333333,4,2,1,50,0,1
51173,-100,4,2,1,50,0,1
52225,-83.3333333333333,4,2,1,50,0,1
52576,-100,4,2,1,50,0,1
53629,-133.333333333333,4,2,2,50,0,0
53980,-100,4,2,2,50,0,0
54331,-83.3333333333333,4,2,2,50,0,0
54681,-133.333333333333,4,2,2,50,0,0
55032,-83.3333333333333,4,2,1,50,0,1
55383,-100,4,2,1,50,0,1
57839,-83.3333333333333,4,2,1,50,0,1
58190,-100,4,2,1,50,0,1
59243,-83.3333333333333,4,2,1,50,0,1
59594,-100,4,2,1,50,0,1
61173,-83.3333333333333,4,2,1,50,0,1
62225,-100,4,2,1,50,0,1
63804,-100,4,2,2,50,0,1
63980,-100,4,2,1,50,0,1
66260,-83.3333333333333,4,2,1,50,0,1
66611,-100,4,2,1,50,0,1
69067,-83.3333333333333,4,2,1,50,0,1
69418,-100,4,2,1,50,0,1
70471,-83.3333333333333,4,2,1,50,0,1
70822,-100,4,2,1,50,0,1
71874,-83.3333333333333,4,2,1,50,0,1
72225,-100,4,2,1,50,0,1
73278,-83.3333333333333,4,2,1,50,0,1
73980,-83.3333333333333,4,2,2,50,0,1
74155,-100,4,2,1,50,0,1
74682,-100,4,2,2,50,0,0
75910,-100,4,2,2,40,0,0
76085,-100,4,2,2,50,0,0
77664,-100,4,2,2,5,0,0

[Colours]
Combo1 : 255,94,55
Combo2 : 173,255,95
Combo3 : 17,254,176
Combo4 : 255,88,100

[HitObjects]
104,248,646,22,0,B|111:312|155:338|155:338|205:338|248:288,1,215.999993408203,0|2,1:2|1:2,0:0:0:0:
252,292,1699,2,0,L|315:281,1,60,0|2,1:0|1:2,0:0:0:0:
392,264,2050,1,0,1:2:0:0:
396,268,2576,22,0,B|389:204|345:178|345:178|295:178|252:228,1,215.999993408203,2|0,1:2|1:2,0:0:0:0:
256,232,3629,2,0,L|284:55,1,180,2|0,1:2|1:0,0:0:0:0:
192,96,4331,1,2,1:2:0:0:
140,28,4506,6,0,L|168:204,1,180,0|2,1:2|1:2,0:0:0:0:
176,212,5559,2,0,L|113:201,1,60,0|0,1:0|1:2,0:0:0:0:
249,158,5910,6,0,P|225:246|361:314,1,270.000010299683,6|0,1:2|3:3,0:0:0:0:
368,316,7313,6,0,L|450:305,1,60,0|0,1:0|1:0,0:0:0:0:
496,260,7664,1,8,2:0:0:0:
432,208,7839,2,2,L|373:200,1,60,0|0,1:0|1:0,0:0:0:0:
304,152,8190,1,0,1:0:0:0:
190,204,8366,2,2,L|260:214,1,60,8|2,2:0|1:0,0:0:0:0:
212,288,8717,6,0,L|130:277,1,60,0|0,1:0|1:0,0:0:0:0:
92,220,9068,1,8,2:0:0:0:
128,144,9243,2,2,L|117:62,1,60,0|2,1:0|2:0,0:0:0:0:
180,24,9594,1,0,1:0:0:0:
315,51,9770,2,2,L|256:60,1,60,10|2,2:0|1:0,0:0:0:0:
380,104,10120,6,0,L|439:111,1,60,0|0,1:0|1:0,0:0:0:0:
316,160,10471,1,8,2:0:0:0:
340,240,10646,1,2,1:0:0:0:
368,320,10821,1,0,1:0:0:0:
284,308,10997,1,0,1:0:0:0:
252,228,11173,6,0,L|193:221,1,60,10|2,0:0|1:0,0:0:0:0:
128,276,11524,1,6,2:0:0:0:
128,276,11874,1,4,1:0:0:0:
128,276,12225,1,2,1:2:0:0:
128,276,12576,1,6,2:0:0:0:
128,276,12927,6,0,L|217:267,1,90.0000034332277,4|2,1:0|3:0,0:0:0:0:
284,300,13453,2,0,L|373:291,1,90.0000034332277,8|2,2:3|0:3,0:0:0:0:
480,192,14155,5,4,1:3:0:0:
480,192,14243,1,0,1:0:0:0:
480,192,14331,2,0,L|391:183,1,90.0000034332277,0|2,1:0|3:0,0:0:0:0:
312,216,14857,2,0,L|302:151,1,45.0000017166138,4|0,2:3|3:0,0:0:0:0:
344,108,15208,1,2,1:3:0:0:
233,95,15383,2,0,L|240:140,1,45.0000017166138,0|0,3:0|2:0,0:0:0:0:
153,193,15734,2,0,L|197:199,1,45.0000017166138,2|0,3:3|2:0,0:0:0:0:
261,271,16085,6,0,P|205:274|155:338,1,120,0|2,1:0|3:0,0:0:0:0:
4,332,16611,2,0,L|67:323,1,45.0000017166138,4|0,1:3|2:0,0:0:0:0:
100,272,16962,2,0,L|109:208,2,45.0000017166138,2|0|0,3:0|1:0|0:0,0:0:0:0:
180,204,17488,1,2,3:0:0:0:
256,176,17664,6,0,P|254:120|190:70,1,120,8|0,1:3|1:0,0:0:0:0:
208,72,18190,2,0,L|154:80,1,45.0000017166138,0|0,1:0|2:0,0:0:0:0:
135,197,18541,2,0,L|180:204,1,45.0000017166138,2|0,3:3|2:0,0:0:0:0:
236,252,18892,1,0,1:0:0:0:
124,116,19067,6,0,P|65:158|59:223,1,120,4|2,1:3|2:3,0:0:0:0:
87,295,19594,1,0,3:0:0:0:
167,313,19769,1,0,1:0:0:0:
247,331,19945,2,0,P|306:289|312:224,1,120,0|2,1:0|2:3,0:0:0:0:
292,172,20471,6,0,P|285:223|305:271,1,90.0000034332277,4|0,3:0|1:0,0:0:0:0:
360,300,20997,2,0,L|412:292,1,45.0000017166138,2|0,3:0|2:0,0:0:0:0:
476,316,21348,2,0,P|496:268|489:216,1,90.0000034332277,0|2,1:0|0:3,0:0:0:0:
440,172,21874,2,0,L|448:120,1,45.0000017166138,8|0,3:0|3:0,0:0:0:0:
356,80,22225,2,0,L|364:132,1,45.0000017166138,0|0,1:0|3:0,0:0:0:0:
292,172,22576,5,0,1:0:0:0:
292,172,22664,1,0,1:0:0:0:
292,172,22752,2,0,L|229:181,1,45.0000017166138,4|0,1:3|3:3,0:0:0:0:
192,264,23103,2,0,P|143:283|47:251,1,143.999995605469,4|8,3:0|3:0,0:0:0:0:
28,180,23629,1,8,0:0:0:0:
108,148,23804,6,0,P|119:105|108:20,2,120,4|4|2,1:0|0:0|3:0,0:0:0:0:
204,108,24681,2,0,L|293:99,1,90.0000034332277,8|2,2:3|0:3,0:0:0:0:
332,220,25383,5,4,1:3:0:0:
332,220,25471,1,0,1:0:0:0:
332,220,25559,2,0,L|243:211,1,90.0000034332277,0|2,1:0|3:0,0:0:0:0:
376,156,26085,2,0,L|427:164,1,45.0000017166138,4|0,2:3|3:0,0:0:0:0:
476,220,26436,1,2,1:3:0:0:
476,220,26611,2,0,L|466:279,1,45.0000017166138,0|0,3:0|2:0,0:0:0:0:
415,323,26962,2,0,L|354:314,1,45.0000017166138,2|0,3:3|2:0,0:0:0:0:
284,360,27313,6,0,P|281:304|217:254,1,120,0|2,1:0|3:0,0:0:0:0:
152,224,27839,2,0,L|160:276,1,45.0000017166138,4|0,1:3|2:0,0:0:0:0:
72,268,28190,1,2,1:3:0:0:
72,268,28278,1,0,1:0:0:0:
72,268,28366,2,0,L|62:202,1,45.0000017166138,0|0,1:0|0:0,0:0:0:0:
56,128,28716,1,2,3:0:0:0:
152,92,28892,6,0,P|193:133|251:136,1,120,8|0,1:3|1:0,0:0:0:0:
228,220,29418,2,0,L|290:211,1,45.0000017166138,0|0,1:0|2:0,0:0:0:0:
384,168,29769,2,0,L|321:159,1,45.0000017166138,2|0,3:3|2:0,0:0:0:0:
339,161,30120,1,0,1:0:0:0:
400,248,30295,6,0,P|456:210|464:142,1,120,4|2,1:3|2:3,0:0:0:0:
432,88,30822,1,0,2:0:0:0:
352,78,30997,1,0,1:0:0:0:
272,68,31173,2,0,P|217:107|209:175,1,120,0|2,1:0|2:3,0:0:0:0:
124,236,31699,6,0,P|131:184|110:136,1,90.0000034332277,4|0,3:0|1:0,0:0:0:0:
48,104,32225,1,2,3:3:0:0:
0,316,32576,2,0,P|42:303|87:310,1,90.0000034332277,0|2,1:0|0:3,0:0:0:0:
160,352,33102,1,8,3:3:0:0:
236,340,33278,1,0,3:0:0:0:
316,324,33453,2,0,L|368:332,1,45.0000017166138,0|0,1:0|3:0,0:0:0:0:
418,250,33804,5,0,1:0:0:0:
418,250,33892,1,0,1:0:0:0:
418,250,33980,2,0,L|342:238,1,67.5000025749207,4|0,1:3|3:3,0:0:0:0:
347,235,34331,2,0,P|344:170|378:89,1,143.999995605469,4|8,3:0|3:0,0:0:0:0:
270,27,35032,2,0,P|274:80|261:132,1,107.999996704102,4|0,1:0|2:0,0:0:0:0:
264,136,35383,6,0,P|215:136|165:208,1,143.999995605469,4|8,1:2|0:0,0:0:0:0:
84,192,35910,1,2,1:2:0:0:
104,272,36085,2,0,P|127:290|144:315,1,60,0|2,0:0|1:2,0:0:0:0:
220,280,36436,2,0,P|236:255|260:236,1,60,8|2,0:0|2:2,0:0:0:0:
344,224,36787,6,0,L|483:246,1,120,4|8,1:0|0:0,0:0:0:0:
428,320,37313,2,0,L|440:395,1,60,2|0,1:2|0:0,0:0:0:0:
356,364,37664,2,0,L|279:351,1,60,2|8,1:2|0:0,0:0:0:0:
268,276,38015,1,2,0:0:0:0:
220,364,38190,6,0,P|165:353|129:279,1,143.999995605469,4|8,1:2|0:0,0:0:0:0:
108,196,38717,1,2,1:2:0:0:
226,175,38892,2,0,P|211:201|188:220,1,60,0|2,0:0|1:2,0:0:0:0:
10,302,39243,2,0,P|28:278|52:260,1,60,8|2,0:0|2:2,0:0:0:0:
108,196,39594,6,0,P|160:176|184:98,1,143.999995605469,4|8,1:2|0:0,0:0:0:0:
193,12,40121,1,2,1:2:0:0:
72,11,40296,2,0,P|91:33|117:48,1,60,0|2,0:0|1:2,0:0:0:0:
304,102,40647,2,0,P|283:80|256:66,1,60,8|2,0:0|2:2,0:0:0:0:
193,12,40997,6,0,L|173:134,1,120,4|8,1:0|2:2,0:0:0:0:
228,216,41524,2,0,B|213:241|213:241|222:316,1,71.9999978027344,2|0,1:2|0:0,0:0:0:0:
137,230,41874,2,0,B|107:229|107:229|46:275,1,71.9999978027344,2|8,1:2|0:0,0:0:0:0:
80,158,42225,2,0,B|65:131|65:131|-5:102,2,71.9999978027344,2|0|2,0:0|1:0|0:0,0:0:0:0:
84,160,42752,6,0,L|223:138,1,120,8|0,2:2|2:0,0:0:0:0:
280,129,43278,1,2,1:2:0:0:
357,116,43453,2,0,B|416:125,2,60,8|2|0,0:0|1:2|1:0,0:0:0:0:
312,52,43980,6,0,L|293:170,1,120,4|2,2:3|1:2,0:0:0:0:
220,244,44506,2,0,L|279:253,1,60,8|2,3:0|1:2,0:0:0:0:
324,328,44857,2,0,L|264:337,1,60,8|2,2:0|0:0,0:0:0:0:
135,236,45208,6,0,P|162:184|216:160,1,120,4|8,1:0|2:2,0:0:0:0:
224,156,45734,2,0,P|260:198|342:190,1,143.999995605469,4|4,1:2|1:0,0:0:0:0:
412,140,46260,6,0,B|460:133,3,30,8|8|8|8,0:0|0:0|0:0|0:0,0:0:0:0:
408,144,46611,6,0,L|385:286,1,143.999995605469,4|8,1:0|0:0,0:0:0:0:
308,292,47138,1,2,1:2:0:0:
238,253,47313,2,0,P|261:226|293:213,1,60,0|2,2:0|1:2,0:0:0:0:
362,232,47664,2,0,P|382:261|387:295,1,60,8|2,2:0|2:2,0:0:0:0:
351,356,48015,6,0,L|212:378,1,120,4|8,1:0|0:0,0:0:0:0:
156,384,48541,2,0,L|143:306,1,60,2|0,1:2|0:0,0:0:0:0:
132,248,48892,2,0,L|209:235,1,60,2|8,1:2|0:0,0:0:0:0:
269,229,49243,1,2,0:0:0:0:
256,308,49418,6,0,P|311:297|347:223,1,143.999995605469,4|8,1:2|0:0,0:0:0:0:
368,140,49945,1,2,1:2:0:0:
287,163,50120,2,0,P|264:144|250:119,1,60,0|2,0:0|1:2,0:0:0:0:
424,204,50471,2,0,P|448:222|466:246,1,60,8|2,0:0|2:2,0:0:0:0:
425,313,50822,6,0,P|368:310|321:243,1,143.999995605469,4|8,1:2|0:0,0:0:0:0:
288,164,51349,1,2,1:2:0:0:
370,174,51524,2,0,P|389:151|400:123,1,60,0|2,0:0|1:2,0:0:0:0:
241,236,51875,2,0,P|220:257|206:283,1,60,8|2,0:0|2:2,0:0:0:0:
318,230,52225,6,0,P|283:169|214:160,1,143.999995605469,4|8,1:2|0:0,0:0:0:0:
143,192,52752,1,0,1:0:0:0:
143,192,52927,1,0,1:0:0:0:
64,192,53103,1,0,1:0:0:0:
63,192,53278,1,8,0:0:0:0:
63,192,53629,6,0,L|140:204,1,67.5000025749207,4|0,1:3|3:0,0:0:0:0:
168,199,53980,6,0,L|271:183,1,90,4|0,3:0|3:0,0:0:0:0:
303,179,54331,6,0,L|433:199,1,107.999996704102,8|0,3:3|3:0,0:0:0:0:
437,203,54681,5,4,1:0:0:0:
292,364,55032,6,0,P|243:364|193:292,1,143.999995605469,4|8,1:2|0:0,0:0:0:0:
232,216,55559,1,2,1:2:0:0:
152,192,55734,2,0,P|129:174|112:149,1,60,0|2,0:0|1:2,0:0:0:0:
72,240,56085,2,0,P|95:258|111:283,1,60,8|2,0:0|2:2,0:0:0:0:
176,340,56436,6,0,L|315:318,1,120,4|8,1:0|0:0,0:0:0:0:
348,256,56962,1,2,1:2:0:0:
348,256,57138,2,0,L|357:196,1,60,2|2,0:0|1:2,0:0:0:0:
420,140,57489,2,0,L|480:130,1,60,8|2,0:0|1:2,0:0:0:0:
444,224,57839,6,0,P|433:169|359:133,1,143.999995605469,4|8,1:2|0:0,0:0:0:0:
236,32,58366,1,2,1:2:0:0:
244,108,58541,2,0,P|259:134|282:153,1,60,0|2,0:0|1:2,0:0:0:0:
296,228,58892,2,0,P|278:251|254:269,1,60,8|2,0:0|2:2,0:0:0:0:
106,355,59243,6,0,P|99:299|158:242,1,143.999995605469,4|8,1:2|0:0,0:0:0:0:
244,108,59770,1,2,1:2:0:0:
260,182,59945,2,0,P|253:211|237:236,1,60,0|2,0:0|1:2,0:0:0:0:
247,313,60295,2,0,L|264:344,3,30,8|8|8|8,0:0|0:0|0:0|0:0,0:0:0:0:
256,316,60646,6,0,L|378:296,1,120,4|8,1:0|2:2,0:0:0:0:
312,224,61173,2,0,B|297:199|297:199|306:124,1,71.9999978027344,2|0,1:2|0:0,0:0:0:0:
220,200,61523,2,0,B|190:201|190:201|156:175,1,71.9999978027344,2|8,1:2|0:0,0:0:0:0:
136,268,61874,2,0,B|121:295|121:295|51:324,2,71.9999978027344,2|0|2,0:0|1:0|0:0,0:0:0:0:
144,272,62401,6,0,L|122:133,1,120,8|0,2:2|2:0,0:0:0:0:
176,92,62927,1,2,1:2:0:0:
236,40,63102,2,0,B|295:49,2,60,8|2|0,0:0|1:2|1:0,0:0:0:0:
256,128,63629,6,0,L|374:147,1,120,4|2,2:3|1:2,0:0:0:0:
444,196,64155,2,0,L|453:255,1,60,8|2,3:0|1:2,0:0:0:0:
368,244,64506,2,0,L|377:304,1,60,8|2,2:0|0:0,0:0:0:0:
288,316,64857,6,0,L|284:356,15,30,8|0|0|8|0|0|8|0|0|8|8|8|4|4|8|4,0:0|1:0|1:0|0:0|1:0|1:0|2:0|1:0|1:0|0:0|0:0|0:0|3:0|3:0|0:0|3:0,0:0:0:0:
296,312,66260,6,0,B|244:284|208:300|157:275,1,143.999995605469,4|8,0:0|0:0,0:0:0:0:
116,208,66787,1,2,1:2:0:0:
77,278,66962,2,0,P|50:255|37:223,1,60,0|2,2:0|1:2,0:0:0:0:
58,154,67313,2,0,P|87:134|121:129,1,60,8|2,2:0|2:2,0:0:0:0:
212,208,67664,6,0,P|280:204|327:178,1,120,4|8,1:0|0:0,0:0:0:0:
384,124,68191,1,2,1:2:0:0:
423,54,68366,2,0,P|450:77|463:109,1,60,0|2,2:0|1:2,0:0:0:0:
442,178,68717,2,0,P|413:198|379:203,1,60,8|2,2:0|2:2,0:0:0:0:
300,172,69067,6,0,P|245:182|209:256,1,143.999995605469,4|8,1:2|0:0,0:0:0:0:
56,324,69594,1,2,1:2:0:0:
120,280,69769,2,0,P|132:240|128:196,1,60,0|0,3:3|1:0,0:0:0:0:
96,102,70120,2,0,P|86:130|84:160,1,60,8|2,0:0|2:0,0:0:0:0:
176,108,70471,6,0,P|151:42|85:23,1,143.999995605469,4|8,1:2|0:0,0:0:0:0:
96,102,70997,1,2,1:2:0:0:
168,136,71173,2,0,P|202:136|235:125,1,60,0|0,3:3|1:0,0:0:0:0:
284,76,71524,2,8,L|280:36,3,30,8|8|8|8,0:0|0:0|0:0|0:0,0:0:0:0:
288,80,71874,6,0,P|282:148|334:194,1,143.999995605469,4|8,1:2|0:0,0:0:0:0:
412,176,72401,1,0,1:0:0:0:
428,252,72576,1,0,1:0:0:0:
352,272,72752,1,0,1:0:0:0:
276,296,72927,1,8,0:0:0:0:
228,360,73103,5,4,1:2:0:0:
228,360,73190,1,8,2:0:0:0:
228,360,73278,2,0,P|234:283|175:232,1,143.999995605469,0|8,1:2|0:0,0:0:0:0:
108,196,73804,2,0,P|101:272|160:323,1,143.999995605469,2|10,1:2|0:0,0:0:0:0:
332,332,74331,2,8,L|372:328,3,30,8|8|8|8,0:0|0:0|0:0|0:0,0:0:0:0:
328,328,74681,6,0,P|364:256|304:156,1,180,4|4,1:2|1:2,0:0:0:0:
316,164,75734,5,4,1:2:0:0:
360,96,75910,1,2,1:2:0:0:
428,140,76085,1,6,3:2:0:0:
256,192,76173,12,0,77664,3:3:0:0:
