osu file format v12

[General]
AudioFilename: crowdstvsize.mp3
AudioLeadIn: 1500
PreviewTime: 33804
Countdown: 0
SampleSet: Soft
StackLeniency: 0.7
Mode: 0
LetterboxInBreaks: 0
WidescreenStoryboard: 0

[Editor]
Bookmarks: 647,5910,7314,12928,24156,35384,46612,55033,66261,74682,77664
DistanceSpacing: 1
BeatDivisor: 4
GridSize: 4
TimelineZoom: 1

[Metadata]
Title:Crowds (TV Size)
TitleUnicode:Crowds (TV Size)
Artist:WHITE ASH
ArtistUnicode:WHITE ASH
Creator:Damnae
Version:Easy
Source:Gatchaman Crowds
Tags:ガッチャマン クラウズ hajime ichinose opening
BeatmapID:356546
BeatmapSetID:142735

[Difficulty]
HPDrainRate:2
CircleSize:2
OverallDifficulty:2
ApproachRate:3
SliderMultiplier:0.8
SliderTickRate:2

[Events]
//Background and Video events
0,0,"bg.png",0,0
//Break Periods
//Storyboard Layer 0 (Background)
//Storyboard Layer 1 (Fail)
//Storyboard Layer 2 (Pass)
//Storyboard Layer 3 (Foreground)
//Storyboard Sound Samples
//Background Colour Transformations
3,100,0,0,0

[TimingPoints]
296,350.877192982456,4,2,2,40,1,0
822,-100,4,2,2,20,0,0
1173,-100,4,2,2,40,0,0
2752,-100,4,2,2,20,0,0
3103,-100,4,2,2,40,0,0
3278,-100,4,2,2,20,0,0
3629,-100,4,2,2,40,0,0
5910,-100,4,2,2,30,0,0
6085,-100,4,2,2,20,0,0
6962,-100,4,2,2,50,0,0
35383,-100,4,2,1,50,0,1
38541,-100,4,2,2,50,0,1
38717,-100,4,2,1,50,0,1
38892,-100,4,2,2,50,0,1
39067,-100,4,2,1,50,0,1
39945,-100,4,2,2,50,0,1
40120,-100,4,2,1,50,0,1
40295,-100,4,2,2,50,0,1
40471,-100,4,2,1,50,0,1
44155,-100,4,2,2,50,0,1
44331,-100,4,2,1,50,0,1
44506,-100,4,2,2,50,0,1
44681,-100,4,2,1,50,0,1
45559,-100,4,2,2,50,0,1
45734,-100,4,2,1,50,0,1
45910,-100,4,2,2,50,0,1
46085,-100,4,2,1,50,0,1
49769,-100,4,2,2,50,0,1
49945,-100,4,2,1,50,0,1
50120,-100,4,2,2,50,0,1
50295,-100,4,2,1,50,0,1
51173,-100,4,2,2,50,0,1
51348,-100,4,2,1,50,0,1
51524,-100,4,2,2,50,0,1
51699,-100,4,2,1,50,0,1
53629,-100,4,2,1,50,0,0
55032,-100,4,2,1,50,0,1
58190,-100,4,2,2,50,0,1
58366,-100,4,2,1,50,0,1
58541,-100,4,2,2,50,0,1
58717,-100,4,2,1,50,0,1
59594,-100,4,2,2,50,0,1
59769,-100,4,2,1,50,0,1
59945,-100,4,2,2,50,0,1
60120,-100,4,2,1,50,0,1
63804,-100,4,2,2,50,0,1
63980,-100,4,2,1,50,0,1
64155,-100,4,2,2,50,0,1
64331,-100,4,2,1,50,0,1
65208,-100,4,2,2,50,0,1
65383,-100,4,2,1,50,0,1
65559,-100,4,2,2,50,0,1
65734,-100,4,2,1,50,0,1
69418,-100,4,2,2,50,0,1
69594,-100,4,2,1,50,0,1
69769,-100,4,2,2,50,0,1
69945,-100,4,2,1,50,0,1
70822,-100,4,2,2,50,0,1
70997,-100,4,2,1,50,0,1
71173,-100,4,2,2,50,0,1
71348,-100,4,2,1,50,0,1
74682,-100,4,2,2,50,0,0
75910,-100,4,2,2,40,0,0
76085,-100,4,2,2,50,0,0
77664,-100,4,2,2,5,0,0

[Colours]
Combo1 : 255,94,55
Combo2 : 173,255,95
Combo3 : 17,254,176
Combo4 : 255,88,100

[HitObjects]
236,324,646,6,0,P|292:328|363:345,1,120,0|2,1:0|1:2,0:0:0:0:
439,257,1699,2,0,L|452:170,1,80,0|0,1:0|1:2,0:0:0:0:
365,92,2576,1,2,1:2:0:0:
280,176,3103,6,0,P|224:172|153:155,1,120,0|2,1:0|1:2,0:0:0:0:
77,242,4155,2,0,L|90:328,1,80,0|0,1:0|1:2,0:0:0:0:
209,321,5032,1,2,1:2:0:0:
293,236,5559,2,0,L|379:223,1,80,0|4,1:0|1:2,0:0:0:0:
100,56,7313,6,0,P|168:56|300:84,1,200,0|8,1:0|0:0,0:0:0:0:
416,72,8717,2,0,P|400:140|400:280,1,200,0|8,1:0|0:0,0:0:0:0:
304,344,10120,6,0,P|284:272|204:160,1,200,0|8,1:0|0:0,0:0:0:0:
96,180,11524,2,0,P|88:221|51:336,2,160,0|0|4,1:0|1:0|1:2,0:0:0:0:
164,112,13278,6,0,P|188:112|284:132,1,120,2|0,3:0|1:0,0:0:0:0:
424,108,14331,1,0,1:0:0:0:
476,188,14681,2,0,P|476:212|456:308,1,120,2|0,3:0|1:3,0:0:0:0:
316,332,15734,1,0,1:0:0:0:
236,284,16085,6,0,P|212:284|116:304,1,120,2|0,3:0|1:3,0:0:0:0:
24,196,17138,1,0,1:0:0:0:
104,144,17488,2,0,P|128:144|224:164,1,120,2|0,3:0|1:3,0:0:0:0:
356,108,18541,5,4,0:3:0:0:
392,196,18892,2,0,P|376:253|372:313,1,120,2|0,3:0|1:3,0:0:0:0:
232,332,19945,1,0,1:0:0:0:
164,264,20295,2,0,P|140:264|44:244,1,120,2|0,3:0|1:3,0:0:0:0:
76,104,21348,1,4,1:3:0:0:
172,124,21699,6,0,P|196:124|292:104,1,120,2|0,3:0|1:3,0:0:0:0:
416,32,22752,1,0,1:0:0:0:
412,128,23102,2,0,P|412:152|432:248,1,120,2|0,3:0|1:3,0:0:0:0:
456,288,23804,1,4,1:0:0:0:
376,340,24155,5,4,1:2:0:0:
292,292,24506,2,0,P|234:276|174:272,1,120,2|0,3:0|1:0,0:0:0:0:
32,280,25559,1,0,1:0:0:0:
76,196,25909,2,0,P|76:172|56:76,1,120,2|0,3:0|1:3,0:0:0:0:
192,28,26962,1,0,1:0:0:0:
244,108,27313,6,0,P|244:132|264:228,1,120,2|0,3:0|1:3,0:0:0:0:
400,268,28366,1,0,1:0:0:0:
472,204,28716,2,0,P|472:180|452:84,1,120,2|0,3:0|1:3,0:0:0:0:
316,36,29769,5,4,0:3:0:0:
240,92,30120,2,0,P|224:149|220:209,1,120,2|0,3:0|1:3,0:0:0:0:
316,320,31173,1,0,1:0:0:0:
228,360,31523,2,0,P|204:360|108:340,1,120,2|0,3:0|1:3,0:0:0:0:
16,232,32576,1,4,1:3:0:0:
68,152,32927,6,0,P|68:128|48:32,2,120,2|0|0,3:0|1:0|1:0,0:0:0:0:
160,184,34330,2,0,P|160:208|180:280,1,80,2|0,3:0|1:3,0:0:0:0:
260,300,35032,1,4,1:0:0:0:
340,244,35383,6,0,P|400:228|444:224,1,80,4|8,1:2|2:0,0:0:0:0:
452,88,36260,1,10,2:0:0:0:
316,44,36787,2,0,P|256:60|212:64,1,80,0|8,1:2|2:0,0:0:0:0:
204,200,37664,1,10,2:0:0:0:
80,124,38190,6,0,P|68:200|84:344,1,200,4|10,1:0|0:0,0:0:0:0:
224,320,39594,2,0,P|300:308|444:324,1,200,4|10,1:0|0:0,0:0:0:0:
452,176,40997,6,0,P|436:116|432:72,1,80,4|8,1:2|2:0,0:0:0:0:
296,64,41874,1,10,2:0:0:0:
224,188,42401,2,0,P|240:248|244:292,1,80,0|8,1:2|2:0,0:0:0:0:
380,300,43278,1,10,2:0:0:0:
504,228,43804,6,0,P|515:128|502:29,1,200,4|10,1:0|0:0,0:0:0:0:
364,76,45208,2,0,P|288:88|144:72,1,200,4|10,1:0|0:0,0:0:0:0:
24,80,46611,6,0,P|8:140|4:184,1,80,4|8,1:2|2:0,0:0:0:0:
76,284,47488,1,10,2:0:0:0:
144,156,48015,2,0,P|204:140|248:136,1,80,4|8,1:2|2:0,0:0:0:0:
348,208,48892,1,10,2:0:0:0:
388,348,49418,6,0,P|312:336|168:352,1,200,4|10,1:0|0:0,0:0:0:0:
76,256,50822,2,0,P|88:180|72:36,1,200,4|10,1:0|0:0,0:0:0:0:
216,96,52225,6,0,P|276:80|320:76,1,80,4|8,1:2|2:0,0:0:0:0:
420,148,53102,1,10,2:0:0:0:
340,268,53629,2,0,P|324:328|320:372,1,80,4|8,1:2|2:0,0:0:0:0:
228,360,54331,2,0,P|188:353|150:341,1,80,4|0,1:2|1:0,0:0:0:0:
172,244,55032,6,0,P|112:228|68:224,1,80,4|8,1:2|2:0,0:0:0:0:
60,88,55909,1,10,2:0:0:0:
196,44,56436,2,0,P|256:60|300:64,1,80,0|8,1:2|2:0,0:0:0:0:
308,200,57313,1,10,2:0:0:0:
432,124,57839,6,0,P|444:200|428:344,1,200,4|8,1:0|0:0,0:0:0:0:
288,320,59243,2,0,P|212:308|68:324,1,200,4|10,1:0|0:0,0:0:0:0:
60,176,60646,6,0,P|76:116|80:72,1,80,4|8,1:2|2:0,0:0:0:0:
216,64,61523,1,10,2:0:0:0:
288,188,62050,2,0,P|272:248|268:292,1,80,0|8,1:2|2:0,0:0:0:0:
132,300,62927,1,10,2:0:0:0:
8,228,63453,6,0,P|-3:128|9:29,1,200,4|8,1:0|0:0,0:0:0:0:
148,76,64857,2,0,P|224:88|368:72,1,200,4|10,1:0|0:0,0:0:0:0:
488,80,66260,6,0,P|504:140|508:184,1,80,4|8,1:2|2:0,0:0:0:0:
436,284,67137,1,10,2:0:0:0:
368,156,67664,2,0,P|308:140|264:136,1,80,4|8,1:2|2:0,0:0:0:0:
164,208,68541,1,10,2:0:0:0:
124,348,69067,6,0,P|200:336|344:352,1,200,4|10,1:0|0:0,0:0:0:0:
436,256,70471,2,0,P|424:180|440:36,1,200,4|10,1:0|0:0,0:0:0:0:
296,96,71874,6,0,P|236:80|192:76,1,80,4|8,1:2|2:0,0:0:0:0:
92,148,72751,1,10,2:0:0:0:
212,228,73278,2,0,P|228:288|232:332,1,80,4|8,1:2|2:0,0:0:0:0:
316,352,73980,2,0,P|376:336|420:332,1,80,4|8,1:2|2:0,0:0:0:0:
444,252,74681,5,12,1:2:0:0:
300,228,75208,1,4,1:2:0:0:
156,204,75734,2,0,L|144:152,2,40,4|2|6,1:2|1:2|3:2,0:0:0:0:
256,192,76173,12,0,77664,3:0:0:0:
