osu file format v12

[General]
AudioFilename: ROUND.mp3
AudioLeadIn: 1985
PreviewTime: 41632
Countdown: 0
SampleSet: Normal
StackLeniency: 0.7
Mode: 1
LetterboxInBreaks: 0
WidescreenStoryboard: 0

[Editor]
DistanceSpacing: 1.1
BeatDivisor: 4
GridSize: 8

[Metadata]
Title:ROUND!
TitleUnicode:ROUND!
Artist:WESTARENA by MLREC.
ArtistUnicode:WESTARENA by MLREC.
Creator:Sushi
Version:Oni
Source:Reflec Beat
Tags:S.S.D.
BeatmapID:254419
BeatmapSetID:88125

[Difficulty]
HPDrainRate:6
CircleSize:5
OverallDifficulty:6
ApproachRate:5
SliderMultiplier:1.8
SliderTickRate:1

[Events]
//Background and Video events
0,0,"round.jpg",0,40
//Break Periods
//Storyboard Layer 0 (Background)
//Storyboard Layer 1 (Fail)
//Storyboard Layer 2 (Pass)
//Storyboard Layer 3 (Foreground)
//Storyboard Sound Samples
//Background Colour Transformations
3,100,163,162,255

[TimingPoints]
655,447.761194029851,4,1,0,100,1,0
41849,-80,4,1,0,100,0,1
54386,-80,4,1,0,100,0,0
54834,-100,4,1,0,100,0,0
77669,-80,4,1,0,100,0,1
90207,-80,4,1,0,100,0,0
90655,-100,4,1,0,100,0,0

[HitObjects]
256,192,655,1,0,0:0:0:0:
256,192,878,1,0,0:0:0:0:
256,192,1028,1,0,0:0:0:0:
256,192,1102,1,0,0:0:0:0:
256,192,1326,1,0,0:0:0:0:
256,192,1475,1,0,0:0:0:0:
256,192,1550,1,0,0:0:0:0:
256,192,1774,1,8,0:0:0:0:
256,192,1998,1,8,0:0:0:0:
256,192,2446,1,4,0:0:0:0:
256,192,2669,1,8,0:0:0:0:
256,192,2893,1,0,0:0:0:0:
256,192,3117,1,8,0:0:0:0:
256,192,3341,1,0,0:0:0:0:
256,192,3565,1,8,0:0:0:0:
256,192,3789,1,0,0:0:0:0:
256,192,3938,1,0,0:0:0:0:
256,192,4013,1,8,0:0:0:0:
256,192,4237,1,4,0:0:0:0:
256,192,4460,1,8,0:0:0:0:
256,192,4684,1,0,0:0:0:0:
256,192,4908,1,8,0:0:0:0:
256,192,5132,1,0,0:0:0:0:
256,192,5356,1,8,0:0:0:0:
256,192,5505,1,8,0:0:0:0:
256,192,5580,1,0,0:0:0:0:
256,192,5729,1,0,0:0:0:0:
256,192,5804,1,8,0:0:0:0:
256,192,6028,1,4,0:0:0:0:
256,192,6252,1,8,0:0:0:0:
256,192,6475,1,0,0:0:0:0:
256,192,6699,1,8,0:0:0:0:
256,192,6923,1,0,0:0:0:0:
256,192,7147,1,8,0:0:0:0:
256,192,7371,1,0,0:0:0:0:
256,192,7520,1,0,0:0:0:0:
256,192,7595,1,8,0:0:0:0:
256,192,7819,1,4,0:0:0:0:
256,192,8043,1,8,0:0:0:0:
256,192,8266,1,0,0:0:0:0:
256,192,8490,1,8,0:0:0:0:
256,192,8714,1,0,0:0:0:0:
256,192,8863,1,8,0:0:0:0:
256,192,8938,1,8,0:0:0:0:
256,192,9087,1,0,0:0:0:0:
256,192,9162,1,0,0:0:0:0:
256,192,9386,1,0,0:0:0:0:
256,192,9610,1,4,0:0:0:0:
256,192,9834,1,8,0:0:0:0:
256,192,10057,1,0,0:0:0:0:
256,192,10281,1,8,0:0:0:0:
256,192,10505,1,0,0:0:0:0:
256,192,10729,1,8,0:0:0:0:
256,192,10878,1,8,0:0:0:0:
256,192,10953,1,0,0:0:0:0:
256,192,11177,1,8,0:0:0:0:
256,192,11401,1,0,0:0:0:0:
256,192,11625,1,8,0:0:0:0:
256,192,11849,1,0,0:0:0:0:
256,192,12072,1,8,0:0:0:0:
256,192,12222,1,8,0:0:0:0:
256,192,12296,1,0,0:0:0:0:
256,192,12520,1,8,0:0:0:0:
256,192,12669,1,8,0:0:0:0:
256,192,12744,1,0,0:0:0:0:
256,192,12968,1,8,0:0:0:0:
256,192,13117,1,8,0:0:0:0:
256,192,13192,1,0,0:0:0:0:
256,192,13416,1,8,0:0:0:0:
256,192,13640,1,0,0:0:0:0:
256,192,13863,1,8,0:0:0:0:
256,192,14087,1,0,0:0:0:0:
256,192,14311,1,8,0:0:0:0:
256,192,14535,1,0,0:0:0:0:
256,192,14684,1,0,0:0:0:0:
256,192,14759,1,8,0:0:0:0:
256,192,14983,1,0,0:0:0:0:
256,192,15132,1,8,0:0:0:0:
256,192,15207,1,8,0:0:0:0:
256,192,15356,1,0,0:0:0:0:
256,192,15431,1,8,0:0:0:0:
256,192,15655,1,0,0:0:0:0:
256,192,15878,1,8,0:0:0:0:
256,192,16102,1,0,0:0:0:0:
256,192,16326,1,0,0:0:0:0:
256,192,16550,1,0,0:0:0:0:
256,192,16774,1,4,0:0:0:0:
256,192,16998,1,8,0:0:0:0:
256,192,17222,1,0,0:0:0:0:
256,192,17446,1,8,0:0:0:0:
256,192,17669,1,8,0:0:0:0:
256,192,17893,1,0,0:0:0:0:
256,192,18043,1,8,0:0:0:0:
256,192,18117,1,0,0:0:0:0:
256,192,18266,1,0,0:0:0:0:
256,192,18341,1,8,0:0:0:0:
256,192,18565,1,0,0:0:0:0:
256,192,18789,1,8,0:0:0:0:
256,192,19013,1,0,0:0:0:0:
256,192,19237,1,8,0:0:0:0:
256,192,19460,1,8,0:0:0:0:
256,192,19684,1,0,0:0:0:0:
256,192,19834,1,0,0:0:0:0:
256,192,19908,1,8,0:0:0:0:
256,192,20132,1,8,0:0:0:0:
256,192,20281,1,0,0:0:0:0:
256,192,20356,1,0,0:0:0:0:
256,192,20580,1,8,0:0:0:0:
256,192,20804,1,0,0:0:0:0:
256,192,21028,1,8,0:0:0:0:
256,192,21177,1,0,0:0:0:0:
256,192,21252,1,8,0:0:0:0:
256,192,21401,1,0,0:0:0:0:
256,192,21475,1,0,0:0:0:0:
256,192,21699,1,0,0:0:0:0:
256,192,21849,1,8,0:0:0:0:
256,192,21923,1,8,0:0:0:0:
256,192,22147,1,0,0:0:0:0:
256,192,22371,1,8,0:0:0:0:
256,192,22520,1,0,0:0:0:0:
256,192,22595,1,8,0:0:0:0:
256,192,22819,1,0,0:0:0:0:
256,192,23043,1,4,0:0:0:0:
256,192,23266,1,4,0:0:0:0:
256,192,23490,1,4,0:0:0:0:
256,192,23714,1,4,0:0:0:0:
256,192,23938,1,4,0:0:0:0:
256,192,24162,1,8,0:0:0:0:
256,192,24311,1,8,0:0:0:0:
288,184,24386,1,0,0:0:0:0:
256,192,24610,1,0,0:0:0:0:
256,192,24834,1,0,0:0:0:0:
256,192,25057,1,8,0:0:0:0:
256,192,25207,1,8,0:0:0:0:
256,192,25281,1,0,0:0:0:0:
256,192,25505,1,0,0:0:0:0:
256,192,25729,1,0,0:0:0:0:
256,192,25953,1,8,0:0:0:0:
256,192,26177,1,0,0:0:0:0:
256,192,26401,1,8,0:0:0:0:
256,192,26550,1,0,0:0:0:0:
256,192,26625,1,0,0:0:0:0:
256,192,26849,1,0,0:0:0:0:
256,192,27072,1,8,0:0:0:0:
256,192,27296,1,0,0:0:0:0:
256,192,27520,1,4,0:0:0:0:
256,192,27744,1,0,0:0:0:0:
256,192,27893,1,8,0:0:0:0:
256,192,28117,1,0,0:0:0:0:
256,192,28192,1,8,0:0:0:0:
256,192,28416,1,0,0:0:0:0:
256,192,28640,1,0,0:0:0:0:
256,192,28789,1,8,0:0:0:0:
256,192,29013,1,0,0:0:0:0:
256,192,29087,1,8,0:0:0:0:
256,192,29311,1,0,0:0:0:0:
256,192,29535,1,0,0:0:0:0:
256,192,29684,1,0,0:0:0:0:
256,192,29759,1,0,0:0:0:0:
256,192,29983,1,0,0:0:0:0:
256,192,30207,1,0,0:0:0:0:
256,192,30431,1,0,0:0:0:0:
256,192,30580,1,0,0:0:0:0:
256,192,30655,1,8,0:0:0:0:
256,192,30878,1,0,0:0:0:0:
256,192,31102,1,4,0:0:0:0:
256,192,31326,1,8,0:0:0:0:
256,192,31475,1,8,0:0:0:0:
256,192,31774,1,0,0:0:0:0:
256,192,31998,1,0,0:0:0:0:
256,192,32222,1,8,0:0:0:0:
256,192,32371,1,8,0:0:0:0:
256,192,32669,1,0,0:0:0:0:
256,192,32893,1,0,0:0:0:0:
256,192,33117,1,8,0:0:0:0:
256,192,33266,1,8,0:0:0:0:
256,192,33490,1,0,0:0:0:0:
256,192,33565,1,8,0:0:0:0:
256,192,33789,1,0,0:0:0:0:
256,192,34013,1,0,0:0:0:0:
256,192,34237,1,8,0:0:0:0:
256,192,34460,1,8,0:0:0:0:
256,192,34684,1,4,0:0:0:0:
256,192,34908,1,8,0:0:0:0:
256,192,35132,1,0,0:0:0:0:
256,192,35356,1,8,0:0:0:0:
256,192,35580,1,0,0:0:0:0:
256,192,35804,1,8,0:0:0:0:
256,192,36028,1,0,0:0:0:0:
216,192,36177,1,0,0:0:0:0:
256,192,36252,1,8,0:0:0:0:
256,192,36475,1,0,0:0:0:0:
256,192,36699,1,8,0:0:0:0:
256,192,36849,1,8,0:0:0:0:
256,192,36923,1,0,0:0:0:0:
256,192,37147,1,8,0:0:0:0:
216,192,37371,1,0,0:0:0:0:
216,192,37595,1,8,0:0:0:0:
216,192,37819,1,8,0:0:0:0:
216,192,38043,1,8,0:0:0:0:
184,192,38266,1,0,0:0:0:0:
184,192,38490,1,0,0:0:0:0:
184,192,38640,1,0,0:0:0:0:
184,192,38714,1,8,0:0:0:0:
184,192,39162,1,0,0:0:0:0:
184,192,39386,1,0,0:0:0:0:
184,192,39535,1,0,0:0:0:0:
184,192,39610,1,8,0:0:0:0:
184,192,40057,1,0,0:0:0:0:
184,192,40281,1,0,0:0:0:0:
184,192,40431,1,0,0:0:0:0:
184,192,40505,1,0,0:0:0:0:
184,192,40655,1,8,0:0:0:0:
184,192,40729,1,8,0:0:0:0:
184,192,40953,1,0,0:0:0:0:
184,192,41326,1,0,0:0:0:0:
184,192,41401,1,0,0:0:0:0:
184,192,41849,1,4,0:0:0:0:
184,192,42072,1,8,0:0:0:0:
184,192,42296,1,4,0:0:0:0:
184,192,42520,1,8,0:0:0:0:
184,192,42744,1,4,0:0:0:0:
184,192,42968,1,8,0:0:0:0:
184,192,43192,1,4,0:0:0:0:
184,192,43341,1,0,0:0:0:0:
184,192,43416,1,8,0:0:0:0:
184,192,43640,1,0,0:0:0:0:
184,192,43863,1,8,0:0:0:0:
184,192,44087,1,8,0:0:0:0:
184,192,44311,1,0,0:0:0:0:
184,192,44535,1,0,0:0:0:0:
184,192,44684,1,0,0:0:0:0:
184,192,44759,1,8,0:0:0:0:
184,192,44908,1,0,0:0:0:0:
184,192,44983,1,0,0:0:0:0:
184,192,45132,1,0,0:0:0:0:
184,192,45207,1,8,0:0:0:0:
184,192,45431,1,4,0:0:0:0:
184,192,45655,1,8,0:0:0:0:
184,192,45878,1,4,0:0:0:0:
184,192,46102,1,8,0:0:0:0:
184,192,46326,1,4,0:0:0:0:
184,192,46550,1,8,0:0:0:0:
184,192,46774,1,4,0:0:0:0:
184,192,46923,1,0,0:0:0:0:
184,192,46998,1,8,0:0:0:0:
184,192,47222,1,0,0:0:0:0:
184,192,47446,1,8,0:0:0:0:
184,192,47669,1,0,0:0:0:0:
184,192,47893,1,8,0:0:0:0:
184,192,48117,1,0,0:0:0:0:
184,192,48341,1,12,0:0:0:0:
184,192,48490,1,12,0:0:0:0:
184,192,48714,1,0,0:0:0:0:
184,192,48789,1,8,0:0:0:0:
184,192,49013,1,4,0:0:0:0:
184,192,49237,1,8,0:0:0:0:
184,192,49460,1,0,0:0:0:0:
184,192,49684,1,8,0:0:0:0:
184,192,49796,1,0,0:0:0:0:
184,192,50057,1,0,0:0:0:0:
184,192,50132,1,8,0:0:0:0:
184,192,50356,1,0,0:0:0:0:
184,192,50580,1,8,0:0:0:0:
184,192,50804,1,4,0:0:0:0:
184,192,51252,1,4,0:0:0:0:
184,192,51587,1,4,0:0:0:0:
184,192,52072,1,8,0:0:0:0:
184,192,52595,1,0,0:0:0:0:
184,192,52819,1,8,0:0:0:0:
184,192,52968,1,8,0:0:0:0:
184,192,53043,1,0,0:0:0:0:
184,192,53266,1,0,0:0:0:0:
184,192,53490,1,0,0:0:0:0:
184,192,53714,1,8,0:0:0:0:
184,192,53863,1,8,0:0:0:0:
184,192,53938,1,0,0:0:0:0:
184,192,54162,1,8,0:0:0:0:
184,192,54386,1,4,0:0:0:0:
184,192,55207,1,0,0:0:0:0:
184,192,55281,1,0,0:0:0:0:
184,192,55505,1,0,0:0:0:0:
184,192,55729,1,0,0:0:0:0:
184,192,55953,1,0,0:0:0:0:
184,192,56177,1,4,0:0:0:0:
184,192,56401,1,8,0:0:0:0:
184,192,56625,1,0,0:0:0:0:
184,192,56849,1,8,0:0:0:0:
184,192,56998,1,8,0:0:0:0:
184,192,57072,1,0,0:0:0:0:
184,192,57296,1,8,0:0:0:0:
184,192,57520,1,0,0:0:0:0:
184,192,57744,1,8,0:0:0:0:
184,192,57968,1,0,0:0:0:0:
176,184,58192,1,12,0:0:0:0:
176,184,58640,1,12,0:0:0:0:
176,184,59087,1,12,0:0:0:0:
176,184,59535,1,12,0:0:0:0:
176,184,59759,1,0,0:0:0:0:
176,184,59983,1,8,0:0:0:0:
176,184,60207,1,0,0:0:0:0:
176,184,60356,1,0,0:0:0:0:
176,184,60431,1,8,0:0:0:0:
176,184,60580,1,0,0:0:0:0:
176,184,60655,1,0,0:0:0:0:
176,184,60878,1,8,0:0:0:0:
176,184,61102,1,0,0:0:0:0:
176,184,61326,1,8,0:0:0:0:
184,184,61550,1,0,0:0:0:0:
184,184,61774,1,12,0:0:0:0:
184,184,62222,1,8,0:0:0:0:
184,184,62371,1,8,0:0:0:0:
184,184,62446,1,8,0:0:0:0:
184,184,62669,1,4,0:0:0:0:
184,184,62893,1,4,0:0:0:0:
184,184,63117,1,4,0:0:0:0:
184,184,63341,1,4,0:0:0:0:
184,184,63565,1,8,0:0:0:0:
184,184,63789,1,8,0:0:0:0:
184,184,64013,1,8,0:0:0:0:
184,184,64237,1,0,0:0:0:0:
184,184,64460,1,8,0:0:0:0:
184,184,64610,1,8,0:0:0:0:
184,184,64684,1,8,0:0:0:0:
184,184,64908,1,8,0:0:0:0:
184,184,65132,1,0,0:0:0:0:
184,184,65356,1,12,0:0:0:0:
184,184,65580,1,0,0:0:0:0:
184,184,65804,1,12,0:0:0:0:
184,184,66028,1,0,0:0:0:0:
184,184,66252,1,12,0:0:0:0:
184,184,66475,1,0,0:0:0:0:
184,184,66699,1,12,0:0:0:0:
184,184,66923,1,4,0:0:0:0:
184,184,67147,1,8,0:0:0:0:
184,184,67296,1,0,0:0:0:0:
184,184,67371,1,8,0:0:0:0:
184,184,67520,1,0,0:0:0:0:
184,184,67595,1,8,0:0:0:0:
184,184,67819,1,4,0:0:0:0:
184,184,68043,1,8,0:0:0:0:
184,184,68266,1,8,0:0:0:0:
184,184,68490,1,0,0:0:0:0:
184,184,68714,1,0,0:0:0:0:
200,176,68938,1,12,0:0:0:0:
184,184,69162,1,0,0:0:0:0:
200,176,69386,1,12,0:0:0:0:
184,184,69610,1,0,0:0:0:0:
200,176,69834,1,12,0:0:0:0:
200,176,70057,1,12,0:0:0:0:
200,176,70281,1,4,0:0:0:0:
200,176,70505,1,4,0:0:0:0:
184,184,70729,1,0,0:0:0:0:
200,176,70878,1,0,0:0:0:0:
200,176,70953,1,8,0:0:0:0:
184,184,71177,1,8,0:0:0:0:
200,176,71401,1,0,0:0:0:0:
200,176,71625,1,0,0:0:0:0:
200,176,71774,1,0,0:0:0:0:
200,176,71849,1,8,0:0:0:0:
200,176,72072,1,8,0:0:0:0:
184,184,72296,1,0,0:0:0:0:
200,176,72520,1,8,0:0:0:0:
184,184,72744,1,0,0:0:0:0:
200,176,72968,1,0,0:0:0:0:
200,176,73192,1,8,0:0:0:0:
200,176,73341,1,0,0:0:0:0:
200,176,73416,1,8,0:0:0:0:
200,176,73565,1,0,0:0:0:0:
200,176,73640,1,8,0:0:0:0:
184,184,73863,1,8,0:0:0:0:
200,176,74087,1,0,0:0:0:0:
184,184,74311,1,12,0:0:0:0:
200,176,74460,1,12,0:0:0:0:
200,176,74684,1,0,0:0:0:0:
200,176,74759,1,8,0:0:0:0:
200,176,74983,1,0,0:0:0:0:
200,176,75207,1,12,0:0:0:0:
184,184,75356,1,12,0:0:0:0:
200,176,75580,1,0,0:0:0:0:
200,176,75655,1,8,0:0:0:0:
256,192,75878,2,4,P|112:92|48:224,1,360
184,192,77669,5,4,0:0:0:0:
184,192,77892,1,8,0:0:0:0:
184,192,78116,1,4,0:0:0:0:
184,192,78340,1,8,0:0:0:0:
184,192,78564,1,4,0:0:0:0:
184,192,78788,1,8,0:0:0:0:
184,192,79012,1,4,0:0:0:0:
184,192,79161,1,0,0:0:0:0:
184,192,79236,1,8,0:0:0:0:
184,192,79460,1,0,0:0:0:0:
184,192,79683,1,8,0:0:0:0:
184,192,79907,1,0,0:0:0:0:
184,192,80131,1,0,0:0:0:0:
184,192,80355,1,0,0:0:0:0:
184,192,80504,1,0,0:0:0:0:
184,192,80579,1,8,0:0:0:0:
184,192,80728,1,0,0:0:0:0:
184,192,80803,1,0,0:0:0:0:
184,192,80952,1,0,0:0:0:0:
184,192,81027,1,8,0:0:0:0:
184,192,81251,1,4,0:0:0:0:
184,192,81475,1,8,0:0:0:0:
184,192,81698,1,4,0:0:0:0:
184,192,81922,1,8,0:0:0:0:
184,192,82146,1,4,0:0:0:0:
184,192,82370,1,8,0:0:0:0:
184,192,82594,1,4,0:0:0:0:
184,192,82743,1,0,0:0:0:0:
184,192,82818,1,8,0:0:0:0:
184,192,83042,1,0,0:0:0:0:
184,192,83266,1,8,0:0:0:0:
184,192,83489,1,0,0:0:0:0:
184,192,83713,1,8,0:0:0:0:
184,192,83937,1,0,0:0:0:0:
184,192,84161,1,12,0:0:0:0:
184,192,84310,1,12,0:0:0:0:
184,192,84534,1,0,0:0:0:0:
184,192,84609,1,8,0:0:0:0:
184,192,84833,1,4,0:0:0:0:
184,192,85057,1,8,0:0:0:0:
184,192,85280,1,0,0:0:0:0:
184,192,85504,1,8,0:0:0:0:
184,192,85617,1,0,0:0:0:0:
184,192,85877,1,0,0:0:0:0:
184,192,85952,1,8,0:0:0:0:
184,192,86176,1,0,0:0:0:0:
184,192,86400,1,8,0:0:0:0:
184,192,86624,1,4,0:0:0:0:
184,192,87072,1,4,0:0:0:0:
184,192,87407,1,4,0:0:0:0:
184,192,87892,1,8,0:0:0:0:
184,192,88415,1,0,0:0:0:0:
184,192,88639,1,8,0:0:0:0:
184,192,88788,1,8,0:0:0:0:
184,192,88863,1,0,0:0:0:0:
184,192,89086,1,0,0:0:0:0:
184,192,89310,1,0,0:0:0:0:
184,192,89534,1,8,0:0:0:0:
184,192,89683,1,8,0:0:0:0:
184,192,89758,1,0,0:0:0:0:
184,192,89982,1,8,0:0:0:0:
184,192,90206,1,4,0:0:0:0:
184,192,91027,1,0,0:0:0:0:
184,192,91101,1,0,0:0:0:0:
184,192,91325,1,0,0:0:0:0:
184,192,91549,1,0,0:0:0:0:
184,192,91773,1,0,0:0:0:0:
184,192,91997,1,4,0:0:0:0:
256,192,92222,1,8,0:0:0:0:
256,192,92446,1,0,0:0:0:0:
256,192,92670,1,8,0:0:0:0:
256,192,92894,1,0,0:0:0:0:
256,192,93118,1,8,0:0:0:0:
256,192,93342,1,0,0:0:0:0:
256,192,93491,1,0,0:0:0:0:
256,192,93566,1,8,0:0:0:0:
256,192,93790,1,0,0:0:0:0:
256,192,94013,1,12,0:0:0:0:
256,192,94461,1,12,0:0:0:0:
256,192,94909,1,12,0:0:0:0:
256,192,95058,1,8,0:0:0:0:
256,192,95133,1,0,0:0:0:0:
256,192,95357,1,12,0:0:0:0:
256,192,95581,1,0,0:0:0:0:
256,192,95805,1,8,0:0:0:0:
256,192,96028,1,0,0:0:0:0:
256,192,96252,1,8,0:0:0:0:
256,192,96476,1,0,0:0:0:0:
256,192,96700,1,8,0:0:0:0:
256,192,96924,1,0,0:0:0:0:
256,192,97073,1,0,0:0:0:0:
256,192,97148,1,8,0:0:0:0:
256,192,97372,1,0,0:0:0:0:
256,192,97596,1,12,0:0:0:0:
256,192,97819,1,0,0:0:0:0:
256,192,98043,1,12,0:0:0:0:
256,192,98267,1,0,0:0:0:0:
256,192,98416,1,8,0:0:0:0:
256,192,98491,1,8,0:0:0:0:
256,192,98640,1,0,0:0:0:0:
256,192,98715,1,0,0:0:0:0:
256,192,98939,1,0,0:0:0:0:
256,192,99087,1,0,0:0:0:0:
256,192,99162,1,0,0:0:0:0:
256,192,99386,1,8,0:0:0:0:
256,192,99535,1,8,0:0:0:0:
256,192,99759,1,0,0:0:0:0:
256,192,99834,1,8,0:0:0:0:
256,192,99983,1,0,0:0:0:0:
256,192,100057,1,0,0:0:0:0:
256,192,100281,1,0,0:0:0:0:
256,192,100431,1,8,0:0:0:0:
256,192,100505,1,0,0:0:0:0:
256,192,100655,1,0,0:0:0:0:
256,192,100729,1,0,0:0:0:0:
256,192,100878,1,0,0:0:0:0:
256,192,100953,1,0,0:0:0:0:
256,192,101177,1,8,0:0:0:0:
256,192,101326,1,8,0:0:0:0:
256,192,101401,1,0,0:0:0:0:
256,192,101550,1,0,0:0:0:0:
256,192,101625,1,0,0:0:0:0:
256,192,101849,1,0,0:0:0:0:
256,192,102296,1,12,0:0:0:0:
