osu file format v12

[General]
AudioFilename: ROUND.mp3
AudioLeadIn: 0
PreviewTime: 41632
Countdown: 0
SampleSet: Soft
StackLeniency: 0.7
Mode: 0
LetterboxInBreaks: 1
WidescreenStoryboard: 0

[Editor]
DistanceSpacing: 0.8
BeatDivisor: 6
GridSize: 4

[Metadata]
Title:ROUND!
TitleUnicode:ROUND!
Artist:WESTARENA by MLREC.
ArtistUnicode:WESTARENA by MLREC.
Creator:Sushi
Version:Normal
Source:Reflec Beat
Tags:S.S.D.
BeatmapID:255760
BeatmapSetID:88125

[Difficulty]
HPDrainRate:5
CircleSize:3
OverallDifficulty:4
ApproachRate:5
SliderMultiplier:1.6
SliderTickRate:2

[Events]
//Background and Video events
0,0,"round.jpg",0,0
//Break Periods
//Storyboard Layer 0 (Background)
//Storyboard Layer 1 (Fail)
//Storyboard Layer 2 (Pass)
//Storyboard Layer 3 (Foreground)
//Storyboard Sound Samples
//Background Colour Transformations
3,100,163,162,255

[TimingPoints]
655,447.761194029851,4,2,1,100,1,0
41849,-100,4,2,1,100,0,1
51475,-133.333333333333,4,2,1,100,0,1
52147,-100,4,2,1,100,0,1
54386,-100,4,2,1,100,0,0
77669,-100,4,2,1,100,0,1
87296,-133.333333333333,4,2,1,100,0,1
87968,-100,4,2,1,100,0,1
90207,-100,4,2,1,100,0,0
102296,-100,4,2,1,100,0,1
102371,-100,4,2,1,100,0,0

[HitObjects]
256,72,1998,1,0,0:0:0:0:
344,164,2446,2,0,P|396:176|444:92,2,160,4|2|2,0:0|0:0|0:0,0:0:0:0:
284,144,3565,1,8,0:0:0:0:
160,112,4013,1,10,0:0:0:0:
124,164,4237,6,0,P|116:264|244:304,1,240,4|8,0:0|0:0,0:0:0:0:
292,288,5132,1,2,0:0:0:0:
352,312,5356,1,8,0:0:0:0:
444,224,5804,1,10,0:0:0:0:
476,168,6028,6,0,P|496:104|432:28,2,160,4|2|2,0:0|0:0|0:0,0:0:0:0:
416,144,7147,1,8,0:0:0:0:
292,116,7595,1,10,0:0:0:0:
232,96,7819,6,0,P|156:80|112:216,1,240,4|8,0:0|0:0,0:0:0:0:
136,264,8714,1,2,0:0:0:0:
184,308,8938,1,8,0:0:0:0:
244,328,9162,1,4,0:3:0:0:
256,200,9610,5,4,0:0:0:0:
340,104,10057,1,0,0:0:0:0:
392,220,10505,2,0,P|432:288|424:352,2,120,2|0|10,0:0|0:0|0:0,0:0:0:0:
336,184,11401,5,0,0:0:0:0:
280,156,11625,1,8,0:0:0:0:
216,152,11849,1,2,0:0:0:0:
116,228,12296,2,0,P|48:300|-16:308,2,160,2|0|0,0:0|0:0|0:0,0:0:0:0:
80,176,13416,5,10,0:0:0:0:
52,52,13863,1,10,0:0:0:0:
176,84,14311,1,8,0:0:0:0:
192,144,14535,1,2,0:0:0:0:
208,208,14759,1,10,0:0:0:0:
320,148,15207,5,10,0:0:0:0:
376,116,15431,1,8,0:0:0:0:
428,152,15655,1,10,0:0:0:0:
484,116,15878,1,8,0:0:0:0:
428,4,16326,1,8,0:0:0:0:
304,36,16774,5,4,0:0:0:0:
240,48,16998,1,8,0:0:0:0:
204,100,17222,1,0,0:0:0:0:
120,196,17669,2,0,P|84:148|96:72,2,120,2|0|8,0:0|0:0|0:0,0:0:0:0:
180,216,18565,6,0,P|224:240|124:332,1,240,2|8,0:0|0:0,0:0:0:0:
80,320,19460,1,2,0:0:0:0:
44,268,19684,1,8,0:0:0:0:
32,204,19908,2,0,P|31:191|120:144,2,120,0|2|10,0:0|0:0|0:0,0:0:0:0:
160,204,21028,5,10,0:0:0:0:
288,204,21475,1,10,0:0:0:0:
352,204,21699,1,0,0:0:0:0:
416,204,21923,1,10,0:0:0:0:
452,80,22371,6,0,P|492:80|528:60,2,80,8|8|0,0:0|0:0|0:0,0:0:0:0:
392,60,23043,1,6,0:3:0:0:
332,80,23266,1,4,0:3:0:0:
272,60,23490,1,6,0:3:0:0:
212,80,23714,1,6,0:3:0:0:
152,60,23938,6,0,P|100:52|16:68,2,120,12|2|8,0:3|0:0|0:0,0:0:0:0:
136,120,24834,2,0,P|83:121|3:151,2,120,2|2|8,0:0|0:0|0:0,0:0:0:0:
132,184,25729,2,0,P|80:194|6:238,2,120,2|2|8,0:0|0:0|0:0,0:0:0:0:
196,184,26625,1,0,0:0:0:0:
324,184,27072,1,2,0:0:0:0:
340,56,27520,6,0,P|392:100|416:164,1,120,4|2,0:0|0:0,0:0:0:0:
324,184,28192,1,8,0:0:0:0:
260,200,28416,2,0,P|208:156|184:92,1,120,2|2,0:0|0:0,0:0:0:0:
276,72,29088,1,8,0:0:0:0:
340,56,29311,6,0,P|376:52|424:20,2,80,4|2|4,0:3|0:0|0:3,0:0:0:0:
324,120,29983,1,6,0:3:0:0:
312,184,30207,1,6,0:3:0:0:
184,184,30655,1,4,0:3:0:0:
232,304,31102,6,0,P|288:340|376:352,2,120,4|2|8,0:0|0:0|0:0,0:0:0:0:
276,256,31998,2,0,P|337:281|426:278,2,120,2|2|8,0:0|0:0|0:0,0:0:0:0:
308,200,32893,2,0,P|372:214|459:195,2,120,2|2|8,0:0|0:0|0:0,0:0:0:0:
256,160,33789,1,2,0:0:0:0:
208,116,34013,1,8,0:0:0:0:
164,72,34237,2,0,P|124:44|64:120,1,160,8|4,0:0|0:0,0:0:0:0:
24,236,35132,5,0,0:0:0:0:
16,300,35356,2,0,P|12:336|8:384,2,80,8|2|8,0:0|0:0|0:0,0:0:0:0:
80,300,36028,1,0,0:0:0:0:
144,300,36252,6,0,P|184:300|232:192,2,160,10|10|8,0:0|0:0|0:0,0:0:0:0:
116,176,37595,1,8,0:0:0:0:
140,116,37819,1,2,0:0:0:0:
192,80,38043,1,10,0:0:0:0:
256,192,38266,12,2,40057,0:0:0:0:
256,320,40953,1,4,0:0:0:0:
256,192,41401,1,4,0:3:0:0:
136,148,41849,6,0,P|64:124|36:196,1,160,4|2,0:0|0:0,0:0:0:0:
160,216,42744,2,0,P|129:279|57:255,1,160,2|2,0:0|0:0,0:0:0:0:
60,128,43640,5,2,0:0:0:0:
92,72,43863,1,8,0:0:0:0:
148,40,44087,1,2,0:0:0:0:
212,28,44311,2,0,P|288:28|356:76,1,160,8|2,0:0|0:0,0:0:0:0:
268,168,45207,1,8,0:0:0:0:
328,188,45431,6,0,P|400:212|428:140,1,160,2|2,0:0|0:0,0:0:0:0:
304,120,46326,2,0,P|335:57|407:81,1,160,2|2,0:0|0:0,0:0:0:0:
476,192,47222,5,2,0:0:0:0:
472,256,47446,1,8,0:0:0:0:
424,300,47669,1,2,0:0:0:0:
360,296,47893,1,8,0:0:0:0:
256,224,48341,2,2,L|256:160,1,53.3333333333333
164,52,49013,5,4,0:0:0:0:
100,68,49237,1,8,0:0:0:0:
44,100,49460,2,0,P|32:192|64:212,2,120,0|2|8,0:0|0:0|0:0,0:0:0:0:
128,192,50580,5,8,0:0:0:0:
128,192,50804,1,4,0:0:0:0:
256,192,51252,1,2,0:0:0:0:
304,168,51587,2,0,P|352:192|304:216,1,130.000004959107,4|0,0:0|0:0,0:0:0:0:
256,192,52595,12,4,54386,0:0:0:0:
68,332,55281,5,4,0:3:0:0:
132,332,55505,1,4,0:3:0:0:
196,332,55729,1,4,0:3:0:0:
260,332,55953,1,4,0:3:0:0:
324,332,56177,6,0,P|344:332|348:228,2,160,12|2|2,0:3|0:0|0:0,0:0:0:0:
284,280,57296,1,8,0:0:0:0:
236,240,57520,2,0,P|204:224|152:224,2,80,0|8|0,0:0|0:0|0:0,0:0:0:0:
228,304,58192,5,10,0:0:0:0:
100,292,58640,1,10,0:0:0:0:
28,188,59087,1,10,0:0:0:0:
52,64,59535,1,10,0:0:0:0:
108,28,59759,6,0,P|192:8|276:32,2,160,4|2|2,0:0|0:0|0:0,0:0:0:0:
112,92,60878,1,8,0:0:0:0:
120,156,61102,2,0,P|124:196|144:248,2,80,0|8|2,0:0|0:0|0:0,0:0:0:0:
168,116,61774,2,0,P|192:88|272:198,1,240,2|8,0:0|0:0,0:0:0:0:
248,256,62669,5,4,0:3:0:0:
312,256,62893,1,4,0:3:0:0:
376,256,63117,1,4,0:3:0:0:
440,256,63341,6,0,P|496:248|520:224,2,80,12|8|0,0:3|0:0|0:0,0:0:0:0:
412,196,64013,2,0,P|392:136|296:96,1,160,10|8,0:0|0:0,0:0:0:0:
244,92,64684,2,0,P|176:104|164:136,2,80,2|8|2,0:0|0:0|0:0,0:0:0:0:
276,148,65356,5,10,0:0:0:0:
232,268,65804,1,10,0:0:0:0:
108,296,66252,1,10,0:0:0:0:
4,220,66699,1,10,0:0:0:0:
4,156,66923,6,0,P|24:96|60:80,2,80,4|8|2,0:0|0:0|0:0,0:0:0:0:
60,188,67595,1,8,0:0:0:0:
116,216,67819,2,0,P|168:244|200:100,1,240,4|8,0:0|0:0,0:0:0:0:
236,56,68714,5,0,0:0:0:0:
300,44,68938,1,10,0:0:0:0:
396,128,69386,1,10,0:0:0:0:
408,256,69834,1,8,0:0:0:0:
364,300,70057,1,8,0:0:0:0:
304,324,70281,1,8,0:0:0:0:
240,324,70505,6,0,P|184:320|116:288,2,120,4|2|8,0:0|0:0|0:0,0:0:0:0:
220,264,71401,2,0,P|170:236|122:178,2,120,2|2|8,0:0|0:0|0:0,0:0:0:0:
216,200,72296,5,2,0:0:0:0:
244,144,72520,1,8,0:0:0:0:
296,108,72744,2,0,P|332:92|416:104,2,120,2|0|8,0:0|0:0|0:0,0:0:0:0:
336,160,73640,1,8,0:0:0:0:
376,212,73863,1,8,0:0:0:0:
256,192,74087,12,2,76774,0:0:0:0:
376,236,77669,6,0,P|448:260|476:188,1,160,4|2,0:0|0:0,0:0:0:0:
352,168,78565,2,0,P|383:105|455:129,1,160,2|2,0:0|0:0,0:0:0:0:
452,256,79460,5,2,0:0:0:0:
420,312,79683,1,8,0:0:0:0:
364,344,79907,1,2,0:0:0:0:
300,356,80132,2,0,P|224:356|156:308,1,160,8|2,0:0|0:0,0:0:0:0:
244,216,81027,1,8,0:0:0:0:
184,196,81251,6,0,P|112:172|84:244,1,160,2|2,0:0|0:0,0:0:0:0:
208,264,82147,2,0,P|177:327|105:303,1,160,2|2,0:0|0:0,0:0:0:0:
36,192,83042,5,2,0:0:0:0:
40,128,83266,1,8,0:0:0:0:
88,84,83489,1,2,0:0:0:0:
152,88,83713,1,8,0:0:0:0:
256,160,84161,2,2,L|256:224,1,53.3333333333333
348,332,84833,5,4,0:0:0:0:
412,316,85057,1,8,0:0:0:0:
468,284,85281,2,0,P|480:192|448:172,2,120,0|2|8,0:0|0:0|0:0,0:0:0:0:
384,192,86400,5,8,0:0:0:0:
384,192,86624,1,4,0:0:0:0:
256,192,87072,1,2,0:0:0:0:
208,216,87407,2,0,P|160:192|208:168,1,130.000004959107,4|0,0:0|0:0,0:0:0:0:
256,192,88415,12,4,90206,0:0:0:0:
444,52,91101,5,4,0:3:0:0:
380,52,91325,1,4,0:3:0:0:
316,52,91549,1,4,0:3:0:0:
252,52,91773,1,4,0:3:0:0:
188,52,91998,6,0,P|136:56|116:168,2,160,12|2|2,0:3|0:0|0:0,0:0:0:0:
216,108,93117,1,8,0:0:0:0:
340,132,93565,1,10,0:0:0:0:
368,188,93789,1,4,0:0:0:0:
396,244,94013,5,10,0:0:0:0:
320,336,94460,1,10,0:0:0:0:
192,344,94908,1,10,0:0:0:0:
84,276,95356,1,10,0:0:0:0:
48,224,95580,6,0,P|28:168|64:68,2,160,4|2|2,0:0|0:0|0:0,0:0:0:0:
104,196,96699,1,8,0:0:0:0:
208,120,97147,1,10,0:0:0:0:
272,112,97371,1,4,0:0:0:0:
336,116,97595,5,10,0:0:0:0:
420,212,98043,1,10,0:0:0:0:
396,272,98266,1,2,0:0:0:0:
352,320,98490,1,10,0:0:0:0:
292,340,98714,1,0,0:0:0:0:
256,216,99162,6,0,P|248:160|180:120,1,133.333333333333,4|8,0:0|0:0,0:0:0:0:
100,116,99834,1,8,0:0:0:0:
60,164,100057,2,0,P|40:240|80:296,1,133.333333333333,4|8,0:0|0:0,0:0:0:0:
144,312,100729,1,8,0:0:0:0:
208,328,100953,6,0,P|268:344|308:344,2,80,4|8|0,0:0|0:0|0:0,0:0:0:0:
188,268,101625,1,8,0:0:0:0:
208,208,101849,1,10,0:0:0:0:
256,88,102296,5,4,0:0:0:0:
