osu file format v12

[General]
AudioFilename: ROUND.mp3
AudioLeadIn: 1985
PreviewTime: 41632
Countdown: 0
SampleSet: Normal
StackLeniency: 0.7
Mode: 1
LetterboxInBreaks: 0
WidescreenStoryboard: 0

[Editor]
DistanceSpacing: 1.5
BeatDivisor: 6
GridSize: 8

[Metadata]
Title:ROUND!
TitleUnicode:ROUND!
Artist:WESTARENA by MLREC.
ArtistUnicode:WESTARENA by MLREC.
Creator:Sushi
Version:Inner Oni
Source:Reflec Beat
Tags:S.S.D.
BeatmapID:240372
BeatmapSetID:88125

[Difficulty]
HPDrainRate:7
CircleSize:5
OverallDifficulty:6
ApproachRate:5
SliderMultiplier:1.8
SliderTickRate:1

[Events]
//Background and Video events
0,0,"round.jpg",0,40
//Break Periods
//Storyboard Layer 0 (Background)
//Storyboard Layer 1 (Fail)
//Storyboard Layer 2 (Pass)
//Storyboard Layer 3 (Foreground)
//Storyboard Sound Samples
//Background Colour Transformations
3,100,163,162,255

[TimingPoints]
655,447.761194029851,4,1,0,100,1,0
41849,-80,4,1,0,100,0,1
54386,-80,4,1,0,100,0,0
54834,-100,4,1,0,100,0,0
77669,-80,4,1,0,100,0,1
90207,-80,4,1,0,100,0,0
90655,-100,4,1,0,100,0,0

[HitObjects]
256,200,655,1,0,0:0:0:0:
264,128,878,1,0,0:0:0:0:
264,128,1028,1,0,0:0:0:0:
264,128,1102,1,0,0:0:0:0:
264,128,1326,1,0,0:0:0:0:
264,128,1475,1,0,0:0:0:0:
264,128,1550,1,0,0:0:0:0:
264,128,1699,1,0,0:0:0:0:
264,128,1774,1,8,0:0:0:0:
264,128,1849,1,0,0:0:0:0:
264,128,1923,1,0,0:0:0:0:
264,128,1998,1,8,0:0:0:0:
264,128,2222,1,8,0:0:0:0:
264,128,2446,1,4,0:0:0:0:
264,128,2669,1,8,0:0:0:0:
264,128,2893,1,0,0:0:0:0:
264,128,3043,1,0,0:0:0:0:
264,128,3117,1,8,0:0:0:0:
264,128,3341,1,0,0:0:0:0:
264,128,3565,1,8,0:0:0:0:
264,128,3714,1,8,0:0:0:0:
264,128,3789,1,0,0:0:0:0:
264,128,4013,1,8,0:0:0:0:
264,128,4237,1,0,0:0:0:0:
264,128,4460,1,8,0:0:0:0:
264,128,4684,1,0,0:0:0:0:
264,128,4834,1,0,0:0:0:0:
264,128,4908,1,8,0:0:0:0:
264,128,5132,1,0,0:0:0:0:
264,128,5281,1,0,0:0:0:0:
264,128,5356,1,8,0:0:0:0:
264,128,5505,1,8,0:0:0:0:
264,128,5580,1,0,0:0:0:0:
264,128,5729,1,0,0:0:0:0:
264,128,5804,1,8,0:0:0:0:
264,128,6028,1,4,0:0:0:0:
264,128,6251,1,8,0:0:0:0:
264,128,6475,1,0,0:0:0:0:
264,128,6625,1,0,0:0:0:0:
264,128,6699,1,8,0:0:0:0:
264,128,6923,1,0,0:0:0:0:
264,128,7147,1,8,0:0:0:0:
264,128,7296,1,8,0:0:0:0:
264,128,7371,1,0,0:0:0:0:
264,128,7595,1,8,0:0:0:0:
264,128,7819,1,0,0:0:0:0:
264,128,7968,1,0,0:0:0:0:
264,128,8043,1,8,0:0:0:0:
264,128,8192,1,8,0:0:0:0:
264,128,8266,1,0,0:0:0:0:
264,128,8490,1,8,0:0:0:0:
256,136,8714,1,0,0:0:0:0:
256,136,8863,1,0,0:0:0:0:
256,136,8938,1,8,0:0:0:0:
256,136,9087,1,0,0:0:0:0:
256,136,9162,1,8,0:0:0:0:
256,136,9311,1,0,0:0:0:0:
256,136,9386,1,0,0:0:0:0:
256,136,9460,1,0,0:0:0:0:
256,136,9535,1,8,0:0:0:0:
256,136,9610,1,0,0:0:0:0:
256,192,9834,1,8,0:0:0:0:
256,192,10057,1,0,0:0:0:0:
256,192,10281,1,8,0:0:0:0:
256,192,10505,1,0,0:0:0:0:
256,192,10729,1,8,0:0:0:0:
256,192,10804,1,0,0:0:0:0:
256,192,10878,1,0,0:0:0:0:
256,192,10953,1,0,0:0:0:0:
256,192,11177,1,8,0:0:0:0:
256,192,11401,1,0,0:0:0:0:
256,192,11625,1,8,0:0:0:0:
256,192,11774,1,0,0:0:0:0:
256,192,11849,1,0,0:0:0:0:
256,192,12072,1,8,0:0:0:0:
256,192,12222,1,8,0:0:0:0:
256,192,12296,1,0,0:0:0:0:
256,192,12520,1,8,0:0:0:0:
256,192,12669,1,0,0:0:0:0:
256,192,12744,1,0,0:0:0:0:
256,192,12893,1,0,0:0:0:0:
264,208,12968,1,8,0:0:0:0:
264,208,13117,1,8,0:0:0:0:
264,208,13192,1,0,0:0:0:0:
256,192,13416,1,8,0:0:0:0:
256,192,13565,1,0,0:0:0:0:
256,192,13640,1,0,0:0:0:0:
256,192,13863,1,8,0:0:0:0:
256,192,14013,1,0,0:0:0:0:
256,192,14087,1,0,0:0:0:0:
256,192,14311,1,8,0:0:0:0:
256,192,14386,1,0,0:0:0:0:
256,192,14460,1,0,0:0:0:0:
264,208,14535,1,8,0:0:0:0:
264,208,14684,1,0,0:0:0:0:
264,208,14759,1,8,0:0:0:0:
256,192,14983,1,0,0:0:0:0:
256,192,15132,1,8,0:0:0:0:
256,192,15207,1,8,0:0:0:0:
256,192,15356,1,0,0:0:0:0:
256,192,15431,1,8,0:0:0:0:
256,192,15580,1,0,0:0:0:0:
256,192,15655,1,8,0:0:0:0:
256,192,15729,1,0,0:0:0:0:
256,192,15804,1,0,0:0:0:0:
256,192,15878,1,8,0:0:0:0:
256,192,16028,1,0,0:0:0:0:
264,208,16102,1,8,0:0:0:0:
264,208,16252,1,0,0:0:0:0:
264,208,16326,1,0,0:0:0:0:
256,192,16401,1,0,0:0:0:0:
256,192,16475,1,0,0:0:0:0:
256,192,16550,1,8,0:0:0:0:
256,192,16774,1,4,0:0:0:0:
256,192,16998,1,8,0:0:0:0:
256,192,17221,1,0,0:0:0:0:
256,192,17445,1,8,0:0:0:0:
256,192,17669,1,8,0:0:0:0:
264,208,17819,1,0,0:0:0:0:
256,192,17893,1,0,0:0:0:0:
256,192,18042,1,8,0:0:0:0:
256,192,18117,1,0,0:0:0:0:
256,192,18341,1,8,0:0:0:0:
256,192,18565,1,0,0:0:0:0:
256,192,18789,1,8,0:0:0:0:
256,192,18938,1,0,0:0:0:0:
256,192,19013,1,0,0:0:0:0:
256,192,19236,1,8,0:0:0:0:
256,192,19386,1,8,0:0:0:0:
256,192,19460,1,0,0:0:0:0:
256,192,19684,1,8,0:0:0:0:
256,192,19833,1,0,0:0:0:0:
256,192,19908,1,0,0:0:0:0:
256,192,20057,1,0,0:0:0:0:
264,208,20132,1,8,0:0:0:0:
264,208,20281,1,8,0:0:0:0:
264,208,20356,1,0,0:0:0:0:
256,192,20580,1,8,0:0:0:0:
256,192,20729,1,0,0:0:0:0:
256,192,20804,1,0,0:0:0:0:
256,192,21027,1,8,0:0:0:0:
256,192,21177,1,0,0:0:0:0:
256,192,21251,1,0,0:0:0:0:
256,192,21401,1,0,0:0:0:0:
256,192,21475,1,8,0:0:0:0:
256,192,21625,1,0,0:0:0:0:
264,208,21699,1,8,0:0:0:0:
264,208,21849,1,0,0:0:0:0:
264,208,21923,1,8,0:0:0:0:
256,192,22147,1,0,0:0:0:0:
256,192,22296,1,0,0:0:0:0:
256,192,22371,1,8,0:0:0:0:
256,192,22520,1,8,0:0:0:0:
256,192,22595,1,8,0:0:0:0:
256,192,22669,1,0,0:0:0:0:
256,192,22744,1,8,0:0:0:0:
256,192,22819,1,8,0:0:0:0:
256,192,22893,1,0,0:0:0:0:
256,192,22968,1,0,0:0:0:0:
256,192,23043,1,8,0:0:0:0:
256,192,23267,5,4,0:0:0:0:
256,192,23491,1,4,0:0:0:0:
256,192,23715,1,4,0:0:0:0:
256,192,23938,1,4,0:0:0:0:
256,192,24162,1,8,0:0:0:0:
256,192,24311,1,8,0:0:0:0:
256,192,24386,1,8,0:0:0:0:
256,192,24610,1,8,0:0:0:0:
256,192,24834,1,0,0:0:0:0:
256,192,25057,1,8,0:0:0:0:
256,192,25207,1,8,0:0:0:0:
256,192,25281,1,8,0:0:0:0:
256,192,25505,1,8,0:0:0:0:
256,192,25729,1,0,0:0:0:0:
256,192,25953,1,8,0:0:0:0:
256,192,26102,1,8,0:0:0:0:
256,192,26177,1,0,0:0:0:0:
256,192,26401,1,8,0:0:0:0:
256,192,26550,1,8,0:0:0:0:
256,192,26625,1,0,0:0:0:0:
256,192,26774,1,0,0:0:0:0:
256,192,26849,1,8,0:0:0:0:
256,192,26998,1,0,0:0:0:0:
256,192,27072,1,8,0:0:0:0:
256,192,27222,1,0,0:0:0:0:
256,192,27296,1,8,0:0:0:0:
256,192,27520,1,4,0:0:0:0:
256,192,27744,1,8,0:0:0:0:
256,192,27893,1,8,0:0:0:0:
256,192,27968,1,8,0:0:0:0:
256,192,28192,1,8,0:0:0:0:
256,192,28416,1,0,0:0:0:0:
256,192,28639,1,8,0:0:0:0:
256,192,28789,1,8,0:0:0:0:
256,192,28863,1,8,0:0:0:0:
256,192,29087,1,8,0:0:0:0:
256,192,29162,1,0,0:0:0:0:
256,192,29237,1,0,0:0:0:0:
256,192,29311,1,8,0:0:0:0:
256,192,29535,1,0,0:0:0:0:
256,192,29684,1,0,0:0:0:0:
256,192,29759,1,8,0:0:0:0:
256,192,29983,1,0,0:0:0:0:
256,192,30057,1,0,0:0:0:0:
256,192,30132,1,0,0:0:0:0:
256,192,30207,1,8,0:0:0:0:
256,192,30356,1,0,0:0:0:0:
256,192,30431,1,8,0:0:0:0:
256,192,30580,1,0,0:0:0:0:
256,192,30655,1,8,0:0:0:0:
256,192,30878,1,4,0:0:0:0:
256,192,31102,1,4,0:0:0:0:
256,192,31326,1,8,0:0:0:0:
256,192,31475,1,8,0:0:0:0:
256,192,31550,1,8,0:0:0:0:
256,192,31774,1,8,0:0:0:0:
256,192,31998,1,0,0:0:0:0:
256,192,32221,1,8,0:0:0:0:
256,192,32371,1,8,0:0:0:0:
256,192,32445,1,8,0:0:0:0:
256,192,32669,1,8,0:0:0:0:
256,192,32893,1,0,0:0:0:0:
256,192,33117,1,8,0:0:0:0:
256,192,33266,1,8,0:0:0:0:
256,192,33341,1,0,0:0:0:0:
256,192,33565,1,8,0:0:0:0:
256,192,33714,1,0,0:0:0:0:
256,192,33789,1,0,0:0:0:0:
256,192,33938,1,0,0:0:0:0:
256,192,34013,1,8,0:0:0:0:
256,192,34087,1,0,0:0:0:0:
256,192,34162,1,0,0:0:0:0:
256,192,34236,1,8,0:0:0:0:
256,192,34460,1,8,0:0:0:0:
256,192,34684,1,4,0:0:0:0:
256,192,34908,1,8,0:0:0:0:
256,192,35132,1,0,0:0:0:0:
256,192,35281,1,0,0:0:0:0:
256,192,35356,1,8,0:0:0:0:
256,192,35505,1,8,0:0:0:0:
256,192,35580,1,0,0:0:0:0:
256,192,35804,1,8,0:0:0:0:
256,192,36028,1,0,0:0:0:0:
240,160,36177,1,0,0:0:0:0:
256,192,36252,1,8,0:0:0:0:
240,160,36475,1,0,0:0:0:0:
240,160,36625,1,0,0:0:0:0:
240,160,36699,1,8,0:0:0:0:
256,192,36849,1,0,0:0:0:0:
256,192,36923,1,0,0:0:0:0:
256,192,37072,1,0,0:0:0:0:
256,192,37147,1,8,0:0:0:0:
256,192,37371,1,0,0:0:0:0:
256,192,37595,1,8,0:0:0:0:
256,192,37819,1,8,0:0:0:0:
256,192,38043,1,8,0:0:0:0:
256,192,38266,1,0,0:0:0:0:
256,192,38490,1,0,0:0:0:0:
256,192,38640,1,0,0:0:0:0:
256,192,38714,1,8,0:0:0:0:
256,192,39162,1,0,0:0:0:0:
256,192,39386,1,0,0:0:0:0:
256,192,39535,1,0,0:0:0:0:
256,192,39610,1,8,0:0:0:0:
256,192,40057,1,0,0:0:0:0:
256,192,40281,1,0,0:0:0:0:
256,192,40356,1,0,0:0:0:0:
256,192,40431,1,0,0:0:0:0:
256,192,40505,1,8,0:0:0:0:
256,192,40580,1,0,0:0:0:0:
256,192,40655,1,0,0:0:0:0:
256,192,40729,1,8,0:0:0:0:
256,192,40953,5,4,0:0:0:0:
256,192,41177,5,8,0:0:0:0:
256,192,41252,1,0,0:0:0:0:
256,192,41326,1,0,0:0:0:0:
256,192,41401,1,8,0:0:0:0:
256,192,41849,5,4,0:0:0:0:
256,192,41998,1,0,0:0:0:0:
256,192,42072,1,0,0:0:0:0:
256,192,42222,1,8,0:0:0:0:
256,192,42296,1,0,0:0:0:0:
256,192,42446,1,0,0:0:0:0:
256,192,42520,1,8,0:0:0:0:
256,192,42744,1,4,0:0:0:0:
256,192,42893,1,0,0:0:0:0:
256,192,42968,1,0,0:0:0:0:
256,192,43117,1,8,0:0:0:0:
256,192,43192,1,0,0:0:0:0:
256,192,43341,1,0,0:0:0:0:
256,192,43416,1,8,0:0:0:0:
256,192,43640,1,0,0:0:0:0:
256,192,43863,1,8,0:0:0:0:
256,192,44013,1,8,0:0:0:0:
256,192,44087,1,0,0:0:0:0:
256,192,44237,1,0,0:0:0:0:
256,192,44311,1,8,0:0:0:0:
256,192,44535,1,0,0:0:0:0:
256,192,44684,1,0,0:0:0:0:
256,192,44759,1,8,0:0:0:0:
256,192,44834,1,8,0:0:0:0:
256,192,44908,1,8,0:0:0:0:
256,192,44983,1,0,0:0:0:0:
256,192,45207,1,0,0:0:0:0:
256,192,45431,5,4,0:0:0:0:
256,192,45580,1,0,0:0:0:0:
256,192,45654,1,0,0:0:0:0:
256,192,45804,1,8,0:0:0:0:
256,192,45878,1,0,0:0:0:0:
256,192,46028,1,0,0:0:0:0:
256,192,46102,1,8,0:0:0:0:
256,192,46326,1,4,0:0:0:0:
256,192,46475,1,0,0:0:0:0:
256,192,46550,1,0,0:0:0:0:
256,192,46699,1,8,0:0:0:0:
256,192,46774,1,0,0:0:0:0:
256,192,46923,1,0,0:0:0:0:
256,192,46998,1,8,0:0:0:0:
256,192,47222,1,0,0:0:0:0:
256,192,47445,1,8,0:0:0:0:
256,192,47595,1,0,0:0:0:0:
256,192,47669,1,8,0:0:0:0:
256,192,47819,1,0,0:0:0:0:
256,192,47893,1,8,0:0:0:0:
256,192,48117,1,0,0:0:0:0:
256,192,48341,1,12,0:0:0:0:
256,192,48490,1,12,0:0:0:0:
256,192,48714,1,0,0:0:0:0:
256,192,48789,1,8,0:0:0:0:
256,192,49013,1,4,0:0:0:0:
256,192,49237,1,8,0:0:0:0:
256,192,49386,1,8,0:0:0:0:
256,192,49460,1,0,0:0:0:0:
256,192,49610,1,0,0:0:0:0:
256,192,49684,1,8,0:0:0:0:
256,192,49834,1,0,0:0:0:0:
256,192,49908,1,0,0:0:0:0:
256,192,50057,1,0,0:0:0:0:
256,192,50132,1,8,0:0:0:0:
256,192,50207,1,8,0:0:0:0:
256,192,50281,1,0,0:0:0:0:
256,192,50356,1,0,0:0:0:0:
256,192,50505,1,0,0:0:0:0:
256,192,50580,1,8,0:0:0:0:
256,176,50804,1,4,0:0:0:0:
256,176,51252,1,4,0:0:0:0:
256,176,51587,1,4,0:0:0:0:
256,176,52072,1,12,0:0:0:0:
256,176,52595,1,0,0:0:0:0:
256,176,52819,1,8,0:0:0:0:
256,176,52968,1,8,0:0:0:0:
256,176,53043,1,0,0:0:0:0:
256,176,53266,1,0,0:0:0:0:
256,176,53341,1,0,0:0:0:0:
256,176,53416,1,0,0:0:0:0:
256,176,53490,1,0,0:0:0:0:
256,176,53714,1,8,0:0:0:0:
256,176,53863,1,8,0:0:0:0:
256,176,53938,1,0,0:0:0:0:
256,176,54162,1,8,0:0:0:0:
256,176,54386,1,4,0:0:0:0:
288,192,55207,1,0,0:0:0:0:
288,192,55282,1,0,0:0:0:0:
288,192,55505,1,0,0:0:0:0:
288,192,55655,1,0,0:0:0:0:
288,192,55729,1,0,0:0:0:0:
288,192,55953,1,0,0:0:0:0:
288,192,56177,1,4,0:0:0:0:
288,192,56401,1,8,0:0:0:0:
288,192,56625,1,0,0:0:0:0:
288,192,56774,1,0,0:0:0:0:
288,192,56849,1,8,0:0:0:0:
288,192,56998,1,8,0:0:0:0:
288,192,57072,1,0,0:0:0:0:
288,192,57296,1,8,0:0:0:0:
288,192,57520,1,0,0:0:0:0:
288,192,57669,1,0,0:0:0:0:
288,192,57744,1,8,0:0:0:0:
288,192,57968,1,0,0:0:0:0:
256,184,58192,1,12,0:0:0:0:
256,184,58416,1,0,0:0:0:0:
256,184,58640,1,12,0:0:0:0:
256,184,58789,1,8,0:0:0:0:
256,184,58863,1,0,0:0:0:0:
256,184,59087,1,12,0:0:0:0:
256,184,59237,1,0,0:0:0:0:
256,184,59311,1,0,0:0:0:0:
256,184,59535,1,12,0:0:0:0:
256,184,59759,1,4,0:0:0:0:
256,184,59983,1,8,0:0:0:0:
256,184,60132,1,0,0:0:0:0:
256,184,60207,1,0,0:0:0:0:
256,184,60431,1,8,0:0:0:0:
256,184,60655,1,0,0:0:0:0:
256,184,60804,1,0,0:0:0:0:
256,184,60878,1,8,0:0:0:0:
256,184,61028,1,8,0:0:0:0:
256,184,61102,1,0,0:0:0:0:
256,184,61326,1,8,0:0:0:0:
256,184,61550,1,0,0:0:0:0:
256,184,61774,1,8,0:0:0:0:
256,184,61923,1,8,0:0:0:0:
256,184,61998,1,8,0:0:0:0:
256,184,62147,1,0,0:0:0:0:
256,184,62222,1,8,0:0:0:0:
256,184,62296,1,8,0:0:0:0:
256,184,62371,1,0,0:0:0:0:
256,184,62446,1,8,0:0:0:0:
256,184,62669,1,4,0:0:0:0:
256,184,62893,1,4,0:0:0:0:
256,184,63117,1,4,0:0:0:0:
256,184,63341,1,4,0:0:0:0:
256,184,63565,1,8,0:0:0:0:
256,184,63714,1,0,0:0:0:0:
256,184,63789,1,0,0:0:0:0:
256,184,63938,1,0,0:0:0:0:
256,184,64013,1,8,0:0:0:0:
256,184,64237,1,0,0:0:0:0:
256,184,64311,1,0,0:0:0:0:
256,184,64386,1,0,0:0:0:0:
256,184,64460,1,8,0:0:0:0:
256,184,64684,1,0,0:0:0:0:
256,184,64759,1,0,0:0:0:0:
256,184,64834,1,0,0:0:0:0:
256,184,64908,1,8,0:0:0:0:
256,184,65132,1,0,0:0:0:0:
264,176,65356,1,12,0:0:0:0:
264,176,65580,1,0,0:0:0:0:
264,176,65804,1,12,0:0:0:0:
264,176,65953,1,0,0:0:0:0:
264,176,66028,1,0,0:0:0:0:
264,176,66252,1,12,0:0:0:0:
264,176,66401,1,0,0:0:0:0:
264,176,66475,1,8,0:0:0:0:
264,176,66699,1,12,0:0:0:0:
264,176,66923,1,4,0:0:0:0:
264,176,67147,1,8,0:0:0:0:
264,176,67296,1,0,0:0:0:0:
264,176,67371,1,8,0:0:0:0:
264,176,67520,1,0,0:0:0:0:
264,176,67595,1,8,0:0:0:0:
264,176,67819,1,12,0:0:0:0:
264,176,68043,1,0,0:0:0:0:
264,176,68192,1,0,0:0:0:0:
264,176,68266,1,8,0:0:0:0:
264,176,68416,1,0,0:0:0:0:
264,176,68490,1,8,0:0:0:0:
264,176,68714,1,4,0:0:0:0:
256,184,68938,5,12,0:0:0:0:
264,176,69087,1,0,0:0:0:0:
264,176,69162,1,0,0:0:0:0:
256,184,69386,1,12,0:0:0:0:
264,176,69535,1,0,0:0:0:0:
264,176,69610,1,0,0:0:0:0:
256,184,69834,1,4,0:0:0:0:
256,184,70057,1,4,0:0:0:0:
256,184,70281,1,4,0:0:0:0:
256,184,70505,1,4,0:0:0:0:
256,192,70729,1,8,0:0:0:0:
256,192,70878,1,8,0:0:0:0:
256,192,70953,1,8,0:0:0:0:
256,192,71177,1,8,0:0:0:0:
256,192,71401,1,0,0:0:0:0:
256,192,71624,1,8,0:0:0:0:
256,192,71774,1,8,0:0:0:0:
256,192,71848,1,8,0:0:0:0:
256,192,72072,1,8,0:0:0:0:
256,192,72296,1,0,0:0:0:0:
256,192,72520,1,8,0:0:0:0:
256,192,72669,1,0,0:0:0:0:
256,192,72744,1,0,0:0:0:0:
256,192,72968,1,8,0:0:0:0:
256,192,73117,1,0,0:0:0:0:
256,192,73192,1,8,0:0:0:0:
256,192,73266,1,0,0:0:0:0:
256,192,73341,1,0,0:0:0:0:
256,192,73416,1,8,0:0:0:0:
256,192,73490,1,0,0:0:0:0:
256,192,73565,1,0,0:0:0:0:
256,192,73639,1,8,0:0:0:0:
256,192,73863,1,8,0:0:0:0:
256,192,74087,1,4,0:0:0:0:
256,192,74311,1,12,0:0:0:0:
256,192,74460,1,12,0:0:0:0:
256,192,74684,1,0,0:0:0:0:
256,192,74759,1,8,0:0:0:0:
256,192,74834,1,0,0:0:0:0:
256,192,74908,1,0,0:0:0:0:
256,192,74983,1,8,0:0:0:0:
256,192,75207,1,12,0:0:0:0:
256,192,75356,1,12,0:0:0:0:
256,192,75580,1,0,0:0:0:0:
256,192,75655,1,8,0:0:0:0:
256,192,75729,1,8,0:0:0:0:
256,192,75804,1,0,0:0:0:0:
256,192,75878,1,0,0:0:0:0:
256,192,76102,12,0,77446,0:0:0:0:
256,192,77669,5,4,0:0:0:0:
256,192,77818,1,0,0:0:0:0:
256,192,77892,1,0,0:0:0:0:
256,192,78042,1,8,0:0:0:0:
256,192,78116,1,0,0:0:0:0:
256,192,78266,1,0,0:0:0:0:
256,192,78340,1,8,0:0:0:0:
256,192,78564,1,4,0:0:0:0:
256,192,78713,1,0,0:0:0:0:
256,192,78788,1,0,0:0:0:0:
256,192,78937,1,8,0:0:0:0:
256,192,79012,1,0,0:0:0:0:
256,192,79161,1,0,0:0:0:0:
256,192,79236,1,8,0:0:0:0:
256,192,79460,1,0,0:0:0:0:
256,192,79683,1,8,0:0:0:0:
256,192,79833,1,8,0:0:0:0:
256,192,79907,1,0,0:0:0:0:
256,192,80057,1,0,0:0:0:0:
256,192,80131,1,8,0:0:0:0:
256,192,80281,1,0,0:0:0:0:
256,192,80355,1,8,0:0:0:0:
256,192,80504,1,0,0:0:0:0:
256,192,80579,1,8,0:0:0:0:
256,192,80654,1,0,0:0:0:0:
256,192,80728,1,0,0:0:0:0:
256,192,80803,1,8,0:0:0:0:
256,192,81027,1,8,0:0:0:0:
256,192,81251,5,4,0:0:0:0:
256,192,81400,1,0,0:0:0:0:
256,192,81474,1,0,0:0:0:0:
256,192,81624,1,8,0:0:0:0:
256,192,81698,1,0,0:0:0:0:
256,192,81848,1,0,0:0:0:0:
256,192,81922,1,8,0:0:0:0:
256,192,82146,1,4,0:0:0:0:
256,192,82295,1,0,0:0:0:0:
256,192,82370,1,0,0:0:0:0:
256,192,82519,1,8,0:0:0:0:
256,192,82594,1,0,0:0:0:0:
256,192,82743,1,0,0:0:0:0:
256,192,82818,1,8,0:0:0:0:
256,192,83042,1,0,0:0:0:0:
256,192,83265,1,8,0:0:0:0:
256,192,83415,1,0,0:0:0:0:
256,192,83489,1,8,0:0:0:0:
256,192,83639,1,0,0:0:0:0:
256,192,83713,1,8,0:0:0:0:
256,192,83937,1,0,0:0:0:0:
256,192,84161,1,12,0:0:0:0:
256,192,84310,1,12,0:0:0:0:
256,192,84534,1,0,0:0:0:0:
256,192,84609,1,8,0:0:0:0:
256,192,84833,1,4,0:0:0:0:
256,192,85057,1,8,0:0:0:0:
256,192,85206,1,8,0:0:0:0:
256,192,85280,1,0,0:0:0:0:
256,192,85430,1,0,0:0:0:0:
256,192,85504,1,8,0:0:0:0:
256,192,85654,1,0,0:0:0:0:
256,192,85728,1,0,0:0:0:0:
256,192,85877,1,0,0:0:0:0:
256,192,85952,1,8,0:0:0:0:
256,192,86027,1,0,0:0:0:0:
256,192,86101,1,0,0:0:0:0:
256,192,86177,1,8,0:0:0:0:
256,192,86325,1,0,0:0:0:0:
256,192,86400,1,8,0:0:0:0:
256,176,86624,1,4,0:0:0:0:
256,176,87072,1,4,0:0:0:0:
256,176,87407,1,4,0:0:0:0:
256,176,87892,1,12,0:0:0:0:
256,176,88415,1,0,0:0:0:0:
256,176,88639,1,8,0:0:0:0:
256,176,88788,1,8,0:0:0:0:
256,176,88863,1,0,0:0:0:0:
256,176,89086,1,0,0:0:0:0:
256,176,89161,1,0,0:0:0:0:
256,176,89236,1,0,0:0:0:0:
256,176,89310,1,0,0:0:0:0:
256,176,89534,1,8,0:0:0:0:
256,176,89683,1,8,0:0:0:0:
256,176,89758,1,0,0:0:0:0:
256,176,89982,1,8,0:0:0:0:
256,176,90207,1,4,0:0:0:0:
288,192,91027,1,0,0:0:0:0:
288,192,91102,1,0,0:0:0:0:
288,192,91325,1,0,0:0:0:0:
288,192,91475,1,0,0:0:0:0:
288,192,91549,1,0,0:0:0:0:
288,192,91773,1,0,0:0:0:0:
288,192,91998,1,0,0:0:0:0:
288,192,92222,1,8,0:0:0:0:
288,192,92446,1,0,0:0:0:0:
288,192,92595,1,0,0:0:0:0:
288,192,92670,1,8,0:0:0:0:
288,192,92893,1,0,0:0:0:0:
288,192,93117,1,8,0:0:0:0:
288,192,93266,1,8,0:0:0:0:
288,192,93341,1,0,0:0:0:0:
288,192,93490,1,0,0:0:0:0:
288,192,93565,1,8,0:0:0:0:
288,192,93789,1,4,0:0:0:0:
256,184,94013,1,12,0:0:0:0:
256,184,94162,1,0,0:0:0:0:
256,184,94237,1,0,0:0:0:0:
256,184,94461,1,12,0:0:0:0:
256,184,94610,1,8,0:0:0:0:
256,184,94684,1,0,0:0:0:0:
256,184,94908,1,12,0:0:0:0:
256,184,95058,1,0,0:0:0:0:
256,184,95132,1,0,0:0:0:0:
256,184,95356,1,12,0:0:0:0:
256,184,95580,1,4,0:0:0:0:
256,184,95804,1,8,0:0:0:0:
256,184,95953,1,8,0:0:0:0:
256,184,96028,1,0,0:0:0:0:
256,184,96177,1,0,0:0:0:0:
256,184,96252,1,8,0:0:0:0:
256,184,96401,1,8,0:0:0:0:
256,184,96476,1,0,0:0:0:0:
256,184,96625,1,0,0:0:0:0:
256,184,96699,1,0,0:0:0:0:
256,184,96849,1,8,0:0:0:0:
256,184,96923,1,0,0:0:0:0:
256,184,97147,1,8,0:0:0:0:
256,184,97371,1,4,0:0:0:0:
256,184,97595,1,12,0:0:0:0:
256,184,97744,1,0,0:0:0:0:
256,184,97819,1,0,0:0:0:0:
256,184,98043,1,12,0:0:0:0:
256,184,98192,1,0,0:0:0:0:
256,184,98267,1,8,0:0:0:0:
256,184,98416,1,0,0:0:0:0:
256,184,98490,1,8,0:0:0:0:
256,184,98640,1,0,0:0:0:0:
256,184,98714,1,0,0:0:0:0:
256,184,98789,1,0,0:0:0:0:
256,184,98863,1,0,0:0:0:0:
256,184,98938,1,8,0:0:0:0:
256,184,99162,1,4,0:0:0:0:
256,184,99386,1,8,0:0:0:0:
256,184,99535,1,8,0:0:0:0:
256,184,99759,1,8,0:0:0:0:
256,184,99834,1,0,0:0:0:0:
256,184,99908,1,0,0:0:0:0:
256,184,99983,1,0,0:0:0:0:
256,184,100057,1,8,0:0:0:0:
256,184,100281,1,8,0:0:0:0:
256,184,100431,1,8,0:0:0:0:
256,184,100505,1,0,0:0:0:0:
256,184,100655,1,8,0:0:0:0:
256,184,100729,1,0,0:0:0:0:
256,184,100804,1,0,0:0:0:0:
256,184,100878,1,0,0:0:0:0:
256,184,100953,1,8,0:0:0:0:
256,184,101177,1,8,0:0:0:0:
256,184,101252,1,0,0:0:0:0:
256,184,101326,1,0,0:0:0:0:
256,184,101401,1,8,0:0:0:0:
256,184,101475,1,0,0:0:0:0:
256,184,101550,1,0,0:0:0:0:
256,184,101625,1,8,0:0:0:0:
256,184,101699,1,0,0:0:0:0:
256,184,101774,1,0,0:0:0:0:
256,184,101849,1,8,0:0:0:0:
256,184,102296,1,12,0:0:0:0:
