osu file format v12

[General]
AudioFilename: ROUND.mp3
AudioLeadIn: 0
PreviewTime: 41632
Countdown: 0
SampleSet: Soft
StackLeniency: 0.7
Mode: 0
LetterboxInBreaks: 1
WidescreenStoryboard: 0

[Editor]
Bookmarks: 93124
DistanceSpacing: 0.8
BeatDivisor: 6
GridSize: 4

[Metadata]
Title:ROUND!
TitleUnicode:ROUND!
Artist:WESTARENA by MLREC.
ArtistUnicode:WESTARENA by MLREC.
Creator:Sushi
Version:Hard
Source:Reflec Beat
Tags:S.S.D.
BeatmapID:255759
BeatmapSetID:88125

[Difficulty]
HPDrainRate:5
CircleSize:4
OverallDifficulty:6
ApproachRate:7
SliderMultiplier:2
SliderTickRate:2

[Events]
//Background and Video events
0,0,"round.jpg",0,0
//Break Periods
//Storyboard Layer 0 (Background)
//Storyboard Layer 1 (Fail)
//Storyboard Layer 2 (Pass)
//Storyboard Layer 3 (Foreground)
//Storyboard Sound Samples
//Background Colour Transformations
3,100,163,162,255

[TimingPoints]
655,447.761194029851,4,2,1,100,1,0
41849,-100,4,2,1,100,0,1
51475,-133.333333333333,4,2,1,100,0,1
52147,-100,4,2,1,100,0,1
54386,-100,4,2,1,100,0,0
77669,-100,4,2,1,100,0,1
87296,-133.333333333333,4,2,1,100,0,1
87968,-100,4,2,1,100,0,1
90207,-100,4,2,1,100,0,0
102296,-100,4,2,1,100,0,1
102371,-100,4,2,1,100,0,0

[HitObjects]
256,64,1998,1,0,0:0:0:0:
256,156,2222,1,2,0:0:0:0:
252,244,2446,2,0,P|172:296|128:220,2,200,4|2|2,0:0|0:0|0:0,0:0:0:0:
332,204,3565,2,0,P|408:156|412:124,2,100,8|0|10,0:0|0:0|0:0,0:0:0:0:
212,112,4237,5,4,0:0:0:0:
156,44,4460,2,0,P|104:16|40:116,1,200,10|8,0:0|0:0,0:0:0:0:
64,200,5132,1,2,0:0:0:0:
104,280,5356,2,0,P|156:336|260:296,1,200,8|10,0:0|0:0,0:0:0:0:
336,344,6028,5,4,0:0:0:0:
128,148,6475,1,2,0:0:0:0:
368,96,6923,1,2,0:0:0:0:
420,168,7147,2,0,P|440:232|424:284,2,100,8|0|10,0:0|0:0|0:0,0:0:0:0:
288,232,7819,5,4,0:0:0:0:
212,280,8043,2,0,P|128:304|76:208,1,200,10|8,0:0|0:0,0:0:0:0:
44,136,8714,2,0,L|8:100,2,50,2|0|8,0:0|0:0|0:0,0:0:0:0:
132,156,9162,1,4,0:3:0:0:
196,92,9386,1,8,0:0:0:0:
240,76,9498,1,2,0:0:0:0:
280,92,9610,1,4,0:0:0:0:
344,156,9834,5,8,0:0:0:0:
392,232,10057,1,0,0:0:0:0:
348,308,10281,1,8,0:0:0:0:
264,276,10505,2,0,P|192:236|120:268,2,150,2|2|8,0:0|0:0|0:0,0:0:0:0:
188,328,11401,6,0,P|124:352|72:320,2,100,0|8|2,0:0|0:0|0:0,0:0:0:0:
264,276,12072,1,8,0:0:0:0:
284,188,12296,1,2,0:0:0:0:
268,100,12520,1,8,0:0:0:0:
196,44,12744,2,0,P|124:24|32:64,1,150,0|2,0:0|0:0,0:0:0:0:
16,192,13416,5,10,0:0:0:0:
128,192,13863,1,10,0:0:0:0:
240,192,14311,1,10,0:0:0:0:
296,192,14535,2,0,L|352:192,3,33.3333333333333,2|0|0|10,0:0|0:0|0:0|0:0,0:0:0:0:
444,288,15207,6,0,L|364:324,1,66.6666666666667,10|0,0:0|0:0,0:0:0:0:
356,304,15431,2,0,L|252:344,1,100,8|8,0:0|0:0,0:0:0:0:
172,348,15878,1,8,0:0:0:0:
100,296,16102,2,0,L|60:348,2,50,0|2|4,0:0|0:0|0:3,0:0:0:0:
112,208,16550,1,8,0:0:0:0:
76,124,16774,1,4,0:0:0:0:
196,40,16998,5,8,0:0:0:0:
280,72,17222,1,0,0:0:0:0:
364,40,17446,1,8,0:0:0:0:
416,112,17669,2,0,P|440:192|384:232,2,150,2|2|8,0:0|0:0|0:0,0:0:0:0:
340,164,18565,5,2,0:0:0:0:
256,192,18789,1,8,0:0:0:0:
172,164,19013,1,2,0:0:0:0:
88,192,19237,2,0,P|28:224|-12:204,2,100,8|2|8,0:0|0:0|0:0,0:0:0:0:
24,128,19908,2,0,P|112:92|180:92,1,150,0|2,0:0|0:0,0:0:0:0:
388,56,20580,5,10,0:0:0:0:
444,152,21028,1,10,0:0:0:0:
388,248,21475,1,10,0:0:0:0:
356,296,21699,2,0,L|328:332,3,33.3333333333333,2|0|0|10,0:0|0:0|0:0|0:0,0:0:0:0:
176,304,22371,6,0,P|124:316|80:280,1,100,10|8,0:0|0:0,0:0:0:0:
52,208,22819,1,0,0:0:0:0:
44,164,22931,1,2,0:0:0:0:
56,120,23043,1,4,0:3:0:0:
152,20,23266,1,4,0:3:0:0:
256,112,23490,1,6,0:3:0:0:
360,20,23714,1,6,0:3:0:0:
456,120,23938,6,0,P|479:191|441:253,2,150,12|2|8,0:3|0:0|0:0,0:0:0:0:
388,180,24834,2,0,P|351:245|377:313,2,150,2|2|8,0:0|0:0|0:0,0:0:0:0:
440,252,25729,6,0,P|463:322|432:376,1,100,2|0,0:0|0:0,0:0:0:0:
424,372,26065,2,0,L|268:372,1,150,2|8,0:0|0:0,0:0:0:0:
256,284,26625,1,0,0:0:0:0:
256,196,26849,1,8,0:0:0:0:
256,108,27072,1,2,0:0:0:0:
256,20,27296,1,8,0:0:0:0:
336,64,27520,6,0,P|404:76|412:136,1,100,4|8,0:0|0:0,0:0:0:0:
432,140,27856,2,0,L|452:296,1,150,2|8,0:0|0:0,0:0:0:0:
432,376,28416,2,0,P|364:364|356:304,1,100,2|8,0:0|0:0,0:0:0:0:
336,300,28752,2,0,L|316:144,1,150,2|8,0:0|0:0,0:0:0:0:
256,88,29311,5,4,0:3:0:0:
126,85,29535,1,8,0:0:0:0:
229,164,29759,1,4,0:3:0:0:
191,39,29983,1,4,0:3:0:0:
149,163,30207,1,4,0:3:0:0:
76,260,30431,5,0,0:3:0:0:
84,303,30543,1,0,0:0:0:0:
110,337,30655,1,2,0:0:0:0:
151,350,30766,1,0,0:0:0:0:
193,334,30878,1,2,0:0:0:0:
304,236,31102,6,0,P|384:200|468:240,2,150,4|2|8,0:0|0:0|0:0,0:0:0:0:
270,128,31998,2,0,P|198:77|191:-15,2,150,2|2|8,0:0|0:0|0:0,0:0:0:0:
193,211,32893,2,0,P|185:298|108:351,2,150,2|2|8,0:0|0:0|0:0,0:0:0:0:
148,136,33789,5,0,0:0:0:0:
172,48,34013,1,8,0:0:0:0:
256,12,34237,1,8,0:0:0:0:
340,48,34460,1,8,0:0:0:0:
364,136,34684,6,0,P|400:188|440:192,2,100,4|8|0,0:0|0:0|0:0,0:0:0:0:
304,204,35356,1,8,0:0:0:0:
244,268,35580,1,0,0:0:0:0:
156,260,35804,1,8,0:0:0:0:
80,304,36028,1,0,0:0:0:0:
40,184,36252,6,0,P|20:76|92:56,1,200,10|10,0:0|0:0,0:0:0:0:
160,108,36923,1,0,0:0:0:0:
232,160,37147,2,0,P|298:138|278:30,1,200,10|8,0:0|0:0,0:0:0:0:
188,24,37819,1,0,0:0:0:0:
160,108,38043,1,10,0:0:0:0:
256,192,38266,12,4,40057,0:0:0:0:
132,320,40431,6,0,L|176:320,1,33.3333333333333,4|4,0:3|0:3,0:0:0:0:
256,320,40729,1,8,0:0:0:0:
348,320,40953,1,4,0:0:0:0:
256,116,41326,1,4,0:3:0:0:
256,116,41401,1,4,0:3:0:0:
124,328,41849,6,0,P|189:277|155:153,1,200,4|2,0:0|0:0,0:0:0:0:
104,234,42520,1,8,0:0:0:0:
33,299,42744,2,0,P|18:191|83:140,1,200,2|2,0:0|0:0,0:0:0:0:
104,234,43416,1,8,0:0:0:0:
124,328,43640,5,2,0:0:0:0:
212,348,43863,1,10,0:0:0:0:
272,280,44087,1,0,0:0:0:0:
360,304,44311,2,0,P|381:336|504:284,1,200,8|10,0:0|0:0,0:0:0:0:
332,224,45095,5,2,0:0:0:0:
300,192,45207,1,8,0:0:0:0:
256,180,45319,1,0,0:0:0:0:
212,184,45431,2,0,P|132:205|53:103,1,200,2|2,0:0|0:0,0:0:0:0:
148,111,46102,1,8,0:0:0:0:
243,93,46326,2,0,P|166:17|86:38,1,200,2|2,0:0|0:0,0:0:0:0:
148,111,46998,1,8,0:0:0:0:
212,184,47222,5,2,0:0:0:0:
236,272,47446,1,10,0:0:0:0:
188,348,47669,1,0,0:0:0:0:
100,368,47893,1,8,0:0:0:0:
24,192,48341,5,2,0:0:0:0:
24,192,48490,2,0,B|52:168|124:216|152:192,1,133.333333333333,2|0,0:0|0:0,0:0:0:0:
264,144,49013,5,4,0:0:0:0:
348,112,49237,1,8,0:0:0:0:
428,152,49460,2,0,P|484:192|464:280,2,150,2|0|10,0:0|0:0|0:0,0:0:0:0:
400,236,50356,1,0,0:0:0:0:
336,300,50580,1,10,0:0:0:0:
256,256,50804,5,4,0:0:0:0:
256,176,51252,1,0,0:0:0:0:
228,136,51587,2,0,P|256:76|284:136,1,162.500006198883,4|0,0:0|0:0,0:0:0:0:
344,204,52296,6,2,L|408:256,1,83.3333333333333,2|0,0:0|0:0,0:0:0:0:
444,284,52595,1,2,0:0:0:0:
256,192,52707,12,4,54386,0:0:0:0:
124,216,55207,5,4,0:3:0:0:
128,228,55281,1,4,0:3:0:0:
172,304,55505,1,4,0:3:0:0:
256,336,55729,1,4,0:3:0:0:
340,304,55953,1,4,0:3:0:0:
384,228,56177,6,0,P|420:164|524:200,1,200,12|2,0:3|0:0,0:0:0:0:
420,344,57072,1,2,0:0:0:0:
340,304,57296,1,8,0:0:0:0:
296,224,57520,2,0,P|276:188|220:164,1,100,2|8,0:0|0:0,0:0:0:0:
136,176,57968,5,0,0:0:0:0:
80,244,58192,2,0,L|31:262,2,50,8|0|2,0:0|0:0|0:0,0:0:0:0:
168,256,58640,1,10,0:0:0:0:
168,256,58863,1,0,0:0:0:0:
224,188,59087,2,0,L|273:170,2,50,8|0|2,0:0|0:0|0:0,0:0:0:0:
136,176,59535,1,10,0:0:0:0:
220,60,59759,6,0,P|308:28|408:76,1,200,4|2,0:0|0:0,0:0:0:0:
440,244,60655,1,2,0:0:0:0:
352,232,60878,1,8,0:0:0:0:
308,312,61102,1,0,0:0:0:0:
224,276,61326,1,8,0:0:0:0:
164,344,61550,1,2,0:0:0:0:
64,296,61774,6,0,L|44:248,3,50,10|0|2|2,0:0|0:0|0:0|0:0,0:0:0:0:
48,204,62222,2,0,L|72:136,3,50,8|8|2|2,0:0|0:0|0:0|0:0,0:0:0:0:
80,116,62669,1,4,0:3:0:0:
152,56,62893,1,4,0:3:0:0:
244,56,63117,1,4,0:3:0:0:
336,56,63341,6,0,P|380:76|384:128,1,100,12|8,0:3|0:0,0:0:0:0:
324,192,63789,1,2,0:0:0:0:
324,192,64013,1,10,0:0:0:0:
240,160,64237,2,0,P|192:160|172:204,1,100,0|8,0:0|0:0,0:0:0:0:
204,288,64684,1,0,0:0:0:0:
116,308,64908,1,10,0:0:0:0:
44,252,65132,6,0,P|14:195|36:139,2,100,2|8|0,0:0|0:0|0:0,0:0:0:0:
108,188,65804,1,10,0:0:0:0:
116,100,66028,2,0,P|136:60|188:48,2,100,0|8|0,0:0|0:0|0:0,0:0:0:0:
188,152,66699,6,0,P|248:200|364:144,1,200,10|8,0:0|0:0,0:0:0:0:
376,120,67259,1,0,0:0:0:0:
392,80,67371,1,2,0:0:0:0:
476,112,67595,1,10,0:0:0:0:
452,200,67819,2,0,P|374:279|283:303,1,200,4|0,0:0|0:0,0:0:0:0:
204,284,68490,1,8,0:0:0:0:
224,196,68714,6,0,L|188:64,1,100,0|10,0:0|0:0,0:0:0:0:
288,80,69162,2,0,L|324:212,1,100,0|10,0:0|0:0,0:0:0:0:
336,264,69610,1,0,0:0:0:0:
276,332,69834,1,6,0:3:0:0:
188,332,70057,1,6,0:3:0:0:
96,332,70281,1,4,0:3:0:0:
28,216,70505,6,0,P|0:176|24:136,1,100,4|8,0:0|0:0,0:0:0:0:
64,116,70841,2,0,L|224:116,1,150,2|8,0:0|0:0,0:0:0:0:
300,88,71401,2,0,P|328:128|304:168,1,100,2|8,0:0|0:0,0:0:0:0:
264,188,71737,2,0,L|104:188,1,150,2|8,0:0|0:0,0:0:0:0:
28,216,72296,5,2,0:0:0:0:
68,296,72520,1,8,0:0:0:0:
160,288,72744,2,0,P|220:264|256:272,1,100,2|8,0:0|0:0,0:0:0:0:
296,284,73080,1,0,0:0:0:0:
336,304,73192,2,0,L|432:348,1,100,2|8,0:0|0:0,0:0:0:0:
484,276,73640,2,0,L|416:180,1,100,8|10,0:0|0:0,0:0:0:0:
380,120,74087,5,4,0:3:0:0:
312,64,74311,1,8,0:0:0:0:
260,36,74460,2,0,P|208:16|124:44,1,133.333333333333,8|8,0:0|0:0,0:0:0:0:
40,128,74983,1,4,0:3:0:0:
108,184,75207,1,8,0:0:0:0:
160,212,75356,2,0,P|212:232|296:204,1,133.333333333333,8|8,0:0|0:0,0:0:0:0:
256,192,75878,12,2,76774,0:0:0:0:
388,56,77669,6,0,P|323:107|357:231,1,200,4|2,0:0|0:0,0:0:0:0:
256,248,78340,1,8,0:0:0:0:
174,214,78565,2,0,P|189:107|124:56,1,200,2|2,0:0|0:0,0:0:0:0:
40,88,79236,1,8,0:0:0:0:
28,176,79460,5,2,0:0:0:0:
88,240,79683,1,10,0:0:0:0:
174,214,79908,1,0,0:0:0:0:
208,132,80132,2,0,P|236:104|340:192,1,200,8|10,0:0|0:0,0:0:0:0:
240,360,80915,5,2,0:0:0:0:
196,352,81027,1,8,0:0:0:0:
168,316,81139,1,0,0:0:0:0:
156,276,81251,2,0,P|164:222|74:114,1,200,2|2,0:0|0:0,0:0:0:0:
117,33,81922,1,8,0:0:0:0:
208,31,82147,2,0,P|271:152|323:166,1,200,2|2,0:0|0:0,0:0:0:0:
372,244,82818,1,8,0:0:0:0:
316,312,83042,5,2,0:0:0:0:
240,260,83266,1,10,0:0:0:0:
156,292,83489,1,0,0:0:0:0:
92,232,83713,1,8,0:0:0:0:
256,24,84161,5,2,0:0:0:0:
256,24,84311,2,0,B|280:52|232:124|256:152,1,133.333333333333,2|0,0:0|0:0,0:0:0:0:
192,216,84833,5,4,0:0:0:0:
144,140,85057,1,8,0:0:0:0:
56,116,85281,2,0,P|0:156|20:244,2,150,2|0|10,0:0|0:0|0:0,0:0:0:0:
96,196,86176,1,0,0:0:0:0:
108,284,86400,1,10,0:0:0:0:
224,284,86624,5,4,0:0:0:0:
284,284,87072,1,0,0:0:0:0:
324,256,87407,2,0,P|384:284|324:312,1,162.500006198883,4|0,0:0|0:0,0:0:0:0:
256,372,88117,6,0,L|172:372,1,83.3333333333333,2|0,0:0|0:0,0:0:0:0:
128,372,88415,1,2,0:0:0:0:
256,192,88639,12,4,90206,0:0:0:0:
388,168,91027,5,4,0:3:0:0:
384,156,91101,1,4,0:3:0:0:
340,80,91325,1,4,0:3:0:0:
256,48,91549,1,4,0:3:0:0:
172,80,91773,1,4,0:3:0:0:
128,156,91997,6,0,P|92:220|-12:184,2,200,12|2|2,0:3|0:0|0:0,0:0:0:0:
84,76,93117,2,0,P|64:52|-8:64,2,100,8|0|10,0:0|0:0|0:0,0:0:0:0:
212,112,93789,5,4,0:0:0:0:
296,84,94012,2,0,P|348:84|316:188,1,200,10|8,0:0|0:0,0:0:0:0:
232,204,94684,1,2,0:0:0:0:
300,263,94908,2,0,P|193:286|144:224,1,200,8|10,0:0|0:0,0:0:0:0:
124,136,95580,5,4,0:0:0:0:
332,332,96027,1,2,0:0:0:0:
364,84,96475,1,2,0:0:0:0:
280,48,96699,2,0,P|238:64|220:136,2,100,8|0|10,0:0|0:0|0:0,0:0:0:0:
288,168,97371,5,4,0:0:0:0:
280,256,97595,2,0,P|356:264|400:160,1,200,10|8,0:0|0:0,0:0:0:0:
364,84,98266,2,0,L|408:36,2,50,2|0|8,0:0|0:0|0:0,0:0:0:0:
276,72,98714,1,4,0:3:0:0:
188,64,98938,1,0,0:0:0:0:
144,60,99050,1,2,0:0:0:0:
100,76,99162,1,4,0:0:0:0:
36,140,99386,6,0,L|16:212,1,66.6666666666667,8|8,0:0|0:0,0:0:0:0:
20,236,99610,2,0,L|64:356,2,100,0|8|4,0:0|0:0|0:0,0:0:0:0:
108,256,100281,6,0,L|172:323,1,66.6666666666667,0|8,0:0|0:0,0:0:0:0:
174,328,100505,2,0,L|276:356,2,100,0|8|4,0:0|0:0|0:0,0:0:0:0:
236,264,101177,6,0,L|324:272,1,66.6666666666667,0|8,0:0|0:0,0:0:0:0:
332,268,101401,1,0,0:0:0:0:
396,204,101625,1,8,0:0:0:0:
396,112,101849,1,10,0:0:0:0:
396,112,102296,5,4,0:0:0:0:
