osu file format v12

[General]
AudioFilename: ROUND.mp3
AudioLeadIn: 1985
PreviewTime: 41632
Countdown: 0
SampleSet: Normal
StackLeniency: 0.7
Mode: 1
LetterboxInBreaks: 0
WidescreenStoryboard: 0

[Editor]
DistanceSpacing: 1.1
BeatDivisor: 6
GridSize: 8

[Metadata]
Title:ROUND!
TitleUnicode:ROUND!
Artist:WESTARENA by MLREC.
ArtistUnicode:WESTARENA by MLREC.
Creator:Sushi
Version:Futsuu
Source:Reflec Beat
Tags:S.S.D.
BeatmapID:255758
BeatmapSetID:88125

[Difficulty]
HPDrainRate:4
CircleSize:5
OverallDifficulty:4
ApproachRate:5
SliderMultiplier:1.4
SliderTickRate:1

[Events]
//Background and Video events
0,0,"round.jpg",0,40
//Break Periods
//Storyboard Layer 0 (Background)
//Storyboard Layer 1 (Fail)
//Storyboard Layer 2 (Pass)
//Storyboard Layer 3 (Foreground)
//Storyboard Sound Samples
//Background Colour Transformations
3,100,163,162,255

[TimingPoints]
655,447.761194029851,4,1,0,100,1,0
41849,-100,4,1,0,100,0,1
54386,-100,4,1,0,100,0,0
77669,-100,4,1,0,100,0,1
90207,-100,4,1,0,100,0,0

[HitObjects]
256,188,655,1,0,0:0:0:0:
256,188,1102,1,0,0:0:0:0:
256,188,1550,1,0,0:0:0:0:
256,188,1774,1,8,0:0:0:0:
256,188,1998,1,8,0:0:0:0:
256,188,2446,1,4,0:0:0:0:
256,188,2893,1,0,0:0:0:0:
256,188,3341,1,8,0:0:0:0:
256,188,3565,1,0,0:0:0:0:
256,188,4013,1,8,0:0:0:0:
256,188,4237,1,0,0:0:0:0:
256,188,4460,1,8,0:0:0:0:
256,188,4908,1,0,0:0:0:0:
256,188,5132,1,8,0:0:0:0:
256,188,5356,1,0,0:0:0:0:
256,188,5804,1,8,0:0:0:0:
256,188,6028,1,4,0:0:0:0:
256,188,6475,1,0,0:0:0:0:
256,188,6923,1,8,0:0:0:0:
256,188,7147,1,0,0:0:0:0:
256,188,7595,1,8,0:0:0:0:
256,188,7819,1,0,0:0:0:0:
256,188,8043,1,8,0:0:0:0:
256,188,8490,1,0,0:0:0:0:
256,188,8714,1,0,0:0:0:0:
256,188,9162,1,0,0:0:0:0:
256,188,9610,1,0,0:0:0:0:
256,188,9834,1,8,0:0:0:0:
256,188,10281,1,8,0:0:0:0:
256,188,10505,1,0,0:0:0:0:
256,188,10729,1,8,0:0:0:0:
256,188,11177,1,8,0:0:0:0:
256,188,11401,1,0,0:0:0:0:
256,188,11625,1,8,0:0:0:0:
256,188,12072,1,0,0:0:0:0:
256,188,12296,1,0,0:0:0:0:
256,188,12744,1,8,0:0:0:0:
256,188,13192,1,0,0:0:0:0:
256,188,13416,1,8,0:0:0:0:
256,188,13863,1,8,0:0:0:0:
256,188,14311,1,8,0:0:0:0:
256,188,14535,1,0,0:0:0:0:
256,188,14759,1,8,0:0:0:0:
256,188,15207,1,0,0:0:0:0:
256,188,15431,1,0,0:0:0:0:
256,188,15655,1,0,0:0:0:0:
256,188,15878,1,0,0:0:0:0:
256,188,16326,1,8,0:0:0:0:
256,188,16774,1,4,0:0:0:0:
256,188,16998,1,8,0:0:0:0:
256,188,17446,1,8,0:0:0:0:
256,188,17669,1,0,0:0:0:0:
256,188,17893,1,8,0:0:0:0:
256,188,18341,1,8,0:0:0:0:
256,188,18565,1,0,0:0:0:0:
256,188,18789,1,8,0:0:0:0:
256,188,19013,1,0,0:0:0:0:
256,188,19237,1,8,0:0:0:0:
256,188,19460,1,0,0:0:0:0:
256,188,19908,1,0,0:0:0:0:
256,188,20356,1,4,0:0:0:0:
256,188,20580,1,8,0:0:0:0:
256,188,21028,1,8,0:0:0:0:
256,188,21475,1,8,0:0:0:0:
256,188,21699,1,0,0:0:0:0:
256,188,21923,1,8,0:0:0:0:
256,188,22371,1,8,0:0:0:0:
256,188,22819,1,8,0:0:0:0:
256,188,23043,1,4,0:0:0:0:
256,188,23490,1,4,0:0:0:0:
256,188,23938,1,4,0:0:0:0:
256,188,24610,1,8,0:0:0:0:
256,188,24834,1,0,0:0:0:0:
256,188,25281,1,0,0:0:0:0:
256,188,25729,1,0,0:0:0:0:
256,188,26401,1,8,0:0:0:0:
256,188,26625,1,0,0:0:0:0:
256,188,27072,1,0,0:0:0:0:
256,188,27520,1,4,0:0:0:0:
256,188,27744,1,8,0:0:0:0:
256,188,28192,1,8,0:0:0:0:
256,188,28640,1,8,0:0:0:0:
256,188,29087,1,0,0:0:0:0:
256,188,29311,1,8,0:0:0:0:
256,188,29535,1,8,0:0:0:0:
256,188,29759,1,0,0:0:0:0:
256,188,29983,1,0,0:0:0:0:
256,188,30207,1,8,0:0:0:0:
256,188,30655,1,8,0:0:0:0:
256,188,31102,1,4,0:0:0:0:
256,188,31774,1,8,0:0:0:0:
256,188,31998,1,0,0:0:0:0:
256,188,32445,1,0,0:0:0:0:
256,188,32893,1,0,0:0:0:0:
256,188,33565,1,8,0:0:0:0:
256,188,33789,1,0,0:0:0:0:
256,188,34237,1,8,0:0:0:0:
256,188,34460,1,0,0:0:0:0:
256,188,34684,1,4,0:0:0:0:
256,188,35132,1,0,0:0:0:0:
256,188,35580,1,0,0:0:0:0:
256,188,35804,1,8,0:0:0:0:
256,188,36028,1,8,0:0:0:0:
256,188,36475,1,0,0:0:0:0:
256,188,36923,1,0,0:0:0:0:
256,188,37371,1,0,0:0:0:0:
256,188,37595,1,8,0:0:0:0:
256,188,37819,1,8,0:0:0:0:
256,192,38266,2,0,L|544:192,2,280
272,192,40505,1,0,0:0:0:0:
272,192,40729,1,8,0:0:0:0:
272,192,40953,1,0,0:0:0:0:
272,192,41401,1,0,0:0:0:0:
272,192,41849,1,4,0:0:0:0:
272,192,42296,1,4,0:0:0:0:
272,192,42744,1,4,0:0:0:0:
272,192,43192,1,4,0:0:0:0:
272,192,43640,1,0,0:0:0:0:
272,192,43863,1,0,0:0:0:0:
272,192,44087,1,8,0:0:0:0:
272,192,44311,1,8,0:0:0:0:
272,192,44535,1,0,0:0:0:0:
272,192,45431,1,4,0:0:0:0:
272,192,45878,1,4,0:0:0:0:
272,192,46326,1,4,0:0:0:0:
272,192,46774,1,4,0:0:0:0:
272,192,47222,1,0,0:0:0:0:
272,192,47446,1,8,0:0:0:0:
272,192,47669,1,0,0:0:0:0:
272,192,47893,1,0,0:0:0:0:
272,192,48341,1,12,0:0:0:0:
272,192,49013,1,4,0:0:0:0:
272,192,49460,1,0,0:0:0:0:
272,192,49908,1,8,0:0:0:0:
272,192,50356,1,0,0:0:0:0:
272,192,50804,1,4,0:0:0:0:
272,192,51252,1,4,0:0:0:0:
272,192,51587,1,4,0:0:0:0:
272,192,52595,2,0,P|384:80|424:80,2,210
272,192,54386,1,4,0:0:0:0:
272,192,55281,1,0,0:0:0:0:
272,192,55729,1,0,0:0:0:0:
272,192,55953,1,0,0:0:0:0:
272,192,56177,1,4,0:0:0:0:
272,192,56625,1,0,0:0:0:0:
272,192,57072,1,8,0:0:0:0:
272,192,57296,1,8,0:0:0:0:
272,192,57520,1,0,0:0:0:0:
272,192,57744,1,0,0:0:0:0:
272,192,58192,1,12,0:0:0:0:
272,192,58640,1,12,0:0:0:0:
272,192,59087,1,12,0:0:0:0:
272,192,59535,1,12,0:0:0:0:
272,192,59759,1,0,0:0:0:0:
272,192,60207,1,0,0:0:0:0:
272,192,60655,1,8,0:0:0:0:
272,192,60878,1,0,0:0:0:0:
272,192,61102,1,8,0:0:0:0:
272,192,61326,1,0,0:0:0:0:
272,192,61774,1,12,0:0:0:0:
272,192,62222,1,12,0:0:0:0:
272,192,62669,1,0,0:0:0:0:
272,192,62893,1,0,0:0:0:0:
272,192,63117,1,0,0:0:0:0:
272,192,63341,1,0,0:0:0:0:
272,192,63789,1,0,0:0:0:0:
272,192,64237,1,0,0:0:0:0:
272,192,64460,1,8,0:0:0:0:
272,192,64684,1,0,0:0:0:0:
272,192,64908,1,8,0:0:0:0:
272,192,65356,1,12,0:0:0:0:
272,192,65804,1,12,0:0:0:0:
272,192,66252,1,12,0:0:0:0:
272,192,66699,1,12,0:0:0:0:
272,192,66923,1,0,0:0:0:0:
272,192,67371,1,8,0:0:0:0:
272,192,67819,1,0,0:0:0:0:
272,192,68043,1,8,0:0:0:0:
272,192,68266,1,0,0:0:0:0:
272,192,68490,1,0,0:0:0:0:
272,192,68938,1,12,0:0:0:0:
272,192,69386,1,12,0:0:0:0:
272,192,69834,1,0,0:0:0:0:
272,192,70057,1,0,0:0:0:0:
272,192,70281,1,0,0:0:0:0:
272,192,70505,1,0,0:0:0:0:
256,188,71177,1,8,0:0:0:0:
256,188,71401,1,0,0:0:0:0:
256,188,71848,1,0,0:0:0:0:
256,188,72296,1,0,0:0:0:0:
256,188,72968,1,8,0:0:0:0:
256,188,73192,1,0,0:0:0:0:
256,188,73639,1,0,0:0:0:0:
256,188,74087,1,0,0:0:0:0:
256,188,74535,1,8,0:0:0:0:
256,188,74983,1,0,0:0:0:0:
256,188,75431,1,8,0:0:0:0:
256,188,75655,1,8,0:0:0:0:
256,188,75878,2,4,P|320:80|440:144,1,280
272,192,77669,1,4,0:0:0:0:
272,192,78116,1,4,0:0:0:0:
272,192,78564,1,4,0:0:0:0:
272,192,79012,1,4,0:0:0:0:
272,192,79460,1,0,0:0:0:0:
272,192,79683,1,0,0:0:0:0:
272,192,79907,1,8,0:0:0:0:
272,192,80131,1,8,0:0:0:0:
272,192,80355,1,0,0:0:0:0:
272,192,81251,1,4,0:0:0:0:
272,192,81698,1,4,0:0:0:0:
272,192,82146,1,4,0:0:0:0:
272,192,82594,1,4,0:0:0:0:
272,192,83042,1,8,0:0:0:0:
272,192,83266,1,0,0:0:0:0:
272,192,83489,1,0,0:0:0:0:
272,192,83713,1,8,0:0:0:0:
272,192,84161,1,12,0:0:0:0:
272,192,84833,1,4,0:0:0:0:
272,192,85280,1,0,0:0:0:0:
272,192,85728,1,8,0:0:0:0:
272,192,86176,1,0,0:0:0:0:
272,192,86624,1,4,0:0:0:0:
272,192,87072,1,4,0:0:0:0:
272,192,87407,1,4,0:0:0:0:
272,192,88415,2,0,P|384:80|416:88,2,210
272,192,90206,1,4,0:0:0:0:
272,192,91101,1,0,0:0:0:0:
272,192,91325,1,0,0:0:0:0:
272,192,91549,1,0,0:0:0:0:
256,188,91998,1,4,0:0:0:0:
256,188,92445,1,0,0:0:0:0:
256,188,92893,1,8,0:0:0:0:
256,188,93117,1,0,0:0:0:0:
256,188,93565,1,8,0:0:0:0:
256,188,93789,1,0,0:0:0:0:
256,188,94012,1,8,0:0:0:0:
256,188,94460,1,12,0:0:0:0:
256,188,94908,1,12,0:0:0:0:
256,188,95356,1,12,0:0:0:0:
256,188,95580,1,0,0:0:0:0:
256,188,96027,1,0,0:0:0:0:
256,188,96475,1,8,0:0:0:0:
256,188,96699,1,0,0:0:0:0:
256,188,97147,1,8,0:0:0:0:
256,188,97371,1,0,0:0:0:0:
256,188,97595,1,8,0:0:0:0:
256,188,98042,1,12,0:0:0:0:
256,188,98490,1,12,0:0:0:0:
256,188,98938,1,12,0:0:0:0:
256,188,99162,1,0,0:0:0:0:
256,188,99535,1,8,0:0:0:0:
256,188,99834,1,8,0:0:0:0:
256,188,100057,1,0,0:0:0:0:
256,188,100431,1,8,0:0:0:0:
256,188,100729,1,8,0:0:0:0:
256,188,100953,1,0,0:0:0:0:
256,188,101326,1,8,0:0:0:0:
256,188,101625,1,0,0:0:0:0:
256,188,101849,1,0,0:0:0:0:
256,188,102296,1,12,0:0:0:0:
