osu file format v12

[General]
AudioFilename: ROUND.mp3
AudioLeadIn: 0
PreviewTime: 41632
Countdown: 0
SampleSet: Soft
StackLeniency: 0.7
Mode: 0
LetterboxInBreaks: 1
WidescreenStoryboard: 0

[Editor]
DistanceSpacing: 0.7
BeatDivisor: 6
GridSize: 4

[Metadata]
Title:ROUND!
TitleUnicode:ROUND!
Artist:WESTARENA by MLREC.
ArtistUnicode:WESTARENA by MLREC.
Creator:Sushi
Version:Easy
Source:Reflec Beat
Tags:S.S.D.
BeatmapID:255756
BeatmapSetID:88125

[Difficulty]
HPDrainRate:3
CircleSize:3
OverallDifficulty:1
ApproachRate:4
SliderMultiplier:1.4
SliderTickRate:1

[Events]
//Background and Video events
0,0,"round.jpg",0,0
//Break Periods
//Storyboard Layer 0 (Background)
//Storyboard Layer 1 (Fail)
//Storyboard Layer 2 (Pass)
//Storyboard Layer 3 (Foreground)
//Storyboard Sound Samples
//Background Colour Transformations
3,100,163,162,255

[TimingPoints]
655,447.761194029851,4,2,1,100,1,0
41849,-100,4,2,1,100,0,1
54386,-100,4,2,1,100,0,0
77669,-100,4,2,1,100,0,1
90207,-100,4,2,1,100,0,0
102296,-100,4,2,1,100,0,1
102371,-100,4,2,1,100,0,0

[HitObjects]
40,236,2446,2,0,P|72:320|232:252,1,280,4|2,0:0|0:0,0:0:0:0:
236,232,3565,1,8,0:0:0:0:
344,132,4237,5,4,0:0:0:0:
256,88,4684,1,0,0:0:0:0:
168,132,5132,1,2,0:0:0:0:
168,132,5356,1,8,0:0:0:0:
196,276,6028,6,0,P|236:348|396:276,1,280,4|2,0:0|0:0,0:0:0:0:
400,244,7147,1,8,0:0:0:0:
404,96,7819,5,4,0:0:0:0:
316,48,8266,1,0,0:0:0:0:
220,60,8714,2,0,L|136:76,2,70,2|8|4,0:0|0:0|0:3,0:0:0:0:
256,152,9610,5,4,0:0:0:0:
236,248,10057,1,0,0:0:0:0:
144,280,10505,2,0,P|24:256|32:168,1,210,2|8,0:0|0:0,0:0:0:0:
40,144,11401,5,2,0:0:0:0:
104,72,11849,1,0,0:0:0:0:
200,48,12296,2,0,P|284:80|236:240,1,280,2|2,0:0|0:0,0:0:0:0:
200,256,13416,5,10,0:0:0:0:
104,256,13863,1,10,0:0:0:0:
36,184,14311,1,10,0:0:0:0:
36,84,14759,1,10,0:0:0:0:
100,8,15207,6,0,L|180:8,3,70,10|8|2|8,0:0|0:0|0:0|0:0,0:0:0:0:
268,12,16326,1,8,0:0:0:0:
316,20,16550,1,8,0:0:0:0:
356,48,16774,5,4,0:0:0:0:
396,140,17222,1,0,0:0:0:0:
380,236,17669,2,0,P|284:332|208:296,1,210,2|8,0:0|0:0,0:0:0:0:
184,288,18565,5,2,0:0:0:0:
116,216,19013,1,0,0:0:0:0:
128,120,19460,2,0,P|169:79|316:196,1,280,2|2,0:0|0:0,0:0:0:0:
328,228,20580,5,10,0:0:0:0:
424,208,21028,1,10,0:0:0:0:
448,112,21475,2,0,L|460:40,2,70,10|0|10,0:0|0:0|0:0,0:0:0:0:
352,88,22371,5,10,0:0:0:0:
256,72,22819,1,10,0:0:0:0:
214,96,23043,1,4,0:3:0:0:
172,119,23266,1,6,0:3:0:0:
131,143,23490,1,4,0:3:0:0:
52,200,23938,6,0,P|40:296|140:296,1,210,12|8,0:3|0:0,0:0:0:0:
164,264,24834,2,0,P|256:220|348:264,1,210,0|8,0:0|0:0,0:0:0:0:
380,304,25729,6,0,P|472:296|460:200,1,210,2|8,0:0|0:0,0:0:0:0:
424,164,26625,1,0,0:0:0:0:
352,100,27072,1,2,0:0:0:0:
256,76,27520,6,0,P|196:88|247:198,1,210,4|8,0:0|0:0,0:0:0:0:
282,185,28416,2,0,P|316:296|256:308,1,210,0|8,0:0|0:0,0:0:0:0:
208,300,29311,5,4,0:3:0:0:
112,272,29759,1,4,0:3:0:0:
72,244,29983,1,4,0:3:0:0:
52,200,30207,2,0,P|64:116|128:84,1,140,4|2,0:3|0:0,0:0:0:0:
144,176,31102,6,0,P|208:268|240:220,1,210,4|8,0:0|0:0,0:0:0:0:
256,184,31998,2,0,P|286:146|350:238,1,210,0|8,0:0|0:0,0:0:0:0:
316,272,32893,6,0,P|380:364|412:316,1,210,2|0,0:0|0:0,0:0:0:0:
424,280,33789,1,2,0:0:0:0:
452,188,34237,1,8,0:0:0:0:
476,92,34684,1,4,0:0:0:0:
340,40,35356,5,8,0:0:0:0:
292,56,35580,1,2,0:0:0:0:
192,56,36028,1,2,0:0:0:0:
144,40,36252,2,0,P|56:56|48:184,1,210,8|0,0:0|0:0,0:0:0:0:
52,208,37147,1,8,0:0:0:0:
128,272,37595,1,10,0:0:0:0:
256,192,38043,12,2,40057,0:0:0:0:
256,288,40953,5,4,0:0:0:0:
196,100,41849,6,0,P|100:48|96:52,3,140,4|2|2|2,0:0|0:0|0:0|0:0,0:0:0:0:
20,104,43640,1,2,0:0:0:0:
0,200,44087,2,0,P|8:288|124:296,1,210,0|2,0:0|0:0,0:0:0:0:
252,260,45431,6,0,P|336:244|380:304,3,140,2|2|2|2,0:0|0:0|0:0|0:0,0:0:0:0:
456,228,47222,1,2,0:0:0:0:
448,132,47669,2,0,P|320:148|276:88,1,210,0|2,0:0|0:0,0:0:0:0:
256,240,49013,5,4,0:0:0:0:
160,252,49460,2,0,P|68:208|172:112,1,280,0|2,0:0|0:0,0:0:0:0:
256,140,50804,1,4,0:0:0:0:
256,240,51252,2,0,L|256:356,1,105,0|4,0:0|0:0,0:0:0:0:
256,192,52595,12,4,54386,0:0:0:0:
160,264,55281,6,4,L|92:216,2,70,4|4|4,0:3|0:3|0:3,0:0:0:0:
204,288,55953,1,4,0:3:0:0:
252,304,56177,6,0,P|320:324|388:308,2,140,12|2|2,0:3|0:0|0:0,0:0:0:0:
184,232,57520,1,0,0:0:0:0:
144,144,57968,5,0,0:0:0:0:
120,100,58192,2,0,P|60:68|0:100,3,140,10|10|10|10,0:0|0:0|0:0|0:0,0:0:0:0:
0,148,59759,6,0,L|0:296,1,140,4|0,0:0|0:0,0:0:0:0:
68,360,60655,1,2,0:0:0:0:
156,320,61102,1,0,0:0:0:0:
244,276,61550,5,0,0:0:0:0:
296,272,61774,2,0,P|360:296|431:264,1,140,10|10,0:0|0:0,0:0:0:0:
360,200,62669,1,6,0:3:0:0:
360,200,62893,1,6,0:3:0:0:
308,120,63341,6,0,P|228:84|120:136,1,210,4|2,0:0|0:0,0:0:0:0:
128,232,64460,2,0,P|208:268|316:216,1,210,0|2,0:0|0:0,0:0:0:0:
352,188,65356,5,10,0:0:0:0:
440,232,65804,1,10,0:0:0:0:
436,328,66252,1,10,0:0:0:0:
344,360,66699,1,10,0:0:0:0:
296,348,66923,6,0,P|204:308|28:356,2,280,4|4|4,0:0|0:0|0:0,0:0:0:0:
328,312,68938,5,10,0:0:0:0:
364,220,69386,1,10,0:0:0:0:
304,140,69834,1,8,0:0:0:0:
260,116,70057,1,8,0:0:0:0:
216,92,70281,1,8,0:0:0:0:
172,68,70505,6,8,P|112:44|44:164,1,210,4|8,0:0|0:0,0:0:0:0:
36,192,71401,2,0,P|61:251|185:234,1,210,2|8,0:0|0:0,0:0:0:0:
208,192,72296,2,0,P|333:183|354:244,1,210,2|8,0:0|0:0,0:0:0:0:
344,292,73192,5,0,0:0:0:0:
300,312,73416,1,8,0:0:0:0:
252,316,73640,1,8,0:0:0:0:
256,192,74087,12,2,76774,0:0:0:0:
316,284,77669,6,0,P|412:336|416:332,3,140,4|2|2|2,0:0|0:0|0:0|0:0,0:0:0:0:
492,280,79460,1,2,0:0:0:0:
512,184,79908,2,0,P|504:96|388:88,1,210,0|2,0:0|0:0,0:0:0:0:
260,124,81251,6,0,P|176:140|132:80,3,140,2|2|2|2,0:0|0:0|0:0|0:0,0:0:0:0:
56,156,83042,1,2,0:0:0:0:
64,252,83490,2,0,P|192:236|236:296,1,210,0|2,0:0|0:0,0:0:0:0:
256,144,84833,5,4,0:0:0:0:
352,132,85281,2,0,P|444:176|340:272,1,280,0|2,0:0|0:0,0:0:0:0:
256,244,86624,1,4,0:0:0:0:
256,144,87072,2,0,L|256:28,1,105,0|4,0:0|0:0,0:0:0:0:
256,192,88415,12,4,90206,0:0:0:0:
352,120,91102,6,4,L|420:168,2,70,4|4|4,0:3|0:3|0:3,0:0:0:0:
308,96,91773,1,4,0:3:0:0:
264,76,91998,6,0,P|168:84|152:244,1,280,12|2,0:3|0:0,0:0:0:0:
180,276,93117,1,8,0:0:0:0:
328,276,93789,6,0,L|304:184,1,70,4|10,0:0|0:0,0:0:0:0:
296,112,94460,1,10,0:0:0:0:
364,40,94908,1,10,0:0:0:0:
452,88,95356,1,10,0:0:0:0:
472,132,95580,6,0,P|480:204|328:188,1,280,4|2,0:0|0:0,0:0:0:0:
320,144,96699,1,8,0:0:0:0:
200,60,97371,6,0,L|152:128,1,70,4|10,0:0|0:0,0:0:0:0:
108,200,98043,1,10,0:0:0:0:
80,240,98266,2,0,L|39:297,2,70,0|10|4,0:0|0:0|0:3,0:0:0:0:
156,304,99162,6,0,P|261:264|240:176,1,210,4|8,0:0|0:0,0:0:0:0:
224,144,100057,2,0,P|212:64|317:25,1,210,4|8,0:0|0:0,0:0:0:0:
356,56,100953,1,4,0:0:0:0:
356,156,101401,5,2,0:0:0:0:
356,204,101625,1,8,0:0:0:0:
356,252,101849,1,2,0:0:0:0:
356,348,102296,5,4,0:0:0:0:
