osu file format v5

[General]
AudioFilename: 風神少女.mp3
AudioLeadIn: 955
PreviewTime: 0
Countdown: 1
SampleSet: Soft
EditorBookmarks: 0,26713,30713,52379,58879,63379,63879,69379,83379,95213,101379,108046,133546,159046,165713,178463,190213,203588,232588

[Metadata]
Title:Wind of the god GIRL
Artist:WEST PROJECT
Creator:035695459
Version:Normal

[Difficulty]
HPDrainRate:2
CircleSize:5
OverallDifficulty:2
SliderMultiplier:2.2
SliderTickRate:4

[Events]
//Background and Video events
0,0,"001.jpg"
//Break Periods
2,25579,50653
2,83246,87653
2,107913,127319
//Storyboard Layer 0 (Background)
//Storyboard Layer 1 (Failing)
//Storyboard Layer 2 (Passing)
//Storyboard Layer 3 (Foreground)
//Storyboard Sound Samples
//Background Colour Transformations
3,100,163,162,255

[TimingPoints]
0,1000,4,2,0,100
13713,1000,4,2,0,100

[HitObjects]
146,192,1833,1,0
256,192,1333,6,6,C|128:192,1,110
192,128,2166,1,0
226,64,2333,6,4,C|120:64,2,82.5
256,192,5500,5,0
256,192,5833,1,0
256,192,6166,1,0
160,192,7000,6,2,C|159:171|167:94|192:64|274:36|372:101|382:223|320:288|241:287|256:288,1,660
256,192,10833,12,6,12833
224,192,14213,1,0
384,192,15838,5,0
224,192,17379,5,0
288,192,19046,5,0
352,192,20713,5,0
256,192,22213,5,0
256,192,24046,12,6,25379
192,192,52546,5,4
256,192,52879,5,0
192,160,53379,5,0
192,128,53713,5,0
192,96,54213,5,0
256,96,54546,1,0
320,128,55046,1,0
256,192,55379,1,0
256,192,55713,5,0
256,192,56046,1,0
256,192,56546,5,0
256,192,56879,1,0
256,192,57379,5,0
256,192,57713,5,0
256,192,58213,5,0
256,192,58546,5,0
256,192,58879,5,0
256,128,59379,2,0,C|160:128,1,73.3333333333333
192,64,60046,1,0
288,64,61379,2,0,C|384:64,1,73.3333333333333
352,160,62046,1,0
352,224,62546,1,0
352,288,62879,2,0,C|288:288,1,36.6666666666667
256,192,64546,5,0
352,192,64879,5,0
352,192,65379,5,0
224,192,65713,5,0
128,192,66046,1,0
160,256,66546,1,0
256,256,66879,1,0
320,256,67379,1,0
320,192,67713,5,0
256,192,68046,1,0
192,192,68546,1,0
192,256,68879,1,0
320,256,69213,1,6
256,256,69713,6,6,C|256:160,1,73.3333333333333
256,256,70546,6,6,C|256:352,1,73.3333333333333
256,256,71213,6,2,C|384:256,1,110
160,288,73713,1,2
320,288,74546,5,2
288,288,74713,1,2
224,288,75046,2,2,C|224:96,1,183.333333333333
224,104,76046,1,2
256,192,76379,12,2,83046
256,192,89213,1,2
320,192,89546,1,2
384,192,90046,1,2
416,192,90379,1,2
416,288,90713,5,2
352,288,91213,1,2
256,288,91546,1,2
192,288,91879,1,2
192,224,92379,5,2
192,192,92713,1,2
256,192,93213,1,2
320,192,93546,5,2
416,192,93879,1,2
416,192,94379,1,2
352,192,94713,1,2
288,224,95213,5,0
256,256,95546,2,0,C|160:256,1,73.3333333333333
160,192,96379,6,0,C|256:128,1,110
320,224,97379,6,0,C|128:96,1,220
192,96,98879,5,4
224,96,99213,1,4
256,96,99379,1,4
288,96,99713,1,4
384,96,99879,2,0,C|96:288,1,330
256,192,102879,5,0
224,192,103213,6,0,C|160:192,3,36.6666666666667
160,192,103879,5,0
160,128,104046,5,0
224,128,104379,1,0
224,192,104879,2,0,C|352:192,2,110
224,192,106046,5,0
192,128,106379,6,0,C|320:128,2,110
192,128,107713,5,0
256,192,128879,5,0
320,192,130213,5,0
448,192,131713,5,0
448,256,132046,2,0,C|160:256,1,256.666666666667
192,192,133713,5,0
256,192,134546,5,0
352,192,135213,5,0
256,192,136046,5,0
192,192,136379,6,0,C|64:288,5,146.666666666667
64,256,140046,5,0
96,192,140879,1,0
160,128,141546,1,0
224,128,142379,1,0
256,128,143213,5,0
320,160,144046,5,0
352,224,144879,5,0
384,288,145546,5,0
288,288,146379,1,0
224,256,147213,1,0
160,192,148046,1,0
224,160,148713,1,0
256,192,149546,1,0
288,224,150379,1,0
334,292,150713,5,0
241,293,151046,1,0
288,256,151379,2,0,C|288:32,1,220
288,97,152713,5,0
288,161,153213,1,0
289,223,153546,1,0
256,192,153879,12,0,158713
195,147,159713,1,0
345,146,159879,1,0
343,281,160046,5,0
190,282,160213,2,0,C|68:279,1,110
70,253,160879,1,0
76,212,161379,2,0,C|319:73,1,256.666666666667
324,216,162963,5,0
285,237,163338,2,0,C|117:239,3,165
121,174,166088,5,0
119,124,166338,5,0
117,62,166713,6,0,C|240:64|239:63,1,137.5
293,78,167713,5,4
294,134,168088,1,4
318,212,168338,2,2,C|177:212,3,137.5
169,133,170463,1,2
169,133,170588,1,2
169,133,170838,1,2
205,104,171213,1,2
262,101,171588,5,2
298,102,171713,5,2
330,102,172088,1,2
359,102,172213,1,2
423,101,172588,1,2
434,184,172963,6,2,C|436:265,11,55
439,275,176088,5,2
415,299,176213,6,2,C|331:117|275:72|194:78|142:137|129:150,1,440
256,192,179338,12,2,190088
252,194,190963,5,2
376,189,191338,1,2
448,202,191838,1,2
439,231,192088,1,2
319,321,192463,5,2
222,318,192838,1,2
141,329,193213,1,2
80,326,193713,1,2
87,246,194463,1,2
88,217,195213,1,2
88,169,196088,1,2
89,115,196838,1,2
89,115,197213,1,2
89,115,197588,5,2
89,115,198088,1,2
89,115,198463,1,2
157,117,199213,5,2
157,117,199588,5,2
157,117,199963,1,2
334,139,200588,1,6
425,164,201088,5,6
431,239,201463,6,2,C|358:241|286:242|216:247|162:249|112:251|64:252|12:255,1,412.5
254,198,203963,5,4
254,198,204338,1,4
254,198,204713,1,4
254,198,205088,1,4
254,198,205588,5,4
254,198,205963,1,4
254,198,206338,1,4
254,198,206713,5,6
254,198,207213,1,6
254,198,207588,2,6,C|336:276,1,110
254,198,208338,6,6,C|171:282,1,110
254,198,209088,6,6,C|256:271|256:310,1,110
254,198,209963,6,6,C|254:92,2,82.5
258,187,211088,5,4
290,176,211588,1,4
316,166,211963,1,4
346,151,212338,1,4
374,131,212713,5,4
400,165,213088,1,4
408,199,213588,1,4
411,227,213963,1,4
363,300,214213,5,4
256,192,214338,12,4,216338
104,108,217588,2,4,C|234:101|224:105,2,137.5
116,247,219213,2,4,C|318:247,1,192.5
166,147,220838,6,2,C|351:147,2,165
188,82,222463,5,4
268,77,222963,5,4
358,80,223338,1,4
385,101,223588,1,4
413,128,223713,1,4
