osu file format v14

[General]
AudioFilename: WEAVER () - Shine.mp3
AudioLeadIn: 0
PreviewTime: -1
Countdown: 1
SampleSet: Normal
StackLeniency: 0.7
Mode: 2
LetterboxInBreaks: 1
SkinPreference:Default
WidescreenStoryboard: 0

[Editor]
DistanceSpacing: 0.9
BeatDivisor: 1
GridSize: 32
TimelineZoom: 0.1

[Metadata]
Title:WEAVER () - Shine
TitleUnicode:WEAVER (ウィーバー) - Shine
Artist:WEAVER
ArtistUnicode:WEAVER
Creator:TooDamnOtaku
Version:Normal
Source:
Tags:WEAVER
BeatmapID:671748
BeatmapSetID:299404

[Difficulty]
HPDrainRate:5
CircleSize:5
OverallDifficulty:5
ApproachRate:5
SliderMultiplier:0.400000005960464
SliderTickRate:4

[Events]
//Background and Video events
//Break Periods
2,147456,150243
//Storyboard Layer 0 (Background)
//Storyboard Layer 1 (Fail)
//Storyboard Layer 2 (Pass)
//Storyboard Layer 3 (Foreground)
//Storyboard Sound Samples

[TimingPoints]
751,465.099999999997,4,1,0,100,1,0

[HitObjects]
64,160,751,1,0,0:0:0:0:
128,128,1681,1,0,0:0:0:0:
128,224,2611,1,0,0:0:0:0:
128,224,3076,1,0,0:0:0:0:
128,224,3541,1,0,0:0:0:0:
128,224,4006,1,0,0:0:0:0:
128,224,4471,1,0,0:0:0:0:
128,224,4936,1,0,0:0:0:0:
128,224,5401,1,0,0:0:0:0:
160,96,5867,1,0,0:0:0:0:
352,160,6332,1,0,0:0:0:0:
96,256,6797,1,0,0:0:0:0:
288,32,7262,1,0,0:0:0:0:
192,192,7727,1,0,0:0:0:0:
320,288,8192,1,0,0:0:0:0:
320,224,8657,1,0,0:0:0:0:
320,224,9122,1,0,0:0:0:0:
320,224,9587,1,0,0:0:0:0:
320,224,10052,1,0,0:0:0:0:
320,224,10983,1,0,0:0:0:0:
320,224,11448,1,0,0:0:0:0:
320,224,11913,1,0,0:0:0:0:
160,192,12378,1,0,0:0:0:0:
352,64,12843,1,0,0:0:0:0:
224,192,13308,1,0,0:0:0:0:
192,128,13773,1,0,0:0:0:0:
416,224,14238,1,0,0:0:0:0:
192,288,14703,1,0,0:0:0:0:
192,160,15634,1,0,0:0:0:0:
192,160,16099,1,0,0:0:0:0:
192,160,16564,1,0,0:0:0:0:
192,160,17029,1,0,0:0:0:0:
192,160,17494,1,0,0:0:0:0:
192,160,17959,1,0,0:0:0:0:
192,160,18424,1,0,0:0:0:0:
192,160,18889,1,0,0:0:0:0:
192,160,19354,1,0,0:0:0:0:
192,160,19820,1,0,0:0:0:0:
192,160,20285,1,0,0:0:0:0:
192,160,20750,1,0,0:0:0:0:
224,224,21215,1,0,0:0:0:0:
256,224,22145,1,0,0:0:0:0:
160,192,22610,1,0,0:0:0:0:
224,160,23075,1,0,0:0:0:0:
256,224,23540,1,0,0:0:0:0:
320,192,24005,1,0,0:0:0:0:
192,128,24471,1,0,0:0:0:0:
192,192,24936,1,0,0:0:0:0:
256,160,25401,1,0,0:0:0:0:
256,160,25866,1,0,0:0:0:0:
256,160,26331,1,0,0:0:0:0:
256,160,26796,1,0,0:0:0:0:
256,160,27261,1,0,0:0:0:0:
256,160,27726,1,0,0:0:0:0:
256,160,28191,1,0,0:0:0:0:
224,192,30517,1,0,0:0:0:0:
224,192,30982,1,0,0:0:0:0:
224,192,31447,1,0,0:0:0:0:
224,192,31912,1,0,0:0:0:0:
224,192,32377,1,0,0:0:0:0:
224,192,32842,1,0,0:0:0:0:
224,192,33307,1,0,0:0:0:0:
224,192,33773,1,0,0:0:0:0:
320,128,34238,1,0,0:0:0:0:
192,128,34703,1,0,0:0:0:0:
384,128,35168,1,0,0:0:0:0:
320,128,35633,1,0,0:0:0:0:
192,192,36098,1,0,0:0:0:0:
288,160,36563,1,0,0:0:0:0:
256,160,37028,1,0,0:0:0:0:
224,128,37493,1,0,0:0:0:0:
288,96,37958,1,0,0:0:0:0:
288,96,38424,1,0,0:0:0:0:
288,96,38889,1,0,0:0:0:0:
288,96,39354,1,0,0:0:0:0:
288,96,39819,1,0,0:0:0:0:
288,96,40284,1,0,0:0:0:0:
288,96,40749,1,0,0:0:0:0:
288,96,41214,1,0,0:0:0:0:
288,96,41679,1,0,0:0:0:0:
288,96,42144,1,0,0:0:0:0:
288,96,42609,1,0,0:0:0:0:
288,96,43075,1,0,0:0:0:0:
288,96,43540,1,0,0:0:0:0:
288,96,44005,1,0,0:0:0:0:
256,192,45400,12,0,59818,0:0:0:0:
0,160,59818,6,0,L|96:160,7,80.0000011920928
128,160,66795,1,0,0:0:0:0:
256,192,67260,1,0,0:0:0:0:
192,128,67725,1,0,0:0:0:0:
192,128,68190,1,0,0:0:0:0:
192,128,68655,1,0,0:0:0:0:
192,128,69120,1,0,0:0:0:0:
192,128,69585,1,0,0:0:0:0:
192,128,70050,1,0,0:0:0:0:
192,128,70515,1,0,0:0:0:0:
192,128,70981,1,0,0:0:0:0:
192,128,71446,1,0,0:0:0:0:
192,128,71911,1,0,0:0:0:0:
192,128,72376,1,0,0:0:0:0:
192,128,72841,1,0,0:0:0:0:
288,128,73306,1,0,0:0:0:0:
256,192,73771,1,0,0:0:0:0:
96,224,74236,2,0,L|128:128,6,80.0000011920928
96,160,81678,1,0,0:0:0:0:
224,160,82143,1,0,0:0:0:0:
96,128,82608,1,0,0:0:0:0:
192,192,83073,1,0,0:0:0:0:
352,128,83538,1,0,0:0:0:0:
160,160,84003,1,0,0:0:0:0:
320,224,84468,1,0,0:0:0:0:
192,160,84934,1,0,0:0:0:0:
256,96,85399,1,0,0:0:0:0:
256,96,85864,1,0,0:0:0:0:
96,160,89119,1,0,0:0:0:0:
320,192,89585,1,0,0:0:0:0:
256,192,90515,12,0,95166,0:0:0:0:
128,160,95631,5,0,0:0:0:0:
256,160,96096,1,0,0:0:0:0:
352,128,96561,1,0,0:0:0:0:
128,160,97026,1,0,0:0:0:0:
256,192,97491,12,0,100747,0:0:0:0:
160,192,101212,5,0,0:0:0:0:
352,128,101677,1,0,0:0:0:0:
160,64,102142,1,0,0:0:0:0:
224,160,102607,1,0,0:0:0:0:
352,160,103072,1,0,0:0:0:0:
192,256,103538,1,0,0:0:0:0:
224,96,104003,1,0,0:0:0:0:
160,160,105398,1,0,0:0:0:0:
256,160,105863,1,0,0:0:0:0:
256,128,106328,1,0,0:0:0:0:
224,128,106793,1,0,0:0:0:0:
192,192,107258,1,0,0:0:0:0:
192,192,107723,1,0,0:0:0:0:
192,192,108189,1,0,0:0:0:0:
192,192,108654,1,0,0:0:0:0:
320,192,109119,1,0,0:0:0:0:
320,192,109584,1,0,0:0:0:0:
320,192,110049,1,0,0:0:0:0:
320,192,110514,1,0,0:0:0:0:
320,192,110979,1,0,0:0:0:0:
320,192,111444,1,0,0:0:0:0:
320,192,111909,1,0,0:0:0:0:
320,192,112374,1,0,0:0:0:0:
96,160,112840,1,0,0:0:0:0:
64,128,113305,1,0,0:0:0:0:
64,128,113770,1,0,0:0:0:0:
64,128,114235,1,0,0:0:0:0:
128,160,114700,1,0,0:0:0:0:
160,160,115165,1,0,0:0:0:0:
160,160,115630,1,0,0:0:0:0:
160,160,116095,1,0,0:0:0:0:
160,160,116560,1,0,0:0:0:0:
160,160,117025,1,0,0:0:0:0:
160,160,117491,1,0,0:0:0:0:
160,160,117956,1,0,0:0:0:0:
160,160,118421,1,0,0:0:0:0:
160,160,118886,1,0,0:0:0:0:
160,160,119351,1,0,0:0:0:0:
160,160,119816,1,0,0:0:0:0:
160,224,120281,1,0,0:0:0:0:
224,192,121211,1,0,0:0:0:0:
128,160,121676,1,0,0:0:0:0:
288,128,122142,1,0,0:0:0:0:
192,160,122607,1,0,0:0:0:0:
192,160,123072,1,0,0:0:0:0:
192,160,123537,1,0,0:0:0:0:
192,160,124002,1,0,0:0:0:0:
192,160,124467,1,0,0:0:0:0:
192,160,124932,1,0,0:0:0:0:
192,160,125397,1,0,0:0:0:0:
192,160,125862,1,0,0:0:0:0:
192,160,126327,1,0,0:0:0:0:
192,160,126793,1,0,0:0:0:0:
192,160,129118,1,0,0:0:0:0:
192,160,129583,1,0,0:0:0:0:
192,160,130048,1,0,0:0:0:0:
256,160,130978,1,0,0:0:0:0:
64,96,131444,1,0,0:0:0:0:
224,192,131909,1,0,0:0:0:0:
192,128,132374,1,0,0:0:0:0:
192,128,132839,1,0,0:0:0:0:
192,128,133304,1,0,0:0:0:0:
128,160,137955,2,0,L|352:160,4,200.000002980232
256,192,151443,12,0,166326,0:0:0:0:
0,160,166791,5,0,0:0:0:0:
64,160,167256,1,0,0:0:0:0:
64,160,167721,1,0,0:0:0:0:
64,160,168186,1,0,0:0:0:0:
64,160,168652,1,0,0:0:0:0:
192,96,170047,1,0,0:0:0:0:
192,128,171442,1,0,0:0:0:0:
192,128,171907,1,0,0:0:0:0:
288,128,173768,1,0,0:0:0:0:
224,128,174233,1,0,0:0:0:0:
256,192,174698,1,0,0:0:0:0:
256,160,175628,1,0,0:0:0:0:
288,128,176093,1,0,0:0:0:0:
224,160,176558,1,0,0:0:0:0:
192,128,177488,1,0,0:0:0:0:
256,160,178419,1,0,0:0:0:0:
256,160,178884,1,0,0:0:0:0:
160,192,179349,1,0,0:0:0:0:
160,160,180279,1,0,0:0:0:0:
224,128,181209,1,0,0:0:0:0:
224,192,182139,1,0,0:0:0:0:
224,192,183070,1,0,0:0:0:0:
224,192,183535,1,0,0:0:0:0:
224,192,184000,1,0,0:0:0:0:
224,192,184465,1,0,0:0:0:0:
224,192,184930,1,0,0:0:0:0:
224,192,185395,1,0,0:0:0:0:
224,192,185860,1,0,0:0:0:0:
224,192,186325,1,0,0:0:0:0:
256,96,186790,1,0,0:0:0:0:
224,192,187256,1,0,0:0:0:0:
224,192,187721,1,0,0:0:0:0:
224,192,188186,1,0,0:0:0:0:
224,192,188651,1,0,0:0:0:0:
224,192,189116,1,0,0:0:0:0:
224,192,189581,1,0,0:0:0:0:
224,192,190046,1,0,0:0:0:0:
224,192,190511,1,0,0:0:0:0:
224,192,190976,1,0,0:0:0:0:
224,192,191441,1,0,0:0:0:0:
224,192,191907,1,0,0:0:0:0:
224,192,192372,1,0,0:0:0:0:
224,192,192837,1,0,0:0:0:0:
224,192,193302,1,0,0:0:0:0:
224,192,196558,1,0,0:0:0:0:
224,192,197488,1,0,0:0:0:0:
224,192,197953,1,0,0:0:0:0:
224,192,198418,1,0,0:0:0:0:
224,192,198883,1,0,0:0:0:0:
224,192,199348,1,0,0:0:0:0:
224,192,199813,1,0,0:0:0:0:
224,192,200278,1,0,0:0:0:0:
224,192,200743,1,0,0:0:0:0:
256,192,202139,1,0,0:0:0:0:
256,192,203069,1,0,0:0:0:0:
288,192,203999,1,0,0:0:0:0:
256,192,204464,1,0,0:0:0:0:
192,192,204929,1,0,0:0:0:0:
352,192,205394,1,0,0:0:0:0:
224,160,206325,1,0,0:0:0:0:
224,192,206790,1,0,0:0:0:0:
192,192,207255,1,0,0:0:0:0:
320,192,208650,1,0,0:0:0:0:
320,192,209115,1,0,0:0:0:0:
320,192,209580,1,0,0:0:0:0:
320,192,210045,1,0,0:0:0:0:
320,192,210511,1,0,0:0:0:0:
320,192,210976,1,0,0:0:0:0:
320,192,211441,1,0,0:0:0:0:
320,192,211906,1,0,0:0:0:0:
256,192,213766,12,0,230975,0:0:0:0:
0,160,230975,2,0,B|224:128|128:128,10,160.000002384186
128,128,251439,5,0,0:0:0:0:
320,128,251904,1,0,0:0:0:0:
192,160,252370,1,0,0:0:0:0:
352,128,252835,1,0,0:0:0:0:
256,160,253300,1,0,0:0:0:0:
224,96,253765,1,0,0:0:0:0:
288,96,254230,1,0,0:0:0:0:
192,192,254695,1,0,0:0:0:0:
320,192,255160,1,0,0:0:0:0:
192,128,255625,1,0,0:0:0:0:
320,96,256090,1,0,0:0:0:0:
224,160,256555,1,0,0:0:0:0:
256,96,257021,1,0,0:0:0:0:
288,192,257486,1,0,0:0:0:0:
192,224,257951,1,0,0:0:0:0:
256,128,258416,1,0,0:0:0:0:
320,128,258881,1,0,0:0:0:0:
224,192,259346,1,0,0:0:0:0:
160,128,259811,1,0,0:0:0:0:
384,224,260276,1,0,0:0:0:0:
192,288,260741,1,0,0:0:0:0:
288,128,261206,1,0,0:0:0:0:
160,160,261672,1,0,0:0:0:0:
320,192,262137,1,0,0:0:0:0:
320,192,262602,1,0,0:0:0:0:
320,192,263067,1,0,0:0:0:0:
320,192,263532,1,0,0:0:0:0:
224,224,263997,1,0,0:0:0:0:
192,128,264462,1,0,0:0:0:0:
64,128,264927,1,0,0:0:0:0:
384,96,265392,1,0,0:0:0:0:
384,96,266323,1,0,0:0:0:0:
384,96,266788,1,0,0:0:0:0:
384,96,267253,1,0,0:0:0:0:
384,96,267718,1,0,0:0:0:0:
384,96,268183,1,0,0:0:0:0:
384,96,268648,1,0,0:0:0:0:
384,96,269113,1,0,0:0:0:0:
384,96,269578,1,0,0:0:0:0:
384,96,270043,1,0,0:0:0:0:
384,96,270508,1,0,0:0:0:0:
384,96,270974,1,0,0:0:0:0:
384,96,271439,1,0,0:0:0:0:
384,96,271904,1,0,0:0:0:0:
256,160,272369,1,0,0:0:0:0:
