osu file format v14

[General]
AudioFilename: Kuchizuke Diamond.mp3
AudioLeadIn: 494
PreviewTime: 46774
Countdown: 0
SampleSet: Soft
StackLeniency: 0.5
Mode: 0
LetterboxInBreaks: 0
WidescreenStoryboard: 1

[Editor]
Bookmarks: 17868
DistanceSpacing: 1
BeatDivisor: 4
GridSize: 4
TimelineZoom: 1.7

[Metadata]
Title:Kuchizuke Diamond
TitleUnicode:くちづけDiamond
Artist:WEAVER
ArtistUnicode:WEAVER
Creator:jieusieu
Version:bbHard
Source:山田くんと7人の魔女
Tags:yamada kun to nana nin no majo Tenseki bbj0920 Fast
BeatmapID:808847
BeatmapSetID:368985

[Difficulty]
HPDrainRate:5
CircleSize:4
OverallDifficulty:6
ApproachRate:8
SliderMultiplier:1.6
SliderTickRate:2

[Events]
//Background and Video events
Video,0,"Kuchizuke Diamond.avi"
0,0,"Lemur.png",0,0
//Break Periods
//Storyboard Layer 0 (Background)
//Storyboard Layer 1 (Fail)
//Storyboard Layer 2 (Pass)
//Storyboard Layer 3 (Foreground)
//Storyboard Sound Samples

[TimingPoints]
860,365.853658536585,4,2,1,64,1,0
1042,-100,4,2,0,64,0,0
6713,-125,4,2,0,49,0,0
16957,-96.1538461538461,4,2,0,56,0,0
17140,-96.1538461538461,4,2,0,72,0,0
17872,-100,4,2,0,64,0,0
18420,-100,4,2,1,64,0,0
18603,-100,4,2,0,64,0,0
24274,-111.111111111111,4,2,0,56,0,0
35616,-100,4,2,1,64,0,0
37994,-100,4,2,0,64,0,0
38177,-100,4,2,1,64,0,0
38359,-100,4,2,0,64,0,0
38542,-100,4,2,1,64,0,0
44762,-100,4,2,1,60,0,0
46408,-100,4,2,1,55,0,0
46774,-100,4,2,0,60,0,0
47140,-100,4,2,0,74,0,0
47689,-100,4,2,1,69,0,1
69669,365.853658536585,4,2,1,69,1,1
82839,-100,4,2,0,69,0,0
82931,-100,4,2,0,27,0,0
85034,-100,4,2,0,9,0,0
85766,-117.647058823529,4,2,1,58,0,0

[Colours]
Combo1 : 210,165,248
Combo2 : 255,132,132
Combo3 : 255,247,142
Combo4 : 125,233,255

[HitObjects]
116,240,494,6,0,L|112:192,3,40
104,188,860,6,0,P|136:192|192:172,1,80,6|2,0:0|0:0,0:0:0:0:
229,113,1225,1,4,3:0:0:0:
260,188,1408,2,0,P|272:240|224:332,1,160,2|2,0:0|0:0,0:0:0:0:
216,328,1866,1,0,0:0:0:0:
208,324,1957,2,0,L|148:336,4,40,4|0|2|0|4,3:0|0:3|0:0|0:0|3:0,0:0:0:0:
287,336,2506,6,0,L|367:324,1,80,2|4,0:0|0:3,0:0:0:0:
444,309,2872,2,0,P|456:237|388:173,1,160,2|0,0:0|0:0,0:0:0:0:
328,208,3420,1,2,0:0:0:0:
310,130,3603,1,0,0:0:0:0:
358,64,3786,6,0,P|325:50|278:55,1,80,4|0,0:3|0:0,0:0:0:0:
218,102,4152,1,4,0:3:0:0:
143,74,4335,2,0,P|73:66|11:132,1,160,2|0,0:0|0:0,0:0:0:0:
81,166,4884,1,4,0:3:0:0:
40,237,5067,6,0,B|73:264|115:252|115:252|142:286|184:283,1,160,2|0,0:0|0:0,0:0:0:0:
244,339,5616,2,0,P|261:308|260:260,1,80,4|2,0:3|0:0,0:0:0:0:
229,189,5981,1,4,0:3:0:0:
307,171,6164,2,0,L|391:162,1,80,2|4,0:0|0:3,0:0:0:0:
241,58,6713,6,0,P|211:53|172:67,1,64,4|0,0:3|0:0,0:0:0:0:
110,97,7079,1,4,0:3:0:0:
147,167,7262,2,0,P|150:222|88:291,1,128
34,300,7811,1,4,0:3:0:0:
111,281,7994,6,0,P|171:280|247:300,1,128
309,327,8542,1,4,0:3:0:0:
358,264,8725,2,0,P|352:231|350:199,1,64,0|4,0:0|0:3,0:0:0:0:
378,126,9091,2,0,P|375:94|370:62,1,64,0|4,0:0|0:3,0:0:0:0:
299,30,9457,1,0,0:0:0:0:
299,30,9549,1,0,0:0:0:0:
299,30,9640,6,0,P|233:22|184:71,1,128,4|4,0:3|0:3,0:0:0:0:
154,130,10189,2,0,B|98:162|98:162|20:143,1,128
6,220,10738,2,0,L|103:243,1,96,4|4,0:3|0:3,0:0:0:0:
115,246,11103,6,0,P|135:272|143:305,1,64,4|0,0:3|0:0,0:0:0:0:
156,380,11469,1,4,0:3:0:0:
228,349,11652,2,0,L|236:285,1,64,0|4,0:0|0:3,0:0:0:0:
263,211,12018,1,0,0:0:0:0:
329,254,12201,2,0,P|372:265|421:238,1,96,4|0,0:3|0:0,0:0:0:0:
423,229,12567,6,0,L|439:98,1,128,4|4,0:3|0:3,0:0:0:0:
379,51,13116,2,0,P|352:51|315:67,1,64,0|4,0:0|0:3,0:0:0:0:
266,124,13481,1,0,0:0:0:0:
110,148,13847,6,0,P|151:144|203:188,1,96,4|0,0:3|0:0,0:0:0:0:
202,182,14213,2,0,P|212:226|169:306,1,128,4|0,0:3|0:0,0:0:0:0:
102,309,14762,2,0,P|103:276|123:245,1,64,4|0,0:3|0:0,0:0:0:0:
191,222,15128,2,0,P|222:233|245:261,1,64,4|0,0:3|0:0,0:0:0:0:
248,261,15402,1,4,0:3:0:0:
254,267,15494,6,0,L|387:280,1,128,4|4,0:3|0:3,0:0:0:0:
451,317,16042,2,0,P|483:260|463:183,1,128
413,151,16591,2,0,P|369:125|348:72,1,96,4|4,0:3|0:3,0:0:0:0:
348,76,16957,6,0,L|259:83,1,83.1999994921875,4|2,0:3|0:0,0:0:0:0:
63,298,17872,5,4,0:3:0:0:
63,298,17963,1,4,0:3:0:0:
63,298,18055,2,0,L|114:293,3,40,4|4|4|4,0:3|0:3|0:3|0:3,0:0:0:0:
124,304,18420,6,0,P|120:264|132:216,1,80,6|2,0:3|0:0,0:0:0:0:
160,151,18786,1,4,0:3:0:0:
114,85,18969,2,0,P|169:122|258:98,1,160,2|2,0:0|0:0,0:0:0:0:
265,86,19427,1,0,0:0:0:0:
274,72,19518,2,0,L|324:63,3,40,4|0|2|0,0:3|0:0|0:0|0:0,0:0:0:0:
326,55,19884,6,0,L|335:141,1,80,4|2,0:3|0:0,0:0:0:0:
385,197,20250,1,4,0:3:0:0:
453,154,20433,2,0,P|407:205|407:295,1,160,2|2,0:0|0:0,0:0:0:0:
346,347,20981,2,0,P|306:352|261:327,1,80,4|2,0:3|0:0,0:0:0:0:
232,266,21347,5,4,0:3:0:0:
291,211,21530,2,0,L|281:128,1,80,2|4,0:0|0:3,0:0:0:0:
270,51,21896,2,0,B|239:57|214:75|205:112|205:112|181:86|142:88,1,160,2|2,0:0|0:0,0:0:0:0:
149,169,22445,1,4,0:3:0:0:
77,204,22628,6,0,P|131:248|212:217,1,160,2|0,0:0|0:0,0:0:0:0:
281,184,23177,1,4,0:3:0:0:
343,235,23359,2,0,P|376:248|407:286,1,80,2|4,0:0|0:3,0:0:0:0:
475,242,23725,2,0,L|479:160,1,80,2|4,0:0|0:3,0:0:0:0:
324,64,24274,6,0,P|285:59|246:71,1,71.9999978027344,4|0,0:3|0:0,0:0:0:0:
210,136,24640,1,4,0:3:0:0:
137,104,24823,2,0,P|83:90|9:133,1,143.999995605469
1,214,25372,1,4,0:3:0:0:
73,179,25555,6,0,P|90:228|86:327,1,143.999995605469
160,353,26103,1,4,0:3:0:0:
229,313,26286,2,0,P|261:303|305:310,1,71.9999978027344,0|4,0:0|0:3,0:0:0:0:
337,237,26652,2,0,P|361:259|377:301,1,71.9999978027344,0|4,0:0|0:3,0:0:0:0:
417,364,27018,1,0,0:0:0:0:
477,310,27201,6,0,P|501:242|485:174,1,143.999995605469,4|4,0:3|0:3,0:0:0:0:
430,115,27750,2,0,P|368:131|295:79,1,143.999995605469
254,28,28299,2,0,P|223:90|241:143,1,107.999996704102,4|4,0:3|0:3,0:0:0:0:
238,139,28664,5,4,0:3:0:0:
163,164,28847,2,0,B|123:152|95:176|95:176|67:200|27:188,1,143.999995605469
11,268,29396,2,0,P|22:302|69:335,1,71.9999978027344
127,334,29762,1,4,0:3:0:0:
281,275,30128,6,0,L|274:198,1,71.9999978027344,2|0,0:0|0:0,0:0:0:0:
313,133,30494,1,4,0:3:0:0:
242,97,30677,2,0,P|165:102|108:52,1,143.999995605469,2|0,0:0|0:0,0:0:0:0:
48,105,31225,1,4,0:3:0:0:
99,166,31408,6,0,P|112:209|69:294,1,143.999995605469,2|2,0:0|0:0,0:0:0:0:
7,341,31957,1,4,0:3:0:0:
79,374,32140,2,0,L|152:364,2,71.9999978027344,2|4|2,0:0|0:3|0:0,0:0:0:0:
7,341,32689,2,0,P|-6:310|2:255,1,71.9999978027344,4|2,0:3|0:0,0:0:0:0:
3,260,32963,1,0,0:0:0:0:
11,248,33055,6,0,P|82:256|163:233,1,143.999995605469,4|4,0:3|0:3,0:0:0:0:
181,164,33603,2,0,P|227:218|213:287,1,143.999995605469,2|0,0:0|0:0,0:0:0:0:
159,343,34152,2,0,P|221:304|296:320,1,143.999995605469,4|4,0:3|0:3,0:0:0:0:
361,347,34701,1,2,0:0:0:0:
447,205,35067,5,2,0:0:0:0:
458,125,35250,1,4,0:3:0:0:
391,82,35433,1,2,0:0:0:0:
380,162,35616,2,0,P|341:168|301:152,1,80,8|0,0:0|0:0,0:0:0:0:
244,100,35981,6,0,L|64:132,1,160,6|2,0:0|0:0,0:0:0:0:
16,168,36530,2,0,P|40:196|82:209,1,80,0|2,0:0|0:0,0:0:0:0:
159,192,36896,1,8,0:3:0:0:
186,268,37079,1,2,0:0:0:0:
131,327,37262,1,8,0:3:0:0:
209,347,37445,6,0,P|253:315|246:214,1,160,2|2,0:0|0:0,0:0:0:0:
318,258,37994,2,0,P|356:267|399:243,1,80,2|2,0:0|0:0,0:0:0:0:
443,188,38359,1,2,0:0:0:0:
382,135,38542,1,8,0:0:0:0:
224,76,38908,6,0,B|198:99|158:103|124:84|124:84|144:100|150:130,1,160,2|2,0:0|0:0,0:0:0:0:
133,209,39457,1,2,0:3:0:0:
79,270,39640,2,0,B|105:293|145:297|179:278|179:278|159:294|153:324,1,160,2|2,0:0|0:0,0:0:0:0:
232,341,40189,2,0,L|317:333,1,80,2|2,0:3|0:0,0:0:0:0:
356,265,40555,6,0,P|421:248|501:308,2,160,2|2|2,0:3|0:3|0:0,0:0:0:0:
297,210,41469,1,8,0:0:0:0:
152,125,41835,6,0,P|231:139|298:88,1,160,6|2,0:0|0:0,0:0:0:0:
327,22,42384,2,0,P|393:58|402:149,1,160,0|8,0:0|0:3,0:0:0:0:
385,215,42933,1,2,0:0:0:0:
385,215,43116,1,8,0:3:0:0:
436,278,43299,6,0,L|259:325,1,160,2|2,0:0|0:0,0:0:0:0:
204,336,43847,2,0,B|168:316|160:272|160:272|152:228|116:208,1,160,0|8,0:0|0:3,0:0:0:0:
44,176,44396,1,8,0:0:0:0:
184,76,44762,5,6,0:0:0:0:
236,138,44945,2,0,L|232:178,2,40,0|2|8,0:0|0:3|0:3,0:0:0:0:
301,91,45311,1,8,0:0:0:0:
366,44,45494,2,8,P|396:60|416:104,1,80,8|8,0:3|0:3,0:0:0:0:
415,115,45768,1,2,0:3:0:0:
414,129,45859,2,0,L|408:213,1,80,8|8,0:3|0:0,0:0:0:0:
396,292,46225,5,0,1:0:0:0:
320,260,46408,1,2,0:0:0:0:
320,260,46500,1,8,0:0:0:0:
320,260,46591,1,8,0:0:0:0:
264,320,46774,6,0,P|232:332|184:324,1,80
144,254,47140,2,0,P|176:242|224:250,1,80,2|2,0:0|0:0,0:0:0:0:
116,28,47689,6,0,P|68:68|76:176,1,160,6|2,0:0|0:0,0:0:0:0:
144,136,48238,1,8,0:0:0:0:
180,212,48420,2,0,P|184:252|160:296,1,80
95,324,48786,1,8,0:0:0:0:
95,324,48878,1,8,0:0:0:0:
95,324,48969,1,2,0:0:0:0:
163,373,49152,6,0,P|241:349|326:359,1,160,2|2,0:0|0:0,0:0:0:0:
394,318,49701,1,8,0:0:0:0:
337,256,49884,2,0,P|331:214|348:165,1,80,2|0,0:0|0:0,0:0:0:0:
409,131,50250,1,2,0:0:0:0:
478,178,50433,2,0,L|525:183,2,40,8|8|2,0:0|0:0|0:0,0:0:0:0:
407,133,50799,6,0,P|374:114|331:121,1,80,0|2,0:0|0:0,0:0:0:0:
267,172,51164,2,0,P|190:182|129:134,1,160,8|2,0:0|0:0,0:0:0:0:
84,64,51713,1,8,0:0:0:0:
84,64,51805,1,8,0:0:0:0:
84,64,51896,1,2,0:0:0:0:
20,120,52079,6,0,B|48:152|95:157|129:135|129:135|85:190,1,160,2|2,0:0|0:0,0:0:0:0:
52,232,52628,2,0,P|46:271|72:320,1,80,8|2,0:0|0:0,0:0:0:0:
131,353,52994,1,2,0:0:0:0:
187,290,53177,2,0,P|222:274|274:281,1,80,2|8,0:0|0:0,0:0:0:0:
337,314,53542,6,0,P|390:254|373:150,1,160,2|2,0:0|0:0,0:0:0:0:
366,96,54091,1,8,0:0:0:0:
288,128,54274,2,0,B|248:120|212:144|212:144|176:168|136:160,1,160,2|8,0:0|0:0,0:0:0:0:
119,151,54731,1,8,0:0:0:0:
104,142,54823,1,2,0:0:0:0:
36,192,55006,6,0,B|48:240|48:240|72:264|72:264|92:348,1,160,2|2,0:0|0:0,0:0:0:0:
172,356,55555,2,0,B|185:319|185:319|179:275,1,80,8|2,0:0|0:0,0:0:0:0:
168,195,55920,1,2,0:0:0:0:
247,220,56103,2,0,L|327:212,1,80,2|8,0:0|0:0,0:0:0:0:
345,210,56378,1,8,0:0:0:0:
362,208,56469,5,2,0:0:0:0:
440,236,56652,2,0,P|456:200|452:148,1,80,2|2,0:3|0:0,0:0:0:0:
492,84,57018,2,0,P|436:130|355:107,1,160,2|2,0:3|0:0,0:0:0:0:
416,48,57567,1,8,0:0:0:0:
416,48,57658,1,8,0:0:0:0:
416,48,57750,1,2,0:0:0:0:
335,26,57933,6,0,P|256:20|167:50,1,160,2|2,0:0|0:0,0:0:0:0:
123,105,58481,1,8,0:0:0:0:
44,78,58664,1,2,0:0:0:0:
59,161,58847,2,0,L|47:205,2,40,8|8|2,0:0|0:0|0:0,0:0:0:0:
123,105,59213,1,8,0:0:0:0:
123,105,59305,1,8,0:0:0:0:
123,105,59396,6,0,P|200:112|236:196,1,160,6|2,0:0|0:0,0:0:0:0:
164,220,59945,1,8,0:0:0:0:
235,265,60128,2,0,P|274:271|321:250,1,80,2|0,0:0|0:0,0:0:0:0:
356,186,60494,1,8,0:0:0:0:
356,186,60585,1,8,0:0:0:0:
356,186,60677,1,2,0:0:0:0:
424,236,60859,6,0,P|438:168|352:100,1,160,2|2,0:0|0:0,0:0:0:0:
320,48,61408,1,8,0:0:0:0:
270,116,61591,2,0,L|182:123,1,80,2|0,0:0|0:0,0:0:0:0:
110,102,61957,1,2,0:0:0:0:
55,38,62140,2,0,L|16:34,2,40,8|8|2,0:0|0:0|0:0,0:0:0:0:
115,98,62506,6,0,P|119:139|110:182,1,80,0|2,0:0|0:0,0:0:0:0:
40,220,62872,2,0,B|68:264|116:260|116:260|199:250,1,160,8|2,0:0|0:0,0:0:0:0:
267,237,63420,1,8,0:0:0:0:
267,237,63512,1,8,0:0:0:0:
267,237,63603,1,2,0:0:0:0:
300,160,63786,6,0,P|344:208|325:296,1,160,2|2,0:0|0:0,0:0:0:0:
260,348,64335,2,0,P|292:372|344:376,1,80,8|2,0:0|0:0,0:0:0:0:
408,345,64701,1,2,0:0:0:0:
443,268,64884,2,0,L|451:188,1,80,2|8,0:0|0:0,0:0:0:0:
460,105,65250,6,0,P|393:63|308:89,1,160,2|2,0:0|0:0,0:0:0:0:
270,150,65799,1,8,0:0:0:0:
196,113,65981,2,0,P|157:127|118:119,1,80
152,42,66347,1,8,0:0:0:0:
152,42,66439,1,8,0:0:0:0:
152,42,66530,1,2,0:0:0:0:
69,52,66713,6,0,B|33:85|41:133|41:133|21:225,1,160,2|2,0:0|0:0,0:0:0:0:
58,280,67262,1,8,0:0:0:0:
131,322,67445,2,0,P|168:327|211:309,1,80,2|0,0:0|0:0,0:0:0:0:
254,243,67811,1,2,0:0:0:0:
241,160,67994,2,0,L|235:118,2,40,8|8|2,0:0|0:0|0:0,0:0:0:0:
319,189,68359,6,0,P|356:197|390:232,1,80,2|2,0:3|0:0,0:0:0:0:
371,308,68725,2,0,L|446:162,1,160,2|2,0:3|0:3,0:0:0:0:
460,83,69274,1,8,0:0:0:0:
460,83,69366,1,8,0:0:0:0:
460,83,69457,1,2,0:0:0:0:
380,56,69669,6,0,P|328:68|296:172,1,160,2|2,0:0|0:0,0:0:0:0:
252,236,70217,2,0,P|211:211|194:173,1,80,8|2,0:0|0:0,0:0:0:0:
185,98,70583,2,0,L|181:52,2,40,8|8|2,0:0|0:0|0:0,0:0:0:0:
102,120,70949,1,8,0:0:0:0:
73,118,71040,1,8,0:0:0:0:
44,116,71132,6,0,P|20:184|68:264,1,160,6|2,0:0|0:0,0:0:0:0:
140,280,71681,1,8,0:0:0:0:
216,244,71864,2,0,P|252:232|304:236,1,80
344,301,72229,1,8,0:0:0:0:
344,301,72321,1,8,0:0:0:0:
344,301,72412,1,2,0:0:0:0:
416,257,72595,6,0,P|408:185|436:80,1,160
480,32,73144,1,8,0:0:0:0:
424,96,73327,2,0,P|376:100|348:88,1,80,2|2,0:0|0:0,0:0:0:0:
276,44,73693,1,2,0:0:0:0:
255,126,73876,2,0,L|263:178,2,40,8|8|2,0:0|0:0|0:0,0:0:0:0:
176,100,74242,6,0,P|136:100|96:124,1,80,0|2,0:0|0:0,0:0:0:0:
48,184,74608,2,0,P|36:252|100:320,1,160,8|2,0:0|0:0,0:0:0:0:
156,264,75156,1,8,0:0:0:0:
156,264,75248,1,8,0:0:0:0:
156,264,75339,1,2,0:0:0:0:
236,288,75522,6,0,P|308:264|404:276,1,160,2|2,0:0|0:0,0:0:0:0:
468,304,76071,2,0,P|472:264|460:224,1,80,8|2,0:0|0:0,0:0:0:0:
390,271,76437,1,2,0:0:0:0:
328,216,76620,2,0,P|324:176|336:136,1,80,2|8,0:0|0:0,0:0:0:0:
388,72,76986,6,0,L|224:44,1,160,2|2,0:0|0:0,0:0:0:0:
148,64,77534,1,8,0:0:0:0:
66,83,77717,2,0,P|50:163|98:231,1,160,2|8,0:0|0:0,0:0:0:0:
98,229,78174,1,8,0:0:0:0:
105,232,78266,1,2,0:0:0:0:
182,199,78449,6,0,B|238:191|238:191|278:203|278:203|342:195,1,160,2|2,0:0|0:0,0:0:0:0:
402,139,78998,1,8,0:0:0:0:
417,222,79181,2,0,P|417:265|409:314,1,80
359,367,79547,1,2,0:0:0:0:
278,347,79729,2,0,L|230:351,2,40,8|8|2,0:0|0:0|0:0,0:0:0:0:
250,267,80095,6,0,L|158:275,1,80,2|2,0:3|0:0,0:0:0:0:
90,251,80461,2,0,B|104:211|141:197|141:197|161:154|134:115,1,160,8|2,0:0|0:0,0:0:0:0:
85,50,81010,1,8,0:0:0:0:
85,50,81101,1,8,0:0:0:0:
85,50,81193,1,2,0:0:0:0:
168,39,81376,6,0,P|222:112|226:195,1,160,2|2,0:0|0:0,0:0:0:0:
202,259,81925,2,0,P|246:259|286:243,1,80,8|2,0:0|0:0,0:0:0:0:
340,189,82290,2,0,L|345:139,2,40,8|8|2,0:0|0:0|0:0,0:0:0:0:
369,268,82656,2,0,L|364:318,2,40,8|8|2,0:0|0:0|0:0,0:0:0:0:
256,192,82931,12,0,85034,0:0:0:0:
400,280,85766,6,0,P|336:296|272:256,1,136.000002593994,2|2,0:0|0:0,0:0:0:0:
211,223,86315,1,2,0:3:0:0:
144,184,86498,2,0,P|208:200|272:160,1,136.000002593994,2|2,0:0|0:0,0:0:0:0:
296,96,87047,1,2,0:3:0:0:
368,122,87229,6,0,B|388:154|376:190|376:190|364:226|384:258,1,136.000002593994,2|2,0:0|0:0,0:0:0:0:
448,216,87778,1,2,0:3:0:0:
384,260,87961,2,0,P|352:272|316:268,1,68.0000012969971,2|2,0:0|0:3,0:0:0:0:
252,232,88327,2,0,L|176:224,1,68.0000012969971,2|2,0:0|0:3,0:0:0:0:
