osu file format v14

[General]
AudioFilename: Kuchizuke Diamond.mp3
AudioLeadIn: 494
PreviewTime: 46774
Countdown: 0
SampleSet: Soft
StackLeniency: 0.5
Mode: 0
LetterboxInBreaks: 0
WidescreenStoryboard: 1

[Editor]
DistanceSpacing: 1
BeatDivisor: 4
GridSize: 4
TimelineZoom: 0.9999999

[Metadata]
Title:Kuchizuke Diamond
TitleUnicode:くちづけDiamond
Artist:WEAVER
ArtistUnicode:WEAVER
Creator:jieusieu
Version:Lemur
Source:山田くんと7人の魔女
Tags:yamada kun to nana nin no majo Tenseki bbj0920 Fast
BeatmapID:808848
BeatmapSetID:368985

[Difficulty]
HPDrainRate:6
CircleSize:4
OverallDifficulty:8.5
ApproachRate:9
SliderMultiplier:1.7
SliderTickRate:2

[Events]
//Background and Video events
0,0,"Lemur.png",0,0
Video,0,"Kuchizuke Diamond.avi"
//Break Periods
//Storyboard Layer 0 (Background)
//Storyboard Layer 1 (Fail)
//Storyboard Layer 2 (Pass)
//Storyboard Layer 3 (Foreground)
//Storyboard Sound Samples

[TimingPoints]
860,365.853658536585,4,2,1,60,1,0
1225,-100,4,2,2,60,0,0
1500,-100,4,2,2,50,0,0
1683,-100,4,2,2,60,0,0
2963,-100,4,2,2,50,0,0
3146,-100,4,2,2,60,0,0
4427,-100,4,2,2,50,0,0
4609,-100,4,2,2,60,0,0
5158,-100,4,2,2,50,0,0
5341,-100,4,2,2,60,0,0
5890,-100,4,2,2,50,0,0
6073,-100,4,2,2,60,0,0
6713,-100,4,2,1,50,0,0
7353,-100,4,2,3,40,0,0
7536,-100,4,2,1,50,0,0
8085,-100,4,2,3,40,0,0
8268,-100,4,2,1,50,0,0
8451,-100,4,2,3,40,0,0
8634,-100,4,2,1,50,0,0
10280,-100,4,2,3,40,0,0
10463,-100,4,2,1,50,0,0
11378,-100,4,2,3,40,0,0
11561,-100,4,2,1,50,0,0
13939,-100,4,2,3,40,0,0
14122,-100,4,2,1,50,0,0
16134,-100,4,2,3,40,0,0
16317,-100,4,2,1,50,0,0
17140,-100,4,2,3,65,0,0
17872,-100,4,2,3,40,0,0
18420,-100,4,2,1,60,0,0
18969,-100,4,2,4,60,0,0
19061,-100,4,2,3,50,0,0
19244,-100,4,2,4,60,0,0
20524,-100,4,2,3,50,0,0
20707,-100,4,2,4,60,0,0
21988,-100,4,2,3,50,0,0
22170,-100,4,2,4,60,0,0
22719,-100,4,2,3,50,0,0
22902,-100,4,2,4,60,0,0
23451,-100,4,2,3,50,0,0
23634,-100,4,2,4,60,0,0
24274,-100,4,2,1,50,0,0
24914,-100,4,2,3,40,0,0
25097,-100,4,2,1,50,0,0
25646,-100,4,2,3,40,0,0
25829,-100,4,2,1,50,0,0
26012,-100,4,2,3,40,0,0
26195,-100,4,2,1,50,0,0
27841,-100,4,2,3,40,0,0
28024,-100,4,2,1,50,0,0
28939,-100,4,2,3,40,0,0
29122,-100,4,2,1,50,0,0
30128,-100,4,2,3,50,0,0
31500,-100,4,2,3,40,0,0
31683,-100,4,2,3,50,0,0
33146,-100,4,2,1,50,0,0
33329,-100,4,2,3,50,0,0
33695,-100,4,2,3,40,0,0
33878,-100,4,2,3,50,0,0
35616,-100,4,2,1,60,0,0
36622,-100,4,2,3,50,0,0
36805,-100,4,2,5,60,0,0
37262,-100,4,2,5,40,0,0
37445,-100,4,2,1,60,0,0
38085,-100,4,2,3,50,0,0
38268,-100,4,2,1,60,0,0
41286,-100,4,2,4,70,0,0
41469,-100,4,2,1,60,0,0
42475,-100,4,2,3,50,0,0
42658,-100,4,2,5,60,0,0
43116,-100,4,2,5,40,0,0
43299,-100,4,2,1,60,0,0
43939,-100,4,2,3,50,0,0
44122,-100,4,2,1,60,0,0
45768,-100,4,2,5,50,0,0
45951,-100,4,2,1,60,0,0
46408,-100,4,2,4,60,0,0
46774,-100,4,2,0,30,0,0
47689,-100,4,2,1,65,0,1
48238,-100,4,2,4,65,0,1
49244,-100,4,2,4,55,0,1
49427,-100,4,2,4,65,0,1
53634,-100,4,2,4,55,0,1
53817,-100,4,2,4,65,0,1
56469,-100,4,2,6,65,0,1
56652,-100,4,2,4,65,0,1
57018,-100,4,2,2,65,0,1
57201,-100,4,2,4,65,0,1
57567,-100,4,2,6,65,0,1
57750,-100,4,2,4,65,0,1
58116,-100,4,2,2,65,0,1
58299,-100,4,2,4,65,0,1
58664,-100,4,2,6,65,0,1
58847,-100,4,2,4,65,0,1
59030,-100,4,2,6,65,0,1
59213,-100,4,2,4,65,0,1
59396,-100,4,2,1,65,0,1
59488,-100,4,2,4,55,0,1
59670,-100,4,2,4,65,0,1
60951,-100,4,2,4,55,0,1
61134,-100,4,2,4,65,0,1
65341,-100,4,2,4,55,0,1
65524,-100,4,2,4,65,0,1
68177,-100,4,2,6,65,0,1
68359,-100,4,2,4,65,0,1
68725,-100,4,2,2,65,0,1
68908,-100,4,2,4,65,0,1
69274,-100,4,2,6,65,0,1
69457,-100,4,2,4,65,0,1
69669,365.853658536585,4,2,4,65,1,1
69851,-100,4,2,2,65,0,1
70034,-100,4,2,4,65,0,1
70400,-100,4,2,6,65,0,1
70583,-100,4,2,4,65,0,1
70766,-100,4,2,6,65,0,1
70949,-100,4,2,4,65,0,1
71132,-100,4,2,1,65,0,1
71223,-100,4,2,4,55,0,1
71406,-100,4,2,4,65,0,1
72687,-100,4,2,4,55,0,1
72870,-100,4,2,4,65,0,1
77077,-100,4,2,4,55,0,1
77260,-100,4,2,4,65,0,1
79912,-100,4,2,6,65,0,1
80095,-100,4,2,4,65,0,1
80461,-100,4,2,2,65,0,1
80644,-100,4,2,4,65,0,1
81010,-100,4,2,6,65,0,1
81193,-100,4,2,4,65,0,1
81559,-100,4,2,2,65,0,1
81742,-100,4,2,4,65,0,1
82108,-100,4,2,6,65,0,1
82290,-100,4,2,4,65,0,1
82473,-100,4,2,6,65,0,1
82656,-100,4,2,4,65,0,1
82839,-100,4,2,4,50,0,0

[Colours]
Combo1 : 210,165,248
Combo2 : 255,132,132
Combo3 : 255,247,142
Combo4 : 125,233,255

[HitObjects]
128,288,494,6,0,L|122:245,1,42.5
200,328,677,2,0,L|196:392,1,42.5
212,316,860,6,0,P|256:312|324:308,1,85,6|0,0:0|0:0,0:0:0:0:
364,364,1225,1,2,0:0:0:0:
464,272,1408,2,0,P|514:208|488:128,1,170
464,132,1866,1,0,0:0:0:0:
448,128,1957,1,2,0:0:0:0:
432,124,2049,1,0,0:0:0:0:
416,120,2140,1,0,0:0:0:0:
400,116,2231,1,0,0:0:0:0:
384,112,2323,6,0,P|316:116|276:120,1,85,2|0,0:0|0:0,0:0:0:0:
236,176,2689,1,2,0:0:0:0:
150,79,2872,2,0,P|89:91|35:59,1,127.5
24,48,3238,2,0,P|44:80|44:136,1,85,0|2,0:0|0:0,0:0:0:0:
0,196,3603,1,0,0:0:0:0:
148,328,3786,6,0,P|144:288|136:224,1,85,2|0,0:0|0:0,0:0:0:0:
128,160,4152,1,2,0:0:0:0:
284,196,4335,2,0,P|292:100|300:24,1,170
372,72,4884,1,2,0:0:0:0:
208,140,5067,6,0,P|116:148|60:80,1,170
152,68,5616,1,2,0:0:0:0:
284,196,5799,2,0,P|344:188|410:180,1,127.5
424,172,6164,2,0,P|399:218|404:260,1,85,0|2,0:0|0:0,0:0:0:0:
488,336,6530,1,0,0:0:0:0:
492,328,6622,1,0,0:0:0:0:
496,320,6713,6,0,L|448:328|400:336,1,85,2|0,0:0|0:0,0:0:0:0:
348,384,7079,1,2,0:0:0:0:
252,312,7262,2,0,P|260:204|264:136,1,170
272,60,7811,1,2,0:0:0:0:
144,148,7994,6,0,P|92:80|112:4,2,170
224,124,8908,1,2,0:0:0:0:
352,92,9091,2,0,L|340:196,1,85,0|2,0:0|0:0,0:0:0:0:
328,260,9457,1,0,0:0:0:0:
272,60,9640,6,0,P|364:52|448:44,1,170,2|2,0:0|0:0,0:0:0:0:
492,112,10189,2,0,P|515:196|459:255,1,170
368,356,10738,6,0,P|372:308|384:256,1,85,2|0,0:0|0:0,0:0:0:0:
408,192,11103,1,2,0:0:0:0:
252,224,11286,2,0,P|244:132|232:40,1,170
160,12,11835,1,2,0:0:0:0:
104,76,12018,2,0,P|52:76|12:48,1,85,0|2,0:0|0:0,0:0:0:0:
252,224,12567,6,0,P|308:216|356:212,1,85,2|0,0:0|0:0,0:0:0:0:
404,264,12933,1,2,0:0:0:0:
504,152,13116,2,0,P|512:104|484:52,1,85,0|2,0:0|0:0,0:0:0:0:
424,28,13481,1,0,0:0:0:0:
332,136,13664,1,2,0:0:0:0:
180,120,13847,6,0,P|172:183|169:247,1,127.5
156,235,14213,2,0,P|172:283|160:335,1,85,0|2,0:0|0:0,0:0:0:0:
88,288,14579,1,0,0:0:0:0:
20,156,14762,2,0,P|16:112|12:72,1,85,2|0,0:0|0:0,0:0:0:0:
76,16,15128,1,2,0:0:0:0:
180,120,15311,1,0,0:0:0:0:
248,68,15494,6,0,B|335:45|319:117|411:97,1,170,2|2,0:0|0:0,0:0:0:0:
488,64,16042,2,0,L|468:232,1,170
408,368,16591,2,0,P|410:325|396:284,1,85,2|0,0:0|0:0,0:0:0:0:
336,224,16957,5,2,0:0:0:0:
180,296,17140,1,4,0:0:0:0:
180,296,17872,5,8,3:0:0:0:
184,280,17963,1,8,3:0:0:0:
188,264,18055,1,4,3:0:0:0:
192,248,18146,1,4,3:0:0:0:
195,232,18238,2,0,P|191:204|183:164,1,42.5,2|2,0:0|0:0,0:0:0:0:
164,116,18420,6,0,P|120:112|80:108,1,85,6|0,0:0|0:0,0:0:0:0:
16,52,18786,1,2,0:0:0:0:
216,44,18969,2,0,P|295:62|356:7,1,170,8|8,0:0|0:0,0:0:0:0:
364,32,19427,1,0,0:0:0:0:
360,48,19518,1,2,0:0:0:0:
356,64,19609,1,0,0:0:0:0:
352,80,19701,1,8,0:0:0:0:
348,96,19792,1,0,0:0:0:0:
344,112,19884,6,0,P|344:168|372:208,1,85,2|8,0:0|0:0,0:0:0:0:
424,248,20250,1,2,0:0:0:0:
292,348,20433,2,0,P|284:264|272:204,1,127.5,8|0,0:0|0:0,0:0:0:0:
288,208,20799,2,0,P|240:204|176:196,1,85,8|2,0:0|0:0,0:0:0:0:
128,236,21164,1,8,0:0:0:0:
64,88,21347,6,0,P|56:132|72:172,1,85,2|8,0:0|0:0,0:0:0:0:
144,124,21713,1,2,0:0:0:0:
236,212,21896,2,0,P|228:300|220:396,1,170,8|8,0:0|0:0,0:0:0:0:
148,336,22445,1,2,0:0:0:0:
312,272,22628,6,0,B|399:295|383:223|475:243,1,170,8|8,0:0|0:0,0:0:0:0:
448,324,23177,1,2,0:0:0:0:
400,168,23359,2,0,P|388:108|425:51,1,127.5,8|0,0:0|0:0,0:0:0:0:
432,40,23725,2,0,P|392:60|340:52,1,85,8|2,0:0|0:0,0:0:0:0:
180,8,24091,1,8,0:0:0:0:
184,16,24183,1,0,0:0:0:0:
188,24,24274,6,0,P|192:60|196:116,1,85,2|0,0:0|0:0,0:0:0:0:
144,172,24640,1,2,0:0:0:0:
276,132,24823,2,0,P|264:216|256:300,1,170
312,364,25372,1,2,0:0:0:0:
180,248,25555,6,0,P|100:231|40:288,2,170
124,316,26469,1,2,0:0:0:0:
259,288,26652,2,0,P|264:244|248:192,1,85,0|2,0:0|0:0,0:0:0:0:
212,132,27018,1,0,0:0:0:0:
356,16,27201,6,0,P|348:96|340:204,1,170,2|2,0:0|0:0,0:0:0:0:
372,308,27750,2,0,P|452:328|512:268,1,170
300,360,28299,2,0,P|260:336|212:340,1,85,2|0,0:0|0:0,0:0:0:0:
148,376,28664,5,2,0:0:0:0:
68,276,28847,2,0,P|60:184|48:80,1,170
108,40,29396,1,2,0:0:0:0:
225,97,29579,2,0,P|229:137|209:189,1,85,0|2,0:0|0:0,0:0:0:0:
77,360,30128,6,0,P|72:312|68:276,1,85,10|0,0:0|0:0,0:0:0:0:
56,192,30494,1,2,0:0:0:0:
207,264,30677,2,0,P|211:221|216:179,1,85,8|2,0:0|0:0,0:0:0:0:
225,97,31042,1,0,0:0:0:0:
88,116,31225,1,10,0:0:0:0:
34,51,31408,6,0,P|6:131|66:195,1,170,0|8,0:0|0:0,0:0:0:0:
88,116,31957,1,2,0:0:0:0:
124,254,32140,2,0,P|166:251|206:263,1,85,0|10,0:0|0:0,0:0:0:0:
272,320,32506,1,0,0:0:0:0:
372,244,32689,2,0,P|376:188|380:140,1,85,2|0,0:0|0:0,0:0:0:0:
460,132,33055,6,0,P|396:140|284:152,1,170,10|2,0:0|0:0,0:0:0:0:
240,220,33603,2,0,P|160:237|100:180,1,170,8|0,0:0|0:0,0:0:0:0:
4,68,34152,2,0,P|21:106|18:149,1,85,10|0,0:0|0:0,0:0:0:0:
24,304,34518,5,2,0:0:0:0:
100,181,34701,1,8,0:0:0:0:
104,189,34792,1,0,0:0:0:0:
108,197,34884,1,2,0:0:0:0:
240,220,35067,2,0,P|281:223|320:207,1,85,0|10,0:0|0:0,0:0:0:0:
472,328,35433,2,0,P|436:312|380:320,1,85,0|10,0:0|0:0,0:0:0:0:
328,376,35799,1,0,0:0:0:0:
156,368,35981,6,0,P|148:276|136:199,1,170,6|2,0:0|0:0,0:0:0:0:
193,129,36530,2,0,P|184:56|256:0,1,170,0|4,0:0|0:0,0:0:0:0:
100,116,37079,1,10,0:0:0:0:
0,48,37262,1,4,0:0:0:0:
100,116,37445,6,0,P|168:104|272:88,1,170,2|2,0:0|0:0,0:0:0:0:
332,148,37994,2,0,P|420:168|480:112,1,170
404,288,38542,1,10,0:0:0:0:
404,288,38908,6,0,P|319:278|234:269,1,170,2|2,0:0|0:0,0:0:0:0:
160,312,39457,1,0,0:0:0:0:
56,220,39640,2,0,P|36:132|92:72,1,170,2|2,0:0|0:0,0:0:0:0:
116,156,40189,1,0,0:0:0:0:
164,36,40372,6,0,P|200:40|248:28,1,85,2|0,0:0|0:0,0:0:0:0:
328,128,40738,2,0,L|384:132|412:134,1,85,2|0,0:0|0:0,0:0:0:0:
484,84,41103,1,2,0:0:0:0:
440,212,41286,1,8,0:0:0:0:
312,136,41469,2,0,P|257:121|284:68,1,127.5,8|0,0:0|0:0,0:0:0:0:
328,128,41835,6,0,P|320:196|308:312,1,170,6|2,0:0|0:0,0:0:0:0:
372,356,42384,2,0,P|421:290|399:211,1,170,0|4,0:0|0:0,0:0:0:0:
232,324,42933,1,8,0:0:0:0:
340,272,43116,1,4,0:0:0:0:
232,324,43299,6,0,P|147:329|62:339,1,170,2|2,0:0|0:0,0:0:0:0:
24,264,43847,2,0,P|1:185|51:119,1,170
232,156,44396,1,10,0:0:0:0:
232,156,44762,6,0,P|240:92|212:28,2,127.5,6|0|8,0:0|0:0|0:0,0:0:0:0:
352,216,45494,2,0,P|344:276|336:348,2,127.5
440,124,46225,5,8,0:0:0:0:
232,156,46408,1,4,0:0:0:0:
240,176,46500,1,4,0:0:0:0:
248,196,46591,1,4,0:0:0:0:
372,176,46774,5,2,0:0:0:0:
224,136,46957,1,2,0:0:0:0:
416,248,47140,1,2,0:0:0:0:
192,316,47323,1,2,0:0:0:0:
192,316,47689,6,0,P|92:319|56:243,1,170,6|2,0:0|0:0,0:0:0:0:
216,232,48238,1,12,0:0:0:0:
256,376,48420,2,0,P|296:360|357:365,1,85,2|8,0:0|0:0,0:0:0:0:
444,296,48786,1,6,0:0:0:0:
452,276,48878,1,4,0:0:0:0:
460,256,48969,1,8,0:0:0:0:
380,160,49152,6,0,B|293:183|309:111|217:131,1,170,2|2,0:0|0:0,0:0:0:0:
158,190,49701,1,12,0:0:0:0:
256,296,49884,2,0,P|252:253|247:211,1,85,2|8,0:0|0:0,0:0:0:0:
200,44,50250,1,2,0:0:0:0:
68,160,50433,1,12,0:0:0:0:
72,168,50524,1,4,0:0:0:0:
77,176,50616,6,0,P|125:192|169:188,1,85,2|8,0:0|0:0,0:0:0:0:
168,364,50981,2,0,P|158:314|133:278,1,85,2|12,0:0|0:0,0:0:0:0:
288,192,51347,2,0,P|251:225|232:265,1,85,2|8,0:0|0:0,0:0:0:0:
192,112,51713,1,6,0:0:0:0:
188,104,51805,1,4,0:0:0:0:
184,96,51896,6,0,L|188:44|192:0,1,85,8|2,0:0|0:0,0:0:0:0:
330,139,52262,1,8,0:0:0:0:
334,163,52353,1,0,0:0:0:0:
338,187,52445,1,2,0:0:0:0:
384,73,52628,5,12,0:0:0:0:
340,209,52811,1,2,0:0:0:0:
250,91,52994,1,8,0:0:0:0:
416,157,53177,1,2,0:0:0:0:
320,324,53359,1,12,0:0:0:0:
317,316,53451,1,8,0:0:0:0:
315,308,53542,6,0,P|320:237|330:134,1,170,2|2,0:0|0:0,0:0:0:0:
384,73,54091,1,12,0:0:0:0:
245,9,54274,2,0,P|237:50|249:90,1,85,2|8,0:0|0:0,0:0:0:0:
220,224,54640,1,6,0:0:0:0:
228,244,54731,1,4,0:0:0:0:
236,264,54823,1,8,0:0:0:0:
84,192,55006,6,0,P|36:184|0:179,1,85,2|8,0:0|0:0,0:0:0:0:
128,24,55372,2,0,P|170:18|211:11,1,85,2|12,0:0|0:0,0:0:0:0:
320,80,55738,5,2,0:0:0:0:
208,244,55920,1,8,0:0:0:0:
52,168,56103,1,2,0:0:0:0:
248,132,56286,2,4,L|252:160|256:188,1,42.5,12|4,0:0|0:0,0:0:0:0:
272,308,56469,5,10,0:0:0:0:
136,181,56652,1,8,0:0:0:0:
320,80,56835,5,2,0:0:0:0:
244,384,57018,1,14,0:0:0:0:
148,100,57201,5,2,0:0:0:0:
180,320,57384,1,8,0:0:0:0:
72,44,57567,6,0,L|68:72|64:100,1,42.5,14|4,0:0|0:0,0:0:0:0:
36,256,57750,1,8,0:0:0:0:
272,308,57933,5,2,0:0:0:0:
220,44,58116,1,10,0:0:0:0:
328,376,58299,5,2,0:0:0:0:
400,116,58481,1,12,0:0:0:0:
152,352,58664,5,10,0:0:0:0:
364,280,58847,1,12,0:0:0:0:
360,288,58939,1,4,0:0:0:0:
356,296,59030,1,10,0:0:0:0:
96,240,59213,1,12,0:0:0:0:
92,232,59305,1,4,0:0:0:0:
88,224,59396,6,0,P|76:116|64:16,1,170,2|2,0:0|0:0,0:0:0:0:
12,260,59945,1,4,0:0:0:0:
152,352,60128,2,0,P|156:304|180:260,1,85,2|8,0:0|0:0,0:0:0:0:
316,188,60494,1,6,0:0:0:0:
296,196,60585,1,4,0:0:0:0:
276,204,60677,1,8,0:0:0:0:
56,120,60859,6,0,P|120:168|200:140,1,170,2|2,0:0|0:0,0:0:0:0:
136,80,61408,1,12,0:0:0:0:
276,204,61591,2,0,P|282:161|289:120,1,85,2|8,0:0|0:0,0:0:0:0:
424,56,61957,1,2,0:0:0:0:
188,8,62140,1,12,0:0:0:0:
192,16,62231,1,4,0:0:0:0:
196,24,62323,6,0,P|212:60|204:128,1,85,2|8,0:0|0:0,0:0:0:0:
380,104,62689,2,0,P|340:99|285:58,1,85,2|12,0:0|0:0,0:0:0:0:
216,224,63055,2,0,P|239:192|302:165,1,85,2|8,0:0|0:0,0:0:0:0:
128,76,63420,1,6,0:0:0:0:
120,72,63512,1,4,0:0:0:0:
112,68,63603,6,0,P|56:64|8:60,1,85,8|2,0:0|0:0,0:0:0:0:
0,212,63969,1,8,0:0:0:0:
24,208,64061,1,0,0:0:0:0:
48,204,64152,1,2,0:0:0:0:
292,176,64335,5,12,0:0:0:0:
240,312,64518,1,2,0:0:0:0:
212,136,64701,1,8,0:0:0:0:
380,160,64884,1,2,0:0:0:0:
156,204,65067,1,12,0:0:0:0:
152,196,65158,1,8,0:0:0:0:
148,188,65250,6,0,P|128:120|200:52,1,170,2|2,0:0|0:0,0:0:0:0:
72,228,65799,1,12,0:0:0:0:
228,340,65981,2,0,P|231:298|214:259,1,85,2|8,0:0|0:0,0:0:0:0:
304,100,66347,1,6,0:0:0:0:
300,124,66439,1,4,0:0:0:0:
296,148,66530,1,8,0:0:0:0:
148,52,66713,6,0,P|204:48|248:44,1,85,2|8,0:0|0:0,0:0:0:0:
376,248,67079,2,0,P|328:240|280:236,1,85,2|12,0:0|0:0,0:0:0:0:
228,340,67445,5,2,0:0:0:0:
376,248,67628,1,8,0:0:0:0:
212,137,67811,1,2,0:0:0:0:
436,128,67994,2,0,L|433:142|429:170,1,42.5,12|4,0:0|0:0,0:0:0:0:
404,335,68177,5,10,0:0:0:0:
168,384,68359,1,8,0:0:0:0:
348,160,68542,5,2,0:0:0:0:
124,44,68725,1,14,0:0:0:0:
232,280,68908,5,2,0:0:0:0:
436,128,69091,1,8,0:0:0:0:
124,44,69274,6,0,L|127:59|130:85,1,42.5,14|4,0:0|0:0,0:0:0:0:
152,300,69457,1,0,0:0:0:0:
492,200,69669,5,10,0:0:0:0:
216,108,69851,1,10,0:0:0:0:
452,44,70034,5,2,0:0:0:0:
220,212,70217,1,12,0:0:0:0:
420,252,70400,5,10,0:0:0:0:
144,284,70583,1,12,0:0:0:0:
148,292,70675,1,4,0:0:0:0:
152,300,70766,1,10,0:0:0:0:
336,384,70949,1,4,0:0:0:0:
332,376,71040,1,4,0:0:0:0:
328,368,71132,6,0,L|336:280|344:192,1,170,2|2,0:0|0:0,0:0:0:0:
280,140,71681,1,12,0:0:0:0:
452,44,71864,2,0,P|460:88|443:127,1,85,2|8,0:0|0:0,0:0:0:0:
440,260,72229,1,6,0:0:0:0:
448,240,72321,1,4,0:0:0:0:
456,220,72412,1,8,0:0:0:0:
495,328,72595,6,0,P|415:344|356:288,1,170,2|2,0:0|0:0,0:0:0:0:
440,260,73144,1,12,0:0:0:0:
264,212,73327,2,0,P|268:248|275:300,1,85,2|8,0:0|0:0,0:0:0:0:
292,384,73693,1,2,0:0:0:0:
416,228,73876,1,12,0:0:0:0:
420,220,73967,1,4,0:0:0:0:
424,212,74059,6,0,P|424:164|404:124,1,85,2|8,0:0|0:0,0:0:0:0:
240,108,74425,2,0,P|281:132|326:134,1,85,2|12,0:0|0:0,0:0:0:0:
424,0,74790,2,0,P|382:24|357:61,1,85,2|8,0:0|0:0,0:0:0:0:
340,212,75156,1,6,0:0:0:0:
336,220,75248,1,4,0:0:0:0:
332,228,75339,6,0,L|336:268|340:313,1,85,8|2,0:0|0:0,0:0:0:0:
232,156,75705,1,8,0:0:0:0:
236,132,75797,1,0,0:0:0:0:
240,108,75888,1,2,0:0:0:0:
388,144,76071,5,12,0:0:0:0:
240,244,76254,1,2,0:0:0:0:
164,60,76437,1,8,0:0:0:0:
252,328,76620,1,2,0:0:0:0:
96,180,76803,1,12,0:0:0:0:
92,188,76894,1,8,0:0:0:0:
88,196,76986,6,0,B|96:276|104:376,1,170,2|2,0:0|0:0,0:0:0:0:
176,320,77534,1,12,0:0:0:0:
7,226,77717,2,0,P|4:176|16:144,1,85,2|8,0:0|0:0,0:0:0:0:
240,108,78083,1,6,0:0:0:0:
236,132,78174,1,4,0:0:0:0:
232,156,78266,1,8,0:0:0:0:
212,320,78449,5,2,0:0:0:0:
348,152,78632,1,8,0:0:0:0:
188,20,78815,1,2,0:0:0:0:
272,244,78998,1,12,0:0:0:0:
416,96,79181,5,2,0:0:0:0:
124,160,79364,1,8,0:0:0:0:
372,232,79547,1,2,0:0:0:0:
104,36,79729,2,0,L|108:64|110:78,1,42.5,12|4,0:0|0:0,0:0:0:0:
140,268,79912,5,10,0:0:0:0:
348,152,80095,1,8,0:0:0:0:
16,52,80278,5,2,0:0:0:0:
272,244,80461,1,14,0:0:0:0:
428,16,80644,5,2,0:0:0:0:
32,132,80827,1,8,0:0:0:0:
416,96,81010,6,0,L|412:124|408:152,1,42.5,14|4,0:0|0:0,0:0:0:0:
380,320,81193,1,8,0:0:0:0:
188,20,81376,5,2,0:0:0:0:
212,376,81559,1,10,0:0:0:0:
464,256,81742,5,2,0:0:0:0:
48,212,81925,1,12,0:0:0:0:
444,368,82108,5,10,0:0:0:0:
500,48,82290,1,12,0:0:0:0:
496,56,82382,1,4,0:0:0:0:
492,64,82473,1,10,0:0:0:0:
252,256,82656,1,4,0:0:0:0:
248,248,82748,1,4,0:0:0:0:
244,240,82839,6,0,P|240:192|232:128,1,85,2|0,0:0|0:0,0:0:0:0:
308,52,83205,2,0,P|312:100|320:164,1,85,2|0,0:0|0:0,0:0:0:0:
408,212,83571,2,0,P|404:164|396:100,1,85,2|0,0:0|0:0,0:0:0:0:
472,24,83937,2,0,P|476:72|484:136,1,85,2|0,0:0|0:0,0:0:0:0:
492,192,84303,5,2,0:0:0:0:
420,296,84486,1,0,0:0:0:0:
317,115,84668,2,0,P|359:122|402:126,1,85,2|0,0:0|0:0,0:0:0:0:
256,180,85034,5,2,0:0:0:0:
401,127,85217,1,0,0:0:0:0:
502,283,85400,2,0,P|460:280|420:296,1,85,2|0,0:0|0:0,0:0:0:0:
276,348,85766,6,0,P|280:300|288:236,1,85,2|0,0:0|0:0,0:0:0:0:
212,160,86132,2,0,P|208:208|200:272,1,85,2|0,0:0|0:0,0:0:0:0:
120,368,86498,2,0,P|124:320|132:256,1,85,2|0,0:0|0:0,0:0:0:0:
56,180,86864,2,0,P|52:228|44:292,1,85,2|0,0:0|0:0,0:0:0:0:
36,344,87229,5,2,0:0:0:0:
92,280,87412,1,0,0:0:0:0:
20,104,87595,2,0,P|60:118|102:118,1,85,2|0,0:0|0:0,0:0:0:0:
168,60,87961,5,2,0:0:0:0:
136,236,88144,1,0,0:0:0:0:
284,168,88327,2,0,P|241:172|200:180,1,85,2|0,0:0|0:0,0:0:0:0:
