osu file format v14

[General]
AudioFilename: Kuchizuke Diamond.mp3
AudioLeadIn: 494
PreviewTime: 46774
Countdown: 0
SampleSet: Soft
StackLeniency: 0.5
Mode: 0
LetterboxInBreaks: 0
WidescreenStoryboard: 1

[Editor]
DistanceSpacing: 1
BeatDivisor: 4
GridSize: 4
TimelineZoom: 0.9999999

[Metadata]
Title:Kuchizuke Diamond
TitleUnicode:くちづけDiamond
Artist:WEAVER
ArtistUnicode:WEAVER
Creator:jieusieu
Version:Easy
Source:山田くんと7人の魔女
Tags:yamada kun to nana nin no majo Tenseki bbj0920 Fast
BeatmapID:817855
BeatmapSetID:368985

[Difficulty]
HPDrainRate:3
CircleSize:3
OverallDifficulty:4
ApproachRate:4.5
SliderMultiplier:1
SliderTickRate:1

[Events]
//Background and Video events
0,0,"Lemur.png",0,0
Video,0,"Kuchizuke Diamond.avi"
//Break Periods
//Storyboard Layer 0 (Background)
//Storyboard Layer 1 (Fail)
//Storyboard Layer 2 (Pass)
//Storyboard Layer 3 (Foreground)
//Storyboard Sound Samples

[TimingPoints]
860,365.853658536585,4,2,1,60,1,0
1225,-100,4,2,2,60,0,0
6713,-100,4,2,3,50,0,0
18420,-100,4,2,1,60,0,0
18786,-100,4,2,2,60,0,0
24274,-100,4,2,3,50,0,0
35981,-100,4,2,1,60,0,0
36256,-100,4,2,3,60,0,0
37079,-100,4,2,5,60,0,0
37445,-100,4,2,3,60,0,0
38542,-100,4,2,1,60,0,0
38908,-100,4,2,3,60,0,0
41103,-100,4,2,1,60,0,0
42109,-100,4,2,3,60,0,0
42933,-100,4,2,5,60,0,0
43299,-100,4,2,3,60,0,0
44762,-100,4,2,1,60,0,0
45128,-100,4,2,3,60,0,0
45859,-100,4,2,1,60,0,0
46774,-100,4,2,0,30,0,0
46874,-100,4,2,0,30,0,0
47689,-100,4,2,1,65,0,1
48055,-100,4,2,4,65,0,1
49427,-100,4,2,3,65,0,1
49609,-100,4,2,4,65,0,1
52353,-100,4,2,3,65,0,1
52536,-100,4,2,4,65,0,1
55280,-100,4,2,3,65,0,1
55463,-100,4,2,4,65,0,1
59396,-100,4,2,1,65,0,1
59762,-100,4,2,4,65,0,1
61134,-100,4,2,3,65,0,1
61317,-100,4,2,4,65,0,1
64061,-100,4,2,3,65,0,1
64244,-100,4,2,4,65,0,1
66988,-100,4,2,3,65,0,1
67170,-100,4,2,4,65,0,1
69669,365.853658536585,4,2,4,65,1,1
71132,-100,4,2,1,65,0,1
71498,-100,4,2,4,65,0,1
72870,-100,4,2,3,65,0,1
73053,-100,4,2,4,65,0,1
75797,-100,4,2,3,65,0,1
75979,-100,4,2,4,65,0,1
78723,-100,4,2,3,65,0,1
78906,-100,4,2,4,65,0,1
82839,-100,4,2,4,50,0,0

[Colours]
Combo1 : 210,165,248
Combo2 : 255,132,132
Combo3 : 255,247,142
Combo4 : 125,233,255

[HitObjects]
168,380,860,6,0,P|196:339|196:279,1,100,6|2,0:0|0:0,0:0:0:0:
108,252,1591,2,0,L|88:40,1,200,2|2,0:0|0:0,0:0:0:0:
180,12,2689,1,2,0:0:0:0:
240,92,3055,2,0,P|352:116|408:48,1,200,2|2,0:0|0:0,0:0:0:0:
312,24,4152,5,2,0:0:0:0:
240,92,4518,2,0,L|256:200,1,100,2|2,0:0|0:0,0:0:0:0:
188,268,5250,2,0,P|138:271|94:250,1,100,2|2,0:0|0:0,0:0:0:0:
156,172,5981,1,2,0:0:0:0:
352,136,6713,6,0,B|360:220|360:220|352:252|352:252|360:340,1,200,2|2,0:0|0:0,0:0:0:0:
440,272,7811,1,2,0:0:0:0:
448,172,8177,2,0,B|480:132|480:132|432:88,1,100,2|2,0:0|0:0,0:0:0:0:
364,40,8908,2,0,L|256:28,1,100,2|2,0:0|0:0,0:0:0:0:
168,56,9640,6,0,B|152:112|152:112|176:256,1,200,2|2,0:0|0:0,0:0:0:0:
248,320,10738,1,2,0:0:0:0:
328,260,11103,2,0,L|436:248,1,100,2|2,0:0|0:0,0:0:0:0:
484,164,11835,2,0,P|492:112|472:60,1,100,2|2,0:0|0:0,0:0:0:0:
392,120,12567,6,0,B|296:80|292:164|196:112,1,200,2|2,0:0|0:0,0:0:0:0:
136,36,13664,1,2,0:0:0:0:
40,68,14030,2,0,P|32:124|60:176,1,100,2|2,0:0|0:0,0:0:0:0:
112,240,14762,2,0,L|216:244,1,100,2|2,0:0|0:0,0:0:0:0:
292,304,15494,6,0,B|308:248|308:248|284:104,1,200,2|2,0:0|0:0,0:0:0:0:
216,36,16591,1,2,0:0:0:0:
312,12,16957,2,0,L|380:16,1,50,2|4,0:0|0:0,0:0:0:0:
361,14,18420,6,0,L|352:132,1,100,6|2,0:0|0:0,0:0:0:0:
344,212,19152,2,0,P|456:236|512:168,1,200,2|2,0:0|0:0,0:0:0:0:
416,144,20249,1,2,0:0:0:0:
388,48,20616,2,0,L|180:32,1,200,2|2,0:0|0:0,0:0:0:0:
96,68,21712,5,2,0:0:0:0:
144,156,22079,2,0,B|160:200|160:200|144:264,1,100,2|2,0:0|0:0,0:0:0:0:
100,340,22811,2,0,L|216:332,1,100,2|2,0:0|0:0,0:0:0:0:
300,324,23542,1,2,0:0:0:0:
500,300,24274,6,0,B|472:324|464:356|464:356|440:220,1,200,2|2,0:0|0:0,0:0:0:0:
496,144,25372,1,2,0:0:0:0:
432,68,25738,2,0,L|323:59,1,100,2|2,0:0|0:0,0:0:0:0:
240,24,26469,2,0,P|236:73|254:119,1,100,2|2,0:0|0:0,0:0:0:0:
348,156,27201,6,0,B|356:240|356:240|348:272|348:272|356:360,1,200,2|2,0:0|0:0,0:0:0:0:
260,384,28299,1,2,0:0:0:0:
204,304,28664,2,0,L|196:192,1,100,2|2,0:0|0:0,0:0:0:0:
184,104,29396,2,0,P|128:100|92:72,1,100,2|2,0:0|0:0,0:0:0:0:
8,20,30128,6,0,L|27:219,1,200,2|2,0:0|0:0,0:0:0:0:
40,320,31225,1,2,0:0:0:0:
120,376,31591,2,0,P|135:328|127:280,1,100,2|2,0:0|0:0,0:0:0:0:
152,184,32323,2,0,L|268:200,1,100,2|2,0:0|0:0,0:0:0:0:
328,264,33055,6,0,B|352:216|352:216|364:68,1,200,2|2,0:0|0:0,0:0:0:0:
280,20,34152,1,2,0:0:0:0:
204,88,34518,2,0,L|212:192,1,100,2|2,0:0|0:0,0:0:0:0:
236,284,35250,2,0,P|176:280|136:252,1,100,2|2,0:0|0:0,0:0:0:0:
104,168,35981,6,0,P|41:240|73:332,1,200,6|2,0:0|0:0,0:0:0:0:
143,259,37079,1,10,0:0:0:0:
176,356,37445,2,0,B|272:316|276:400|372:348,1,200,2|2,0:0|0:0,0:0:0:0:
464,380,38542,1,8,0:0:0:0:
444,280,38908,6,0,P|504:204|464:104,1,200,2|2,0:0|0:0,0:0:0:0:
404,184,40006,1,2,0:0:0:0:
376,92,40372,2,0,L|268:100,1,100,2|10,0:0|0:0,0:0:0:0:
200,36,41103,2,0,P|148:36|96:12,1,100,2|10,0:0|0:0,0:0:0:0:
36,84,41835,6,0,B|58:214|58:214|66:182|94:158,1,200,6|2,0:0|0:0,0:0:0:0:
184,116,42933,1,10,0:0:0:0:
256,184,43299,2,0,L|232:392,1,200,2|2,0:0|0:0,0:0:0:0:
156,320,44396,1,2,0:0:0:0:
80,256,44762,6,0,B|72:208|72:208|88:156,1,100,6|10,0:0|0:0,0:0:0:0:
176,116,45494,2,0,B|191:66|191:66|183:18,1,100,2|10,0:0|0:0,0:0:0:0:
92,56,46225,1,2,0:0:0:0:
75,205,46774,6,0,L|144:196,2,50,2|2|2,0:0|0:0|0:0,0:0:0:0:
47,247,47323,1,2,0:0:0:0:
89,337,47689,6,0,L|209:345,1,100,6|6,0:0|0:0,0:0:0:0:
281,307,48420,2,0,P|297:259|289:203,1,100,2|6,0:0|0:0,0:0:0:0:
199,172,49152,2,0,B|171:100|219:40|219:40|191:68|151:68,1,200,2|2,0:0|0:0,0:0:0:0:
74,28,50250,1,6,0:0:0:0:
28,116,50616,6,0,L|41:228,1,100,6|2,0:0|0:0,0:0:0:0:
56,312,51347,2,0,P|104:312|164:340,1,100,2|6,0:0|0:0,0:0:0:0:
248,360,52079,2,0,B|240:277|240:277|248:245|248:245|240:161,1,200,2|2,0:0|0:0,0:0:0:0:
188,76,53177,1,6,0:0:0:0:
264,12,53543,6,0,L|384:20,1,100,2|6,0:0|0:0,0:0:0:0:
440,84,54274,2,0,P|445:133|429:180,1,100,2|6,0:0|0:0,0:0:0:0:
388,272,55006,2,0,B|244:300|244:300|172:280,1,200,2|2,0:0|0:0,0:0:0:0:
108,340,56103,1,6,0:0:0:0:
100,240,56470,6,0,L|88:108,1,100,6|2,0:0|0:0,0:0:0:0:
88,40,57201,2,0,P|132:64|200:60,1,100,2|6,0:0|0:0,0:0:0:0:
276,32,57933,2,0,L|264:156,1,100,2|2,0:0|0:0,0:0:0:0:
324,212,58664,2,0,B|332:260|332:260|312:308,1,100,2|6,0:0|0:0,0:0:0:0:
216,280,59396,6,0,L|96:288,1,100,6|6,0:0|0:0,0:0:0:0:
32,228,60128,2,0,P|16:180|24:124,1,100,2|6,0:0|0:0,0:0:0:0:
104,64,60859,2,0,B|203:30|193:114|294:91,1,200,2|2,0:0|0:0,0:0:0:0:
380,40,61957,1,6,0:0:0:0:
452,112,62323,6,0,L|439:224,1,100,6|2,0:0|0:0,0:0:0:0:
424,308,63054,2,0,P|376:308|316:336,1,100,2|6,0:0|0:0,0:0:0:0:
244,384,63786,2,0,B|24:368,1,200,2|2,0:0|0:0,0:0:0:0:
96,284,64884,1,6,0:0:0:0:
16,224,65250,6,0,P|8:168|40:100,1,100,2|6,0:0|0:0,0:0:0:0:
80,44,65981,2,0,L|196:28,1,100,2|6,0:0|0:0,0:0:0:0:
244,108,66713,2,0,B|114:130|114:130|146:138|170:166,1,200,2|2,0:0|0:0,0:0:0:0:
264,204,67810,1,6,0:0:0:0:
340,136,68177,6,0,L|468:116,1,100,6|2,0:0|0:0,0:0:0:0:
508,192,68908,2,0,P|484:236|484:296,1,100,2|6,0:0|0:0,0:0:0:0:
404,352,69669,2,0,P|356:368|280:344,1,100,2|2,0:0|0:0,0:0:0:0:
236,292,70400,2,0,L|132:280,1,100,2|6,0:0|0:0,0:0:0:0:
44,316,71132,6,0,L|36:196,1,100,6|6,0:0|0:0,0:0:0:0:
4,120,71864,2,0,P|49:139|99:138,1,100,2|6,0:0|0:0,0:0:0:0:
184,192,72595,2,0,B|216:116|164:60|164:60|192:88|232:88,1,200,2|2,0:0|0:0,0:0:0:0:
296,144,73693,1,4,0:0:0:0:
344,56,74059,6,0,L|460:44,1,100,6|2,0:0|0:0,0:0:0:0:
512,116,74790,2,0,P|512:172|488:216,1,100,2|6,0:0|0:0,0:0:0:0:
420,280,75522,2,0,B|337:272|337:272|305:280|305:280|221:272,1,200,2|2,0:0|0:0,0:0:0:0:
136,320,76620,1,6,0:0:0:0:
68,244,76986,6,0,B|76:192|76:192|56:140,1,100,2|2,0:0|0:0,0:0:0:0:
24,52,77717,2,0,L|156:68,1,100,2|6,0:0|0:0,0:0:0:0:
220,40,78449,2,0,B|248:184|248:184|228:256,1,200,2|2,0:0|0:0,0:0:0:0:
196,328,79546,1,6,0:0:0:0:
284,372,79912,6,0,L|416:360,1,100,6|2,0:0|0:0,0:0:0:0:
460,300,80644,2,0,P|484:256|476:188,1,100,2|6,0:0|0:0,0:0:0:0:
416,132,81376,2,0,L|292:128,1,100,2|2,0:0|0:0,0:0:0:0:
240,64,82108,2,0,B|192:72|192:72|144:56,1,100,2|6,0:0|0:0,0:0:0:0:
256,192,82839,12,0,88510,0:0:0:0:
