osu file format v14

[General]
AudioFilename: Kuchizuke Diamond.mp3
AudioLeadIn: 0
PreviewTime: 46774
Countdown: 0
SampleSet: Soft
StackLeniency: 0.7
Mode: 0
LetterboxInBreaks: 1
WidescreenStoryboard: 1

[Editor]
DistanceSpacing: 1.2
BeatDivisor: 2
GridSize: 4
TimelineZoom: 1.2

[Metadata]
Title:Kuchizuke Diamond
TitleUnicode:くちづけ Diamond
Artist:WEAVER
ArtistUnicode:WEAVER
Creator:chucentry
Version:Easy
Source:yamada kun to 7 nin no majo
Tags:opening yamada kun to 7 nin no majo chucentry
BeatmapID:706738
BeatmapSetID:309843

[Difficulty]
HPDrainRate:2
CircleSize:3
OverallDifficulty:2
ApproachRate:3
SliderMultiplier:0.7
SliderTickRate:1

[Events]
//Background and Video events
Video,0,"Kuchizuke Diamond.avi"
0,0,"normal_Yamada-kun-to-7-nin-no-Majo-Visual-Art.jpg",0,0
//Break Periods
//Storyboard Layer 0 (Background)
//Storyboard Layer 1 (Fail)
//Storyboard Layer 2 (Pass)
//Storyboard Layer 3 (Foreground)
//Storyboard Sound Samples

[TimingPoints]
860,365.853658536585,4,2,1,40,1,0
5433,-100,4,2,1,30,0,0
6530,-100,4,2,1,50,0,0
37994,-100,4,2,1,60,0,0
39457,-125,4,2,1,40,0,0
41835,-100,4,2,1,60,0,0
47689,-90.9090909090909,4,2,1,80,0,1
82811,-125,4,2,1,40,0,0

[Colours]
Combo1 : 0,255,0
Combo2 : 255,74,74
Combo3 : 128,255,255
Combo4 : 255,255,0

[HitObjects]
96,64,860,6,0,P|88:136|92:224,1,140
176,292,2323,2,0,L|328:292,1,140
400,156,3786,2,0,P|308:84|220:160,1,245
311,186,5981,1,0,0:0:0:0:
428,324,6713,6,0,P|447:233|415:113,1,210
359,61,8177,1,0,0:0:0:0:
192,80,8908,2,0,L|192:248,1,140
100,304,10372,2,0,L|100:164,1,140
218,45,11835,2,0,L|302:45,1,70
372,45,12567,6,0,L|372:229,1,175
298,293,14762,2,0,P|186:301|138:277,1,140
96,199,16591,2,0,P|208:191|256:215,1,140
20,268,18420,6,0,P|8:196|28:132,1,140
126,33,19884,2,0,L|210:33,2,70
225,132,21347,2,0,L|321:132,2,70
135,221,22445,1,0,0:0:0:0:
60,280,22811,2,0,P|140:316|212:276,1,175
336,204,24274,6,0,P|356:280|336:356,1,140
460,260,25738,2,0,P|440:184|460:108,1,140
392,65,26835,2,0,L|304:65,1,70
111,65,28299,2,0,P|83:129|99:197,1,140
272,296,30128,6,0,L|124:296,1,140
168,136,31591,2,0,L|316:136,1,140
427,255,33055,2,0,P|363:279|295:247,1,140
238,195,34152,2,0,P|302:171|370:203,1,140
172,256,35981,6,0,P|152:192|196:120,1,140
326,42,37445,2,0,L|326:190,1,140
444,300,38908,2,0,L|444:204,1,70
280,288,40372,6,0,B|228:280|228:280|192:320|192:320|120:324,1,168
152,236,41835,2,0,P|128:172|160:108,1,140
304,40,43299,2,0,P|364:112|296:184,1,210
256,192,44762,12,0,46225,0:0:0:0:
120,64,47689,6,0,P|84:132|120:200,1,154.000004699707
288,184,49152,2,0,P|172:128|152:144,1,154.000004699707
244,264,50616,2,0,P|340:260|376:208,1,154.000004699707
256,116,52079,2,0,L|300:220,2,77.0000023498536
412,116,53542,6,0,P|448:180|412:260,1,154.000004699707
312,360,55006,2,0,P|276:296|312:216,1,154.000004699707
236,159,56103,2,0,L|144:160,1,77.0000023498536
28,240,57201,2,0,B|8:164|8:164|48:84,1,154.000004699707
220,40,58664,2,0,L|297:40,1,77.0000023498536
256,124,59396,6,0,L|256:288,1,154.000004699707
336,200,60859,2,0,L|172:200,1,154.000004699707
56,344,62323,2,0,P|24:272|80:192,1,154.000004699707
184,77,63786,2,0,P|230:140|308:148,1,154.000004699707
432,281,65250,6,0,P|356:268|272:288,1,154.000004699707
150,152,66713,2,0,P|226:139|310:159,1,154.000004699707
448,204,68177,2,0,L|448:116,2,77.0000023498536
352,84,69640,2,0,P|284:112|208:72,1,154.000004699707
105,189,71103,6,0,P|72:256|96:332,1,154.000004699707
292,272,72567,2,0,P|225:239|149:263,1,154.000004699707
32,140,74030,2,0,P|99:107|175:131,1,154.000004699707
320,164,75494,2,0,P|324:124|312:80,1,77.0000023498536
232,176,76957,6,0,P|276:248|352:248,1,154.000004699707
228,92,78420,2,0,P|156:136|156:212,1,154.000004699707
259,308,79884,2,0,L|182:308,2,77.0000023498536
408,344,81347,2,0,P|428:268|400:192,1,154.000004699707
276,152,82811,6,0,B|224:64|224:64|244:24|244:24|364:24|364:24|388:64|388:64|344:156,1,392
332,208,85738,6,0,B|384:296|384:296|364:336|364:336|244:336|244:336|220:296|220:296|264:204,1,392
