osu file format v14

[General]
AudioFilename: kuchizuke diamond.mp3
AudioLeadIn: 1100
PreviewTime: 46803
Countdown: 0
SampleSet: Soft
StackLeniency: 0.7
Mode: 0
LetterboxInBreaks: 0
WidescreenStoryboard: 0

[Editor]
Bookmarks: 6742,12595,18449,24303,30156,36010,41864,44790,47717,53571,59425,65278,71177,77031,82839
DistanceSpacing: 1
BeatDivisor: 4
GridSize: 4
TimelineZoom: 2

[Metadata]
Title:Kuchizuke Diamond
TitleUnicode:くちづけDiamond
Artist:WEAVER
ArtistUnicode:WEAVER
Creator:Reiki
Version:Normal
Source:山田くんと7人の魔女
Tags:Yamada-kun to 7-nin nana-nin no Majo and the seven witches tv size opening op LixRei
BeatmapID:736593
BeatmapSetID:331349

[Difficulty]
HPDrainRate:4
CircleSize:3.5
OverallDifficulty:4
ApproachRate:5
SliderMultiplier:1.2
SliderTickRate:2

[Events]
//Background and Video events
Video,0,"clip.avi"
0,0,"Yamada_kun_temp_BG.jpg",0,0
//Break Periods
//Storyboard Layer 0 (Background)
//Storyboard Layer 1 (Fail)
//Storyboard Layer 2 (Pass)
//Storyboard Layer 3 (Foreground)
//Storyboard Sound Samples

[TimingPoints]
888,365.853658536585,4,2,1,45,1,0
6741,-100,4,2,1,35,0,0
17168,-100,4,3,0,55,0,0
17900,-100,4,1,0,35,0,0
18448,-100,4,2,1,45,0,0
24302,-100,4,2,1,35,0,0
36009,-100,4,2,1,40,0,0
41314,-100,4,3,0,50,0,0
41497,-100,4,2,1,40,0,0
47717,-100,4,2,1,55,0,1
57961,-100,4,2,1,55,0,0
58875,-100,4,1,1,50,0,0
59424,-100,4,2,1,55,0,1
69714,365.853658536585,4,2,1,55,1,0
70628,-100,4,1,1,50,0,0
71177,-100,4,2,1,55,0,1
82335,-100,4,1,1,45,0,1
82884,-100,4,2,1,35,0,0

[Colours]
Combo1 : 190,125,255
Combo2 : 240,214,106
Combo3 : 55,165,255
Combo4 : 154,154,154

[HitObjects]
104,192,887,6,0,P|144:148|196:120,1,120,4|8,0:0|0:0,0:0:0:0:
317,119,1619,2,0,P|369:147|409:191,1,120,2|10,0:3|0:0,0:0:0:0:
440,244,2168,1,2,0:0:0:0:
440,244,2351,2,0,P|460:296|416:340,1,120,2|10,0:0|0:0,0:0:0:0:
364,356,2900,2,0,P|312:328|248:336,1,120,2|2,0:0|0:0,0:0:0:0:
196,356,3448,1,10,0:0:0:0:
92,292,3814,6,0,P|64:240|56:176,1,120,2|10,0:0|0:0,0:0:0:0:
72,120,4363,2,0,B|116:80|116:80|176:64,1,120,2|2,0:0|0:0,0:0:0:0:
294,64,5095,2,0,B|352:79|352:79|396:119,1,120,2|0,0:0|0:0,0:0:0:0:
412,179,5644,1,10,0:0:0:0:
412,179,5827,2,0,P|403:238|375:290,1,120,2|2,0:0|0:0,0:0:0:0:
332,332,6375,1,2,0:0:0:0:
216,368,6741,6,0,L|172:256,1,120,2|8,0:0|0:0,0:0:0:0:
126,147,7473,1,2,0:3:0:0:
244,160,7839,2,0,P|276:160|303:166,1,60,8|0,0:0|0:0,0:0:0:0:
356,196,8205,2,0,P|416:200|480:184,1,120,2|8,0:3|0:0,0:0:0:0:
408,88,8936,2,0,P|348:84|284:100,1,120,2|8,0:3|0:0,0:0:0:0:
236,124,9485,1,0,0:0:0:0:
236,124,9668,6,0,P|180:132|116:116,1,120,2|8,0:3|0:0,0:0:0:0:
76,76,10217,2,0,L|32:188,1,120
4,240,10766,1,8,0:0:0:0:
76,332,11131,1,2,0:3:0:0:
76,332,11314,2,0,P|132:360|188:364,1,120,8|8,0:0|0:0,0:0:0:0:
248,352,11863,2,0,P|304:324|360:320,1,120,2|8,0:3|0:0,0:0:0:0:
477,337,12595,6,0,L|496:216,1,120,2|8,0:3|0:0,0:0:0:0:
377,201,13327,2,0,L|358:80,1,120,2|8,0:3|0:0,0:0:0:0:
249,34,14058,2,0,L|256:96,1,60,2|0,0:3|0:0,0:0:0:0:
261,153,14424,2,0,P|276:212|260:268,1,120,0|2,0:0|0:3,0:0:0:0:
172,348,15156,2,0,P|151:321|144:292,1,60,8|0,0:0|0:0,0:0:0:0:
132,236,15522,6,0,P|144:176|128:120,1,120,2|8,0:3|0:0,0:0:0:0:
96,72,16070,2,0,L|212:40,1,120,0|0,0:0|0:0,0:0:0:0:
272,28,16619,1,8,0:0:0:0:
392,40,16985,2,0,P|416:60|432:84,1,60,2|2,0:3|0:0,0:0:0:0:
408,324,17900,6,0,P|436:336|468:340,2,60
356,296,18448,6,0,P|300:268|244:268,1,120,4|10,0:0|0:0,0:0:0:0:
192,296,18997,2,0,P|132:295|79:268,1,120,0|2,0:0|0:0,0:0:0:0:
60,212,19546,2,0,P|52:180|40:156,1,60,10|2,0:0|0:0,0:0:0:0:
16,100,19912,2,0,L|124:48,1,120,2|10,0:0|0:0,0:0:0:0:
244,47,20644,2,0,L|352:99,1,120,2|10,0:3|0:0,0:0:0:0:
408,120,21192,1,0,0:0:0:0:
408,120,21375,6,0,P|444:168|464:224,1,120,2|2,0:0|0:0,0:0:0:0:
476,284,21924,2,0,B|425:321|415:269|358:306,1,120,2|2,0:0|0:0,0:0:0:0:
256,364,22656,2,0,P|224:312|180:268,1,120,2|0,0:0|0:0,0:0:0:0:
128,244,23205,1,10,0:0:0:0:
128,244,23387,2,0,P|86:201|54:150,1,120,2|2,0:0|0:0,0:0:0:0:
40,92,23936,1,2,0:0:0:0:
140,28,24302,6,0,P|181:70|213:121,1,120,2|8,0:0|0:0,0:0:0:0:
298,206,25034,2,0,P|329:155|371:112,1,120,2|8,0:3|0:0,0:0:0:0:
424,84,25583,1,0,0:0:0:0:
424,84,25766,2,0,P|444:140|456:204,1,120,2|8,0:3|0:0,0:0:0:0:
403,308,26497,1,2,0:3:0:0:
284,319,26863,2,0,P|248:320|224:328,1,60,8|0,0:0|0:0,0:0:0:0:
172,356,27229,6,0,P|116:328|80:280,1,120,2|8,0:3|0:0,0:0:0:0:
81,222,27778,2,0,P|117:175|171:149,1,120,0|0,0:0|0:0,0:0:0:0:
232,148,28327,1,8,0:0:0:0:
348,124,28692,2,0,L|364:64,2,60,2|0|8,0:3|0:0|0:0,0:0:0:0:
312,240,29424,1,2,0:3:0:0:
196,264,29790,2,0,L|180:324,1,60,8|0,0:0|0:0,0:0:0:0:
148,372,30156,6,0,P|88:376|40:336,1,120,2|8,0:0|0:0,0:0:0:0:
32,280,30705,1,2,0:0:0:0:
32,280,30887,2,0,P|52:224|44:160,1,120,2|10,0:3|0:0,0:0:0:0:
20,48,31619,2,0,L|144:36,1,120,2|0,0:3|0:0,0:0:0:0:
196,52,32168,1,0,0:0:0:0:
196,52,32351,2,0,L|320:64,1,120,2|10,0:0|0:0,0:0:0:0:
376,68,32900,1,0,0:0:0:0:
376,68,33083,6,0,P|428:96|456:148,1,120,2|8,0:0|0:0,0:0:0:0:
456,208,33631,2,0,P|428:260|375:288,1,120,2|0,0:0|0:0,0:0:0:0:
316,304,34180,1,10,0:0:0:0:
200,340,34546,1,2,0:3:0:0:
144,356,34729,2,0,P|84:368|36:336,1,120,10|0,0:0|0:0,0:0:0:0:
28,276,35278,2,0,P|44:220|36:160,1,120,2|8,0:0|1:2,0:0:0:0:
152,124,36009,6,0,P|136:68|144:8,2,120,4|8|2,0:0|0:0|0:3,0:0:0:0:
196,236,37107,2,0,L|220:296,1,60,8|4,0:0|0:3,0:0:0:0:
244,348,37473,2,0,P|304:352|352:320,1,120,2|8,0:3|0:0,0:0:0:0:
412,216,38205,2,0,L|472:212,2,60,2|0|8,0:3|0:0|1:2,0:0:0:0:
291,215,38936,5,2,0:0:0:0:
176,177,39302,1,8,0:0:0:0:
151,60,39668,2,0,L|92:40,2,60,2|0|8,0:0|0:0|0:0,0:0:0:0:
268,96,40400,2,0,P|328:112|388:104,1,120,10|8,0:0|0:0,0:0:0:0:
496,60,41131,2,0,L|502:122,1,60,2|2,0:3|0:0,0:0:0:0:
504,180,41497,1,10,1:2:0:0:
420,264,41863,6,0,P|432:324|476:364,2,120,4|8|2,0:0|0:0|0:3,0:0:0:0:
390,147,42961,2,0,P|381:116|368:92,1,60,8|4,0:0|0:3,0:0:0:0:
332,44,43327,2,0,P|276:24|216:28,1,120,2|8,0:0|0:0,0:0:0:0:
108,80,44058,2,0,P|80:92|52:112,1,60,2|2,0:3|0:0,0:0:0:0:
16,152,44424,1,8,1:2:0:0:
132,188,44790,6,0,B|105:224|105:224|70:251,2,90,4|0|8,0:0|0:0|0:3,0:0:0:0:
192,176,45522,2,0,B|218:139|218:139|253:112,2,90,2|0|8,0:3|0:0|0:3,0:0:0:0:
184,236,46253,2,0,L|168:300,2,60,2|2|4,0:3|0:0|0:0,0:0:0:0:
472,20,47717,6,0,P|484:80|476:140,1,120,4|8,0:0|0:0,0:0:0:0:
364,180,48448,2,0,P|344:237|307:285,1,120,2|8,0:3|1:2,0:0:0:0:
260,320,48997,1,2,1:2:0:0:
260,320,49180,2,0,P|196:316|132:328,1,120,2|8,0:3|0:0,0:0:0:0:
24,348,49912,2,0,L|15:289,1,60,2|2,0:3|0:0,0:0:0:0:
12,228,50278,1,8,0:0:0:0:
12,228,50461,6,0,P|53:183|108:161,1,120,2|2,1:2|0:0,0:0:0:0:
168,172,51009,2,0,P|222:148|263:105,1,120,10|0,0:0|0:0,0:0:0:0:
360,32,51741,2,0,P|368:60|384:88,1,60,8|2,1:2|1:2,0:0:0:0:
420,136,52107,2,0,P|456:196|464:252,1,120,2|10,0:3|0:0,0:0:0:0:
392,340,52839,2,0,L|328:352,1,60,2|2,0:0|0:0,0:0:0:0:
272,360,53205,1,8,0:0:0:0:
152,340,53570,6,0,P|92:316|56:272,1,120,6|8,0:3|0:0,0:0:0:0:
57,214,54119,1,2,1:2:0:0:
57,214,54302,2,0,P|96:169|151:148,1,120,2|8,0:0|1:2,0:0:0:0:
208,128,54851,1,2,1:2:0:0:
208,128,55034,2,0,P|247:172|302:193,1,120,2|8,0:3|0:0,0:0:0:0:
424,188,55766,1,2,0:3:0:0:
360,88,56131,2,0,P|344:60|324:40,1,60,8|2,0:0|1:2,0:0:0:0:
268,24,56497,6,0,P|204:16|144:24,1,120,2|10,0:3|0:0,0:0:0:0:
88,32,57046,1,2,1:2:0:0:
88,32,57229,2,0,L|48:148,1,120,0|8,0:0|1:2,0:0:0:0:
116,244,57961,2,0,L|155:130,1,120,2|8,0:3|0:0,0:0:0:0:
236,44,58692,2,0,P|208:24|175:13,2,60,2|0|8,0:0|0:0|0:2,0:0:0:0:
284,80,59241,1,0,0:0:0:0:
284,80,59424,6,0,P|340:104|400:100,1,120,4|8,1:2|0:0,0:0:0:0:
500,40,60156,2,0,L|508:160,1,120,2|8,0:3|1:2,0:0:0:0:
508,220,60705,1,2,1:2:0:0:
508,220,60887,2,0,P|476:272|428:312,1,120,2|8,0:3|0:0,0:0:0:0:
311,309,61619,2,0,P|265:270|234:219,1,120,2|8,0:3|0:0,0:0:0:0:
236,160,62168,6,0,P|204:108|159:70,1,120,2|2,1:2|0:0,0:0:0:0:
99,70,62717,2,0,P|53:108|22:159,1,120,8|2,0:0|0:3,0:0:0:0:
12,280,63448,2,0,P|36:292|72:296,1,60,8|2,1:2|1:2,0:0:0:0:
128,288,63814,2,0,P|188:272|248:284,1,120,2|8,0:3|0:0,0:0:0:0:
328,368,64546,2,0,P|348:348|358:317,1,60,2|0,0:0|0:0,0:0:0:0:
364,260,64912,1,10,0:0:0:0:
364,139,65278,6,0,P|364:79|324:31,1,120,6|8,0:3|0:0,0:0:0:0:
272,15,65827,1,0,1:0:0:0:
272,15,66009,2,0,P|225:51|166:50,1,120,2|8,0:3|1:2,0:0:0:0:
108,35,66558,1,2,1:2:0:0:
108,35,66741,2,0,L|72:151,1,120,2|8,0:3|0:0,0:0:0:0:
20,257,67473,1,2,0:3:0:0:
87,355,67839,2,0,L|120:296,1,60,8|2,0:0|1:2,0:0:0:0:
139,248,68205,6,0,P|168:196|216:156,1,120,2|8,1:3|0:0,0:0:0:0:
272,152,68753,2,0,P|317:113|346:61,1,120,2|2,1:2|0:0,0:0:0:0:
372,8,69302,1,8,1:2:0:0:
432,128,69714,2,0,L|452:248,1,120,2|8,0:3|0:0,0:0:0:0:
385,346,70445,2,0,P|413:362|441:366,2,60,2|0|8,0:0|0:0|0:2,0:0:0:0:
332,316,70994,1,0,1:0:0:0:
332,316,71177,6,0,P|276:296|212:296,1,120,4|8,1:2|0:0,0:0:0:0:
104,336,71909,2,0,P|84:280|76:220,1,120,2|8,0:3|1:2,0:0:0:0:
76,160,72457,1,2,1:2:0:0:
76,160,72640,2,0,P|83:100|103:44,1,120,2|8,0:3|0:0,0:0:0:0:
223,31,73372,1,2,0:3:0:0:
238,148,73738,2,0,L|245:211,1,60,2|2,0:3|1:2,0:0:0:0:
248,268,74104,6,0,P|264:324|316:360,1,120,2|8,1:3|0:0,0:0:0:0:
366,251,74835,2,0,P|350:195|298:159,1,120,0|8,0:3|1:2,0:0:0:0:
244,148,75384,1,2,1:2:0:0:
244,148,75567,2,0,P|196:113|179:57,1,120,2|8,0:3|0:0,0:0:0:0:
64,24,76299,2,0,L|40:80,1,60,2|0,0:0|0:0,0:0:0:0:
8,128,76665,2,0,L|32:184,1,60,8|2,0:0|1:2,0:0:0:0:
56,236,77031,6,0,P|96:280|124:336,1,120,2|8,0:0|0:0,0:0:0:0:
183,333,77579,1,2,1:2:0:0:
183,333,77762,2,0,P|210:279|250:235,1,120,2|12,0:0|1:2,0:0:0:0:
296,196,78311,1,2,0:0:0:0:
296,196,78494,2,0,P|336:151|363:98,2,120,2|10|2,0:0|0:0|0:3,0:0:0:0:
175,196,79592,2,0,P|153:174|136:148,1,60,10|2,0:0|1:2,0:0:0:0:
124,92,79957,6,0,L|32:172,1,120,2|10,1:3|0:0,0:0:0:0:
33,291,80689,2,0,L|123:369,1,120,0|8,0:0|1:2,0:0:0:0:
183,369,81238,1,2,1:2:0:0:
183,369,81421,2,0,P|240:348|300:356,1,120,2|10,0:3|0:0,0:0:0:0:
356,364,81970,1,2,1:2:0:0:
468,316,82335,2,0,P|488:340|496:368,2,60,0|8|0,0:0|0:2|0:0,0:0:0:0:
428,272,82884,6,0,P|396:220|380:160,1,120,2|8,1:3|0:0,0:0:0:0:
260,144,83616,2,0,P|243:86|212:35,1,120,2|8,0:3|0:0,0:0:0:0:
92,56,84348,2,0,P|72:32|48:16,2,60,2|2|8,0:3|0:0|0:0,0:0:0:0:
156,156,85079,2,0,P|163:185|179:212,1,60,2|2,0:3|0:0,0:0:0:0:
220,256,85445,1,8,0:0:0:0:
320,324,85811,6,0,P|364:284|400:228,1,120,2|8,0:3|0:0,0:0:0:0:
404,112,86543,1,2,0:3:0:0:
326,21,86909,1,8,0:0:0:0:
215,59,87274,2,0,P|188:38|159:31,2,60,2|2|8,0:3|0:0|0:0,0:0:0:0:
283,159,88006,2,0,P|253:171|231:187,1,60,2|2,0:3|0:0,0:0:0:0:
179,219,88372,2,0,P|149:206|127:191,1,60,8|2,0:0|0:0,0:0:0:0:
