osu file format v14

[General]
AudioFilename: kuchizuke diamond.mp3
AudioLeadIn: 1100
PreviewTime: 46803
Countdown: 0
SampleSet: Soft
StackLeniency: 0.7
Mode: 0
LetterboxInBreaks: 0
WidescreenStoryboard: 0

[Editor]
Bookmarks: 6742,12595,18449,24303,30156,36010,41864,44790,47717,53571,59425,65278,71177,77031,82839
DistanceSpacing: 1
BeatDivisor: 4
GridSize: 4
TimelineZoom: 2

[Metadata]
Title:Kuchizuke Diamond
TitleUnicode:くちづけDiamond
Artist:WEAVER
ArtistUnicode:WEAVER
Creator:Reiki
Version:Insane
Source:山田くんと7人の魔女
Tags:Yamada-kun to 7-nin nana-nin no Majo and the seven witches tv size opening op LixRei
BeatmapID:734040
BeatmapSetID:331349

[Difficulty]
HPDrainRate:7
CircleSize:4
OverallDifficulty:7
ApproachRate:8.5
SliderMultiplier:1.8
SliderTickRate:2

[Events]
//Background and Video events
Video,0,"clip.avi"
0,0,"Yamada_kun_temp_BG.jpg",0,0
//Break Periods
//Storyboard Layer 0 (Background)
//Storyboard Layer 1 (Fail)
//Storyboard Layer 2 (Pass)
//Storyboard Layer 3 (Foreground)
//Storyboard Sound Samples

[TimingPoints]
888.469776716366,365.853658536585,4,2,1,45,1,0
6742,-133.333333333333,4,2,1,35,0,0
17168,-133.333333333333,4,3,0,55,0,0
17900,-100,4,1,0,25,0,0
18449,-100,4,2,1,45,0,0
24303,-133.333333333333,4,2,1,35,0,0
36010,-100,4,2,1,40,0,0
41315,-100,4,3,0,50,0,0
41498,-100,4,2,1,40,0,0
45522,-83.3333333333333,4,2,1,40,0,0
47717,-90.9090909090909,4,2,1,55,0,1
57961,-90.9090909090909,4,2,1,55,0,0
58876,-90.9090909090909,4,1,1,50,0,0
59425,-90.9090909090909,4,2,1,55,0,1
69714,365.853658536585,4,2,1,55,1,0
69714,-90.9090909090909,4,2,1,55,0,0
70628,-90.9090909090909,4,1,1,50,0,0
71177,-90.9090909090909,4,2,1,55,0,1
82335,-90.9090909090909,4,1,1,45,0,1
82884,-100,4,2,1,35,0,0

[Colours]
Combo1 : 190,125,255
Combo2 : 240,214,106
Combo3 : 55,165,255
Combo4 : 154,154,154

[HitObjects]
112,144,888,6,0,L|192:96,1,90,4|0,0:0|0:0,0:0:0:0:
162,218,1254,1,10,0:0:0:0:
240,172,1437,2,0,B|280:148|280:148|303:157|303:157|340:108|404:116,1,180,2|2,0:0|0:0,0:0:0:0:
380,204,1986,1,2,0:0:0:0:
374,225,2077,1,0,0:0:0:0:
368,247,2168,1,2,0:0:0:0:
362,269,2260,1,0,0:0:0:0:
356,290,2351,6,0,L|332:377,1,90,2|0,0:0|0:0,0:0:0:0:
263,258,2717,1,10,0:0:0:0:
240,172,2900,2,0,P|204:92|120:64,1,180,2|0,0:0|0:0,0:0:0:0:
36,132,3449,1,10,0:0:0:0:
116,68,3632,1,0,0:0:0:0:
135,167,3815,6,0,P|149:210|170:250,1,90,2|0,0:0|0:0,0:0:0:0:
341,250,4181,1,10,0:0:0:0:
376,167,4364,1,2,0:0:0:0:
340,260,4547,1,2,0:3:0:0:
240,172,4729,1,0,0:0:0:0:
364,116,4912,1,10,0:0:0:0:
364,115,5095,6,0,P|441:157|474:239,1,180,2|0,0:0|0:0,0:0:0:0:
240,172,5644,1,10,0:0:0:0:
240,172,5827,2,0,P|162:130|129:48,1,180,2|2,0:0|0:0,0:0:0:0:
64,112,6376,2,0,L|4:180,1,90,2|0,0:0|0:0,0:0:0:0:
92,196,6650,1,0,0:0:0:0:
92,196,6742,6,0,L|47:247,1,67.5000025749208,2|0,0:0|0:0,0:0:0:0:
158,262,7107,2,0,L|202:313,1,67.5000025749208,8|0,0:0|0:0,0:0:0:0:
183,170,7473,2,0,L|228:222,1,67.5000025749208,2|0,0:3|0:0,0:0:0:0:
294,288,7839,1,8,0:0:0:0:
388,288,8022,1,0,0:0:0:0:
454,221,8205,6,0,P|480:200|496:168,1,67.5000025749208,2|0,0:3|0:0,0:0:0:0:
469,49,8571,2,0,P|443:70|428:100,1,67.5000025749208,8|0,0:0|0:0,0:0:0:0:
376,241,8937,1,2,0:3:0:0:
294,288,9120,1,0,0:0:0:0:
212,241,9303,2,0,P|186:218|165:192,1,67.5000025749208,8|0,0:0|0:0,0:0:0:0:
212,336,9668,6,0,P|144:316|100:272,1,135.000005149842,2|8,0:3|0:0,0:0:0:0:
99,111,10217,2,0,P|146:65|211:47,1,135.000005149842
344,97,10766,2,0,P|312:111|279:116,1,67.5000025749208,8|0,0:0|0:0,0:0:0:0:
188,140,11040,1,0,0:0:0:0:
188,140,11132,6,0,L|172:208,1,67.5000025749208,2|8,0:3|0:0,0:0:0:0:
114,336,11498,2,0,L|99:271,1,67.5000025749208,8|8,0:0|0:0,0:0:0:0:
180,128,11864,1,2,0:3:0:0:
262,81,12047,1,0,0:0:0:0:
344,128,12229,2,0,P|370:148|391:175,1,67.5000025749208,8|0,0:0|0:0,0:0:0:0:
344,33,12595,6,0,P|412:53|456:97,1,135.000005149842,2|8,0:3|0:0,0:0:0:0:
426,208,13144,1,0,0:0:0:0:
356,300,13327,2,0,P|320:296|292:284,1,67.5000025749208,2|8,0:3|0:0,0:0:0:0:
183,159,13693,2,0,P|216:163|248:176,1,67.5000025749208,8|8,0:0|0:0,0:0:0:0:
100,236,14059,5,2,0:3:0:0:
67,225,14150,1,0,0:0:0:0:
40,206,14242,1,0,0:0:0:0:
180,152,14425,2,0,L|200:216,1,67.5000025749208,8|0,0:0|0:0,0:0:0:0:
356,300,14790,2,0,L|376:235,1,67.5000025749208,2|0,0:3|0:0,0:0:0:0:
421,109,15156,1,8,0:0:0:0:
328,128,15339,1,0,0:0:0:0:
357,38,15522,6,0,L|220:65,1,135.000005149842,2|8,0:3|0:0,0:0:0:0:
180,152,16071,2,0,L|74:243,1,135.000005149842
234,228,16620,2,0,L|211:291,1,67.5000025749208,8|0,0:0|0:0,0:0:0:0:
304,272,16894,1,0,0:0:0:0:
304,272,16986,6,0,L|328:202,1,67.5000025749208,2|2,0:3|0:0,0:0:0:0:
222,24,17900,5,0,0:0:0:0:
215,45,17992,1,0,0:0:0:0:
208,66,18083,1,0,0:0:0:0:
200,88,18175,1,0,0:0:0:0:
193,109,18266,1,0,0:0:0:0:
186,130,18357,1,0,0:0:0:0:
179,152,18449,6,0,B|164:196|136:232,1,90,4|0,0:0|0:0,0:0:0:0:
173,355,18815,2,0,B|188:311|216:276,1,90,10|0,0:0|0:0,0:0:0:0:
284,216,19181,1,2,0:3:0:0:
393,102,19364,2,0,L|407:59,1,45,2|0,0:0|0:0,0:0:0:0:
331,41,19547,1,10,0:0:0:0:
316,58,19638,1,0,0:0:0:0:
300,72,19729,1,2,0:0:0:0:
281,85,19821,1,0,0:0:0:0:
261,95,19912,6,0,P|216:108|168:108,1,90,2|0,0:0|0:0,0:0:0:0:
96,64,20278,1,10,0:0:0:0:
96,64,20461,2,0,L|36:240,1,180,2|2,0:0|0:0,0:0:0:0:
48,324,21010,1,10,0:0:0:0:
120,270,21193,2,0,L|164:258,1,45
236,316,21376,6,0,L|328:340,1,90,2|0,0:0|0:0,0:0:0:0:
465,240,21742,1,2,0:0:0:0:
465,240,21925,2,0,L|380:268,2,90,2|2|2,0:0|0:3|0:0,0:0:0:0:
366,180,22473,2,0,P|325:195|300:232,1,90,10|0,0:0|0:0,0:0:0:0:
211,231,22839,6,0,P|186:195|145:180,1,90,2|0,0:0|0:0,0:0:0:0:
132,268,23205,1,10,0:0:0:0:
300,231,23388,2,0,P|260:152|180:100,1,180,2|2,0:0|0:0,0:0:0:0:
264,60,23937,2,0,P|307:56|341:28,1,90,2|0,0:0|0:0,0:0:0:0:
436,24,24211,1,0,0:0:0:0:
436,24,24303,6,0,L|444:92,1,67.5000025749208,2|0,0:0|0:0,0:0:0:0:
373,247,24668,2,0,L|365:179,1,67.5000025749208,8|0,0:0|0:0,0:0:0:0:
264,60,25034,1,2,0:3:0:0:
173,33,25217,1,0,0:0:0:0:
196,125,25400,2,0,P|203:156|224:188,1,67.5000025749208,8|0,0:0|0:0,0:0:0:0:
181,312,25766,6,0,P|174:280|156:252,1,67.5000025749208,2|0,0:3|0:0,0:0:0:0:
196,125,26132,1,8,0:0:0:0:
265,60,26315,1,0,0:0:0:0:
355,86,26498,2,0,L|424:104,1,67.5000025749208,2|0,0:3|0:0,0:0:0:0:
219,218,26864,1,8,0:0:0:0:
378,177,27047,1,0,0:0:0:0:
212,220,27229,6,0,L|80:252,1,135.000005149842,2|8,0:3|0:0,0:0:0:0:
196,125,27778,2,0,L|328:157,1,135.000005149842
420,176,28327,1,8,0:0:0:0:
383,309,28510,1,0,0:0:0:0:
370,278,28601,1,0,0:0:0:0:
358,247,28693,5,2,0:3:0:0:
300,133,28876,2,0,L|320:97,2,33.7500012874604,0|0|8,0:0|0:0|0:0,0:0:0:0:
218,309,29242,1,0,0:0:0:0:
99,259,29425,1,2,0:3:0:0:
226,301,29607,1,0,0:0:0:0:
94,269,29790,1,8,0:0:0:0:
164,132,29973,1,0,0:0:0:0:
172,112,30065,1,0,0:0:0:0:
181,93,30156,6,0,P|200:64|228:44,1,67.5000025749208,2|0,0:0|0:0,0:0:0:0:
344,84,30522,2,0,P|326:113|299:133,1,67.5000025749208,8|2,0:0|0:0,0:0:0:0:
428,32,30888,2,0,L|448:96,1,67.5000025749208,2|0,0:3|0:0,0:0:0:0:
409,235,31254,2,0,L|389:171,1,67.5000025749208,10|0,0:0|0:0,0:0:0:0:
320,268,31620,5,2,0:3:0:0:
288,356,31803,2,0,P|224:376|160:356,1,135.000005149842,2|0,0:0|0:0,0:0:0:0:
120,248,32351,2,0,L|84:304,2,67.5000025749208,2|0|10,0:0|0:0|0:0,0:0:0:0:
88,160,32900,2,0,L|109:128,1,33.7500012874604
164,56,33083,6,0,P|228:36|296:36,1,135.000005149842,2|8,0:0|0:0,0:0:0:0:
483,91,33632,2,0,P|419:111|352:111,1,135.000005149842,2|0,0:0|0:0,0:0:0:0:
257,124,34181,2,0,P|224:144|205:168,1,67.5000025749208,10|0,0:0|0:0,0:0:0:0:
214,320,34547,5,2,0:3:0:0:
214,320,34729,2,0,P|265:278|287:215,1,135.000005149842,10|0,0:0|0:0,0:0:0:0:
257,124,35187,1,0,0:0:0:0:
256,123,35278,2,0,P|248:91|251:58,1,67.5000025749208,2|0,0:0|0:0,0:0:0:0:
158,201,35644,2,0,P|167:169|164:136,1,67.5000025749208,8|0,1:2|0:0,0:0:0:0:
213,319,36010,6,0,P|248:240|332:217,2,180,4|8|2,0:0|0:0|0:3,0:0:0:0:
388,292,36925,2,0,P|416:256|425:211,1,90,8|8,0:3|0:0,0:0:0:0:
312,315,37290,1,4,0:3:0:0:
332,217,37473,6,0,B|292:193|292:193|269:202|269:202|232:153|168:161,1,180,2|8,0:3|0:0,0:0:0:0:
92,196,38022,1,2,0:0:0:0:
192,248,38205,2,0,L|284:88,1,180,2|8,0:3|1:2,0:0:0:0:
281,91,38754,1,2,0:0:0:0:
372,248,38937,6,0,L|415:326,1,90,2|2,0:0|0:0,0:0:0:0:
282,262,39303,2,0,B|300:304|300:304|300:320|284:324|284:324|232:328|184:360,1,180,8|2,0:0|0:0,0:0:0:0:
136,284,39851,1,0,0:0:0:0:
135,284,40034,2,0,P|97:307|54:319,1,90,8|2,0:0|0:0,0:0:0:0:
136,192,40400,6,0,P|196:132|286:89,1,180,10|8,0:0|0:0,0:0:0:0:
376,92,40949,1,2,0:0:0:0:
500,67,41132,1,2,0:3:0:0:
426,17,41315,1,2,0:0:0:0:
449,142,41498,1,10,1:2:0:0:
347,216,41681,1,2,0:0:0:0:
347,216,41772,1,0,0:0:0:0:
347,216,41864,6,0,P|304:136|228:96,1,180,4|8,0:0|0:0,0:0:0:0:
136,84,42412,1,2,0:0:0:0:
46,95,42595,2,0,P|19:130|4:173,1,90,2|8,0:3|0:3,0:0:0:0:
42,298,42961,2,0,P|69:262|84:220,1,90,8|4,0:0|0:3,0:0:0:0:
136,84,43327,6,0,L|214:245,1,180,2|8,0:0|0:0,0:0:0:0:
232,88,43876,2,0,L|308:140,2,90,2|2|2,0:0|0:3|0:0,0:0:0:0:
308,36,44425,2,0,L|400:43,1,90,8|0,1:2|0:0,0:0:0:0:
204,36,44790,6,0,L|68:44,1,135,4|0,0:0|0:0,0:0:0:0:
69,43,45156,2,0,P|32:72|16:112,1,90,8|8,1:2|0:3,0:0:0:0:
288,144,45522,6,0,L|456:152,1,161.999995056153,2|0,0:3|0:0,0:0:0:0:
449,151,45888,2,0,P|492:184|500:240,1,107.999996704102,8|8,1:2|0:3,0:0:0:0:
348,332,46254,5,2,0:3:0:0:
288,144,46437,1,2,0:0:0:0:
273,107,46528,1,0,0:0:0:0:
260,72,46620,1,4,0:0:0:0:
288,144,47717,6,0,L|248:52,1,99.0000030212403,4|2,0:0|0:0,0:0:0:0:
192,136,48083,2,0,L|111:76,1,99.0000030212403,8|2,0:0|1:2,0:0:0:0:
108,176,48449,2,0,L|8:164,1,99.0000030212403,2|2,0:3|0:0,0:0:0:0:
184,228,48815,1,8,1:2:0:0:
198,248,48906,1,0,1:0:0:0:
213,268,48998,1,2,1:2:0:0:
248,376,49181,6,0,L|308:296,1,99.0000030212403,2|2,0:3|0:0,0:0:0:0:
360,212,49547,1,8,0:0:0:0:
441,98,49729,1,2,1:2:0:0:
457,195,49912,2,0,P|456:248|423:286,1,99.0000030212403,2|2,0:3|0:0,0:0:0:0:
344,112,50278,1,8,0:0:0:0:
267,174,50461,2,0,L|229:206,1,49.5000015106202,2|0,1:2|1:0,0:0:0:0:
192,116,50644,6,0,P|152:152|108:172,1,99.0000030212403,2|2,1:3|0:0,0:0:0:0:
12,184,51010,1,10,0:0:0:0:
104,72,51193,2,0,L|216:240,1,198.000006042481,2|2,1:2|0:0,0:0:0:0:
264,341,51742,1,8,1:2:0:0:
278,320,51833,1,0,1:0:0:0:
292,300,51925,1,2,1:2:0:0:
344,112,52107,6,0,P|386:138|416:184,1,99.0000030212403,2|2,0:3|0:0,0:0:0:0:
267,174,52473,1,10,0:0:0:0:
267,174,52656,2,0,P|224:147|195:110,2,99.0000030212403,2|2|2,1:2|0:0|0:0,0:0:0:0:
359,211,53205,1,8,0:0:0:0:
292,300,53388,1,2,1:2:0:0:
268,308,53479,1,0,0:0:0:0:
244,317,53571,6,0,L|148:288,1,99.0000030212403,6|2,0:3|0:0,0:0:0:0:
16,244,53937,1,8,0:0:0:0:
61,333,54120,1,2,1:2:0:0:
104,199,54303,2,0,P|144:116|84:40,1,198.000006042481,2|8,0:0|1:2,0:0:0:0:
85,40,54760,1,0,1:0:0:0:
85,40,54851,1,2,1:2:0:0:
184,24,55034,6,0,L|284:40,1,99.0000030212403,2|2,0:3|0:0,0:0:0:0:
449,94,55400,2,0,L|352:110,1,99.0000030212403,8|2,0:0|1:2,0:0:0:0:
255,139,55675,1,0,0:0:0:0:
255,139,55766,2,0,P|208:160|172:192,1,99.0000030212403,2|2,0:3|0:0,0:0:0:0:
281,39,56132,1,8,0:0:0:0:
352,110,56315,1,2,1:2:0:0:
352,110,56406,1,0,1:0:0:0:
352,110,56498,6,0,P|352:160|332:204,1,99.0000030212403,2|2,0:3|0:0,0:0:0:0:
158,89,56864,1,10,0:0:0:0:
158,89,57047,2,0,B|133:186|188:186|160:284,1,198.000006042481,2|2,1:2|0:0,0:0:0:0:
76,232,57595,1,8,1:2:0:0:
76,232,57687,1,0,1:0:0:0:
76,232,57778,1,2,1:2:0:0:
255,139,57961,6,0,P|280:102|324:70,1,99.0000030212403,2|2,0:3|0:0,0:0:0:0:
352,168,58327,1,8,0:0:0:0:
158,89,58510,2,0,L|112:68,2,49.5000015106202,2|0|2,0:0|0:0|0:0,0:0:0:0:
352,168,58876,1,0,0:0:0:0:
329,178,58967,1,0,0:0:0:0:
306,188,59059,1,8,0:2:0:0:
76,232,59242,1,0,0:0:0:0:
99,242,59333,1,0,0:0:0:0:
122,253,59425,6,0,P|212:296|288:360,1,198.000006042481,4|8,1:2|0:0,0:0:0:0:
384,340,59973,1,2,1:2:0:0:
452,268,60156,2,0,P|480:228|488:176,1,99.0000030212403,2|2,0:3|0:0,0:0:0:0:
460,15,60522,1,8,1:2:0:0:
442,32,60614,1,0,1:0:0:0:
430,53,60705,1,2,1:2:0:0:
318,168,60888,6,0,P|296:124|252:92,1,99.0000030212403,2|2,0:3|0:0,0:0:0:0:
160,112,61254,1,8,0:0:0:0:
62,130,61437,1,2,1:2:0:0:
207,198,61620,1,2,0:3:0:0:
140,270,61803,1,2,0:0:0:0:
164,104,61986,1,8,0:0:0:0:
50,229,62168,1,2,1:2:0:0:
50,229,62260,1,0,1:0:0:0:
50,229,62351,6,0,P|40:276|57:323,1,99.0000030212403,2|2,1:3|0:0,0:0:0:0:
224,324,62717,2,0,P|240:278|230:230,1,99.0000030212403,8|2,0:0|1:2,0:0:0:0:
160,112,63083,1,2,0:3:0:0:
210,26,63266,1,2,0:0:0:0:
309,26,63449,1,8,1:2:0:0:
341,39,63540,1,0,1:0:0:0:
369,58,63632,1,2,1:2:0:0:
425,217,63815,6,0,P|381:197|355:156,2,99.0000030212403,2|2|8,0:3|0:0|0:0,0:0:0:0:
446,119,64364,2,0,L|496:96,2,49.5000015106202,2|2|2,1:2|0:0|0:0,0:0:0:0:
256,192,64729,1,0,0:0:0:0:
256,192,64912,1,10,0:0:0:0:
110,139,65095,1,2,1:2:0:0:
87,128,65187,1,0,0:0:0:0:
65,118,65278,6,0,P|28:44|112:48,1,198.000006042481,6|8,0:3|0:0,0:0:0:0:
256,192,65827,1,0,1:0:0:0:
256,192,66010,2,0,P|293:266|209:262,1,198.000006042481,2|8,0:3|1:2,0:0:0:0:
155,181,66467,1,0,1:0:0:0:
155,181,66559,1,2,1:2:0:0:
344,156,66742,6,0,L|307:62,1,99.0000030212403,2|2,0:3|0:0,0:0:0:0:
256,192,67107,1,8,0:0:0:0:
217,103,67290,2,0,P|211:57|229:4,2,99.0000030212403,2|2|2,1:2|0:3|0:0,0:0:0:0:
332,256,67839,1,8,0:0:0:0:
480,316,68022,2,0,L|499:267,1,49.5000015106202,2|0,1:2|1:0,0:0:0:0:
424,194,68205,6,0,L|348:128,1,99.0000030212403,2|2,1:3|0:0,0:0:0:0:
332,256,68571,1,8,0:0:0:0:
332,256,68754,2,0,P|244:220|140:236,1,198.000006042481,2|2,1:2|0:0,0:0:0:0:
104,144,69303,1,8,1:2:0:0:
121,127,69394,1,0,1:0:0:0:
139,109,69486,1,2,1:2:0:0:
282,58,69714,6,0,L|326:146,1,99.0000030212403,2|2,0:3|0:0,0:0:0:0:
332,256,70079,1,8,0:0:0:0:
184,355,70262,2,0,L|138:376,2,49.5000015106202,2|0|2,0:0|0:0|0:0,0:0:0:0:
378,276,70628,1,0,0:0:0:0:
355,266,70720,1,0,0:0:0:0:
332,256,70811,1,8,0:2:0:0:
148,191,70994,1,0,1:0:0:0:
125,202,71085,1,0,0:0:0:0:
102,212,71177,6,0,B|60:232|32:264|32:264|6:224|32:152,1,198.000006042481,4|8,1:2|0:0,0:0:0:0:
104,80,71726,2,0,P|148:56|184:20,2,99.0000030212403,2|2|2,1:2|0:3|0:0,0:0:0:0:
148,191,72274,1,8,1:2:0:0:
181,198,72366,1,0,1:0:0:0:
215,206,72457,1,2,1:2:0:0:
378,276,72640,6,0,P|404:232|444:204,1,99.0000030212403,2|2,0:3|0:0,0:0:0:0:
372,288,73006,1,8,0:0:0:0:
298,136,73189,1,2,1:2:0:0:
259,249,73372,1,2,0:3:0:0:
410,175,73555,1,2,0:0:0:0:
252,256,73738,1,2,0:3:0:0:
101,182,73921,1,2,1:2:0:0:
70,165,74012,1,0,1:0:0:0:
39,147,74104,6,0,P|20:104|37:58,1,99.0000030212403,2|2,1:3|0:0,0:0:0:0:
84,248,74470,1,8,0:0:0:0:
84,248,74653,2,0,P|104:296|84:340,2,99.0000030212403,2|0|2,1:2|0:3|0:0,0:0:0:0:
37,58,75201,1,8,1:2:0:0:
37,58,75293,1,0,1:0:0:0:
37,58,75384,1,2,1:2:0:0:
226,112,75567,6,0,L|324:140,1,99.0000030212403,2|2,0:3|0:0,0:0:0:0:
495,188,75933,2,0,L|400:216,1,99.0000030212403,8|2,0:0|1:2,0:0:0:0:
303,238,76207,1,2,0:0:0:0:
303,238,76299,2,0,P|255:262|223:298,1,99.0000030212403,2|0,0:0|0:0,0:0:0:0:
5,305,76665,2,0,P|50:283|84:248,1,99.0000030212403,8|2,0:0|1:2,0:0:0:0:
112,152,76939,1,0,0:0:0:0:
112,152,77031,6,0,P|160:64|248:24,1,198.000006042481,2|8,0:0|0:0,0:0:0:0:
328,96,77579,1,2,1:2:0:0:
111,152,77762,1,2,0:0:0:0:
139,142,77854,1,0,0:0:0:0:
169,136,77945,1,2,0:0:0:0:
198,135,78037,1,0,0:0:0:0:
228,139,78128,1,12,1:2:0:0:
432,168,78311,2,0,L|408:216,1,49.5000015106202,2|0,0:0|0:0,0:0:0:0:
310,210,78494,6,0,P|256:296|172:344,1,198.000006042481,2|10,0:0|0:0,0:0:0:0:
68,316,79043,1,2,1:2:0:0:
68,208,79226,2,0,P|108:176|144:136,1,99.0000030212403,2|2,0:3|0:0,0:0:0:0:
310,210,79592,2,0,P|343:173|382:142,1,99.0000030212403,10|2,0:0|1:2,0:0:0:0:
468,96,79866,1,0,1:0:0:0:
468,96,79957,6,0,L|484:196,1,99.0000030212403,2|2,1:3|0:0,0:0:0:0:
411,336,80323,1,10,0:0:0:0:
411,336,80506,2,0,L|381:141,1,198.000006042481,2|2,1:2|0:0,0:0:0:0:
304,64,81055,1,8,1:2:0:0:
260,40,81146,1,0,1:0:0:0:
212,32,81238,1,2,1:2:0:0:
56,87,81421,6,0,P|99:111|148:120,1,99.0000030212403,2|2,0:3|0:0,0:0:0:0:
96,216,81787,2,0,P|145:214|191:197,1,99.0000030212403,10|2,0:0|1:2,0:0:0:0:
304,64,82153,1,2,0:0:0:0:
364,228,82335,2,0,L|384:276,2,49.5000015106202,0|0|8,0:0|0:0|0:2,0:0:0:0:
165,127,82701,1,0,0:0:0:0:
177,160,82793,1,0,0:0:0:0:
189,193,82884,6,0,P|208:232|240:268,1,90,2|2,1:3|0:0,0:0:0:0:
364,228,83250,2,0,P|344:187|314:154,1,90,8|2,0:0|0:0,0:0:0:0:
157,241,83616,6,0,P|204:278|266:303,1,90,2|2,0:3|0:0,0:0:0:0:
395,179,83982,2,0,P|346:141|289:117,1,90,8|2,0:0|0:0,0:0:0:0:
212,32,84348,6,0,L|148:100,1,90,2|2,0:3|0:0,0:0:0:0:
95,307,84713,2,0,L|159:239,1,90,8|2,0:0|0:0,0:0:0:0:
300,32,85079,5,2,0:3:0:0:
361,97,85262,1,2,0:0:0:0:
417,307,85445,5,8,0:0:0:0:
355,241,85628,1,2,0:0:0:0:
95,307,85811,6,0,P|64:272|52:232,1,90,2|2,0:3|0:0,0:0:0:0:
80,88,86177,2,0,P|110:121|124:164,1,90,8|2,0:0|0:0,0:0:0:0:
323,335,86543,5,2,0:3:0:0:
323,335,86726,1,2,0:0:0:0:
275,119,86909,5,8,0:0:0:0:
275,119,87092,1,2,0:0:0:0:
111,268,87274,6,0,P|76:241|53:203,1,90,2|2,0:3|0:0,0:0:0:0:
196,212,87640,2,0,P|232:241|256:281,1,90,8|2,0:0|0:0,0:0:0:0:
400,268,88006,5,2,0:3:0:0:
458,203,88189,1,2,0:0:0:0:
316,212,88372,5,8,0:0:0:0:
257,277,88555,1,2,0:0:0:0:
