osu file format v14

[General]
AudioFilename: kuchizuke diamond.mp3
AudioLeadIn: 1100
PreviewTime: 46803
Countdown: 0
SampleSet: Soft
StackLeniency: 0.7
Mode: 0
LetterboxInBreaks: 0
WidescreenStoryboard: 0

[Editor]
Bookmarks: 6742,12595,18449,24303,30156,36010,41864,44790,47717,53571,59425,65278,71177,77031,82839
DistanceSpacing: 1.1
BeatDivisor: 4
GridSize: 4
TimelineZoom: 2

[Metadata]
Title:Kuchizuke Diamond
TitleUnicode:くちづけDiamond
Artist:WEAVER
ArtistUnicode:WEAVER
Creator:Reiki
Version:Easy
Source:山田くんと7人の魔女
Tags:Yamada-kun to 7-nin nana-nin no Majo and the seven witches tv size opening op LixRei
BeatmapID:737370
BeatmapSetID:331349

[Difficulty]
HPDrainRate:2
CircleSize:3
OverallDifficulty:2
ApproachRate:3
SliderMultiplier:0.9
SliderTickRate:1

[Events]
//Background and Video events
Video,0,"clip.avi"
0,0,"Yamada_kun_temp_BG.jpg",0,0
//Break Periods
//Storyboard Layer 0 (Background)
//Storyboard Layer 1 (Fail)
//Storyboard Layer 2 (Pass)
//Storyboard Layer 3 (Foreground)
//Storyboard Sound Samples

[TimingPoints]
888,365.853658536585,4,2,1,45,1,0
6741,-100,4,2,1,25,0,0
17168,-100,4,3,0,55,0,0
17534,-100,4,2,1,35,0,0
18448,-100,4,2,1,45,0,0
24302,-100,4,2,1,35,0,0
36009,-100,4,2,1,40,0,0
47717,-100,4,2,1,55,0,1
57961,-100,4,2,1,55,0,0
59424,-100,4,2,1,55,0,1
69714,365.853658536585,4,2,1,55,1,0
71177,-100,4,2,1,55,0,1
82884,-100,4,2,1,35,0,0

[Colours]
Combo1 : 190,125,255
Combo2 : 240,214,106
Combo3 : 55,165,255
Combo4 : 154,154,154

[HitObjects]
368,108,887,6,0,P|392:192|372:284,1,180,4|2,0:0|0:0,0:0:0:0:
308,340,1985,1,8,0:0:0:0:
220,352,2351,2,0,P|171:362|127:358,2,90,2|8|2,0:0|0:0|0:0,0:0:0:0:
253,268,3448,1,8,0:0:0:0:
280,184,3814,6,0,B|304:120|296:48,1,135,2|2,0:0|0:0,0:0:0:0:
212,20,4729,1,2,0:0:0:0:
128,48,5095,2,0,B|120:116|144:180,1,135,2|10,0:0|0:0,0:0:0:0:
211,240,6009,2,0,B|239:276|239:276|283:304,1,90,2|2,0:0|0:0,0:0:0:0:
366,299,6741,6,0,B|403:275|403:275|431:239,1,90,2|8,0:0|0:0,0:0:0:0:
476,161,7473,1,2,0:3:0:0:
431,83,7839,1,8,0:0:0:0:
341,83,8205,2,0,P|260:48|164:32,1,180,2|2,0:3|0:3,0:0:0:0:
80,20,9302,1,8,0:0:0:0:
16,80,9668,6,0,B|28:148|28:148|80:200,2,135,2|0|8,0:3|0:0|0:0,0:0:0:0:
104,100,11131,2,0,B|164:168|164:168|176:260,1,180,2|2,0:3|0:3,0:0:0:0:
184,348,12229,1,8,0:0:0:0:
272,372,12595,6,0,P|320:376|360:368,1,90,2|8,0:3|0:0,0:0:0:0:
400,288,13327,2,0,P|443:267|474:240,1,90,2|8,0:3|0:0,0:0:0:0:
492,152,14058,2,0,P|448:76|360:32,1,180,2|2,0:3|0:3,0:0:0:0:
280,20,15156,1,8,0:0:0:0:
192,32,15522,6,0,P|113:73|68:150,1,180,2|0,0:3|0:0,0:0:0:0:
68,240,16619,2,0,P|120:288|156:344,1,135,8|2,0:0|0:0,0:0:0:0:
245,341,17534,2,0,P|282:284|331:239,1,135,0|0,0:0|1:0,0:0:0:0:
400,180,18448,6,0,P|444:104|392:32,1,180,4|2,0:0|0:0,0:0:0:0:
308,24,19546,1,8,0:0:0:0:
224,52,19912,2,0,L|168:128,1,90,2|8,0:0|0:0,0:0:0:0:
80,124,20644,2,0,L|69:217,1,90,2|8,0:0|0:0,0:0:0:0:
60,304,21375,6,0,B|127:330|127:283|196:304,1,135,2|2,0:0|0:0,0:0:0:0:
280,320,22290,1,2,0:0:0:0:
364,348,22656,2,0,P|396:288|404:220,1,135,2|10,0:0|0:0,0:0:0:0:
404,132,23570,2,0,B|392:88|392:88|368:48,1,90,2|2,0:0|0:0,0:0:0:0:
278,49,24302,6,0,B|255:87|255:87|243:131,1,90,2|8,0:0|0:0,0:0:0:0:
217,217,25034,1,2,0:3:0:0:
128,220,25400,1,8,0:0:0:0:
98,134,25766,2,0,P|72:72|24:16,2,135,2|0|8,0:3|0:0|0:0,0:0:0:0:
186,152,27229,6,0,P|212:214|260:270,2,135,2|0|8,0:3|0:0|0:0,0:0:0:0:
158,66,28692,2,0,P|194:38|242:30,1,90,2|8,0:3|0:0,0:0:0:0:
327,29,29424,2,0,P|370:37|405:65,1,90,2|8,0:3|0:0,0:0:0:0:
469,129,30156,5,2,0:0:0:0:
469,219,30522,1,8,0:0:0:0:
405,282,30887,2,0,B|372:312|372:312|328:324,1,90,2|10,0:3|0:0,0:0:0:0:
237,323,31619,2,0,B|193:311|193:311|160:281,1,90,2|0,0:3|0:0,0:0:0:0:
192,196,32351,1,2,0:0:0:0:
115,154,32717,1,10,0:0:0:0:
24,148,33083,6,0,P|12:80|16:12,2,135,2|2|10,0:0|0:0|0:0,0:0:0:0:
64,228,34546,2,0,P|84:268|96:312,1,90,2|0,0:3|0:0,0:0:0:0:
176,356,35278,2,0,P|187:312|207:272,1,90,2|8,0:0|1:2,0:0:0:0:
260,200,36009,6,0,P|288:136|296:64,2,135,4|0|8,0:0|0:0|0:0,0:0:0:0:
172,192,37473,2,0,P|152:236|128:272,2,90,2|8|2,0:3|0:0|0:3,0:0:0:0:
188,104,38570,1,8,1:2:0:0:
172,16,38936,6,0,P|264:16|352:36,1,180,2|2,0:0|0:0,0:0:0:0:
436,60,40034,1,8,0:0:0:0:
472,144,40400,2,0,P|484:188|484:240,1,90,10|8,0:0|0:0,0:0:0:0:
416,288,41131,2,0,P|393:327|356:364,1,90,2|10,0:3|1:2,0:0:0:0:
272,344,41863,6,0,P|212:356|136:352,2,135,4|0|8,0:0|0:0|0:0,0:0:0:0:
324,272,43327,2,0,P|384:260|460:264,2,135,2|0|8,0:0|0:0|1:2,0:0:0:0:
234,259,44790,6,0,P|206:223|190:175,1,90,4|8,0:0|1:2,0:0:0:0:
148,100,45522,2,0,P|172:64|220:32,1,90,2|8,0:3|1:2,0:0:0:0:
296,64,46253,2,0,P|338:48|372:16,1,90,2|4,0:3|0:0,0:0:0:0:
148,168,47717,6,0,P|212:232|296:268,1,180,4|2,0:0|0:3,0:0:0:0:
380,292,48814,1,8,1:2:0:0:
468,272,49180,2,0,L|484:184,1,90,2|8,0:3|0:0,0:0:0:0:
420,120,49912,2,0,L|404:32,1,90,2|8,0:3|0:0,0:0:0:0:
316,12,50644,6,0,P|272:56|200:88,1,135,2|0,1:3|1:0,0:0:0:0:
116,92,51558,1,2,0:0:0:0:
48,148,51924,2,0,P|80:208|136:264,1,135,2|10,1:2|0:0,0:0:0:0:
216,256,52839,2,0,P|249:223|277:183,1,90,2|8,0:0|0:0,0:0:0:0:
304,104,53570,6,0,P|380:152|440:224,1,180,6|2,0:3|0:0,0:0:0:0:
464,308,54668,1,8,1:2:0:0:
396,368,55034,2,0,P|348:368|308:356,1,90,2|8,0:3|0:0,0:0:0:0:
232,304,55766,1,2,0:3:0:0:
144,320,56131,1,8,0:0:0:0:
76,260,56497,6,0,P|52:192|48:128,2,135,2|2|8,0:3|1:2|1:2,0:0:0:0:
144,320,57961,2,0,P|192:316|236:296,1,90,2|8,0:3|0:0,0:0:0:0:
276,220,58692,2,0,P|320:224|368:244,1,90,2|8,0:0|1:2,0:0:0:0:
448,264,59424,6,0,L|476:84,1,180,4|2,1:2|0:3,0:0:0:0:
400,36,60522,1,8,1:2:0:0:
312,60,60887,2,0,L|296:152,1,90,2|8,0:3|0:0,0:0:0:0:
232,212,61619,2,0,L|172:283,1,90,2|8,0:3|0:0,0:0:0:0:
108,340,62351,6,0,P|52:316|8:256,2,135,2|2|8,1:3|1:2|1:2,0:0:0:0:
196,364,63814,2,0,P|244:364|288:348,1,90,2|8,0:3|0:0,0:0:0:0:
344,284,64546,1,2,0:0:0:0:
432,304,64912,1,10,0:0:0:0:
484,232,65278,6,0,P|504:148|476:60,1,180,6|2,0:3|0:3,0:0:0:0:
404,8,66375,1,8,1:2:0:0:
332,60,66741,2,0,P|312:99|304:147,1,90,2|8,0:3|0:0,0:0:0:0:
316,232,67473,2,0,P|291:268|254:299,1,90,2|8,0:3|0:0,0:0:0:0:
166,297,68205,6,0,P|108:263|67:209,1,135,2|2,1:3|1:2,0:0:0:0:
40,125,69119,1,2,0:0:0:0:
68,37,69485,2,0,P|125:70|170:137,1,146.25,0|8,1:0|0:0,0:0:0:0:
184,225,70445,2,0,P|212:261|248:293,1,90,2|8,0:0|1:2,0:0:0:0:
328,325,71177,6,0,P|380:253|456:201,1,180,4|2,1:2|0:3,0:0:0:0:
492,120,72274,1,8,1:2:0:0:
448,40,72640,2,0,P|404:32|356:36,1,90,2|8,0:3|0:0,0:0:0:0:
276,72,73372,2,0,P|240:100|194:114,1,90,2|2,0:3|0:3,0:0:0:0:
108,104,74104,5,2,1:3:0:0:
44,168,74470,1,8,0:0:0:0:
84,248,74835,2,0,P|128:268|160:296,1,90,0|8,0:3|1:2,0:0:0:0:
208,372,75567,2,0,P|276:360|340:336,2,135,2|2|8,0:3|0:0|0:0,0:0:0:0:
116,376,77031,6,0,B|40:328|40:328|16:240,1,180,2|2,0:0|0:0,0:0:0:0:
16,151,78128,2,0,B|26:107|26:107|66:83,2,90,12|2|10,1:2|0:0|0:0,0:0:0:0:
96,196,79226,2,0,L|120:284,1,90,2|10,0:3|0:0,0:0:0:0:
192,336,79957,6,0,L|224:204,1,135,2|2,1:3|1:2,0:0:0:0:
248,120,80872,1,2,0:0:0:0:
292,40,81238,2,0,P|356:24|424:32,1,135,2|10,1:2|0:0,0:0:0:0:
487,95,82153,1,0,1:0:0:0:
487,184,82518,1,8,1:2:0:0:
423,247,82884,6,0,P|336:252|252:212,1,180,2|2,1:3|0:3,0:0:0:0:
200,140,83982,1,8,0:0:0:0:
156,60,84348,2,0,P|116:80|80:108,1,90,2|8,0:3|0:0,0:0:0:0:
20,172,85079,2,0,P|40:212|68:248,1,90,2|10,0:0|0:0,0:0:0:0:
124,316,85811,6,0,P|212:300|292:260,1,180,2|2,0:3|0:3,0:0:0:0:
356,196,86909,1,8,0:0:0:0:
368,108,87274,2,0,B|340:72|340:72|300:52,1,90,2|8,0:3|0:0,0:0:0:0:
210,52,88006,2,0,B|170:72|170:72|142:108,1,90,2|10,0:0|0:0,0:0:0:0:
